<?xml version="1.0" standalone="no"?>
<!DOCTYPE svg PUBLIC "-//W3C//DTD SVG 1.1//EN" "http://www.w3.org/Graphics/SVG/1.1/DTD/svg11.dtd" >
<svg xmlns="http://www.w3.org/2000/svg" xmlns:xlink="http://www.w3.org/1999/xlink" version="1.1">
<metadata>
Created by FontForge 20190801 at Thu Nov 11 14:45:20 2004
 By www-data
Copyright 1997 International Typeface Corporation. All rights reserved.
</metadata>
<defs>
<font id="ConduitITCStdBold" horiz-adv-x="507" >
  <font-face 
    font-family="ConduitITCStdBold"
    font-weight="700"
    font-stretch="normal"
    units-per-em="1000"
    panose-1="2 0 8 6 3 0 0 2 0 4"
    ascent="800"
    descent="-200"
    x-height="457"
    cap-height="630"
    bbox="-72 -250 1286 831"
    underline-thickness="86"
    underline-position="-112"
    unicode-range="U+0020-FB04"
  />
<missing-glyph horiz-adv-x="500" 
d="M12 0v665h475v-665h-475zM88 618l162 -243l161 243h-323zM60 575v-484l40 61l80 120l41 61zM440 575l-162 -242l162 -243v485zM411 48l-161 242l-162 -242h323z" />
    <glyph glyph-name="f_f" unicode="ff" horiz-adv-x="553" 
d="M591 625q0 -5 -4 -15l-27 -74q-2 -8 -8 -8l-11 4q-11 3 -22 3q-31 0 -51 -20.5t-20 -51.5v-38q0 -10 10 -10h66q10 0 10 -10v-85q0 -10 -10 -10h-66q-10 0 -10 -10v-290q0 -10 -10 -10h-95q-10 0 -10 10v290q0 10 -10 10h-126q-10 0 -10 -10v-290q0 -10 -10 -10h-95
q-10 0 -10 10v290q0 10 -10 10h-23q-10 0 -10 10v85q0 10 10 10h23q10 0 10 10v28q0 77 55 132t131 55q79 0 128 -35q10 -7 12 -7t12 7q48 35 109 35q34 0 64 -7q8 -2 8 -8zM338 494q0 8 -9 16q-28 25 -71 25q-30 0 -50.5 -20.5t-20.5 -51.5v-38q0 -10 10 -10h126
q10 0 10 10v28q0 12 1.5 21t2.5 14t1 6z" />
    <glyph glyph-name="f_i" unicode="fi" horiz-adv-x="502" 
d="M454 573q0 -27 -20 -47t-47 -20t-46.5 20t-19.5 47t19.5 47t46.5 20t47 -20t20 -47zM445 10q0 -10 -10 -10h-95q-10 0 -10 10v438q0 10 10 10h95q10 0 10 -10v-438zM272 320q0 -10 -10 -10h-65q-10 0 -10 -10v-290q0 -10 -10 -10h-95q-10 0 -10 10v290q0 10 -10 10h-23
q-10 0 -10 10v85q0 10 10 10h23q10 0 10 10v28q0 61 36 109t98 67q31 10 56 10q10 0 10 -10v-85q0 -10 -9 -10q-37 -3 -56.5 -22.5t-19.5 -48.5v-38q0 -10 10 -10h65q10 0 10 -10v-85z" />
    <glyph glyph-name="f_l" unicode="fl" horiz-adv-x="506" 
d="M448 10q0 -10 -10 -10h-95q-10 0 -10 10v505q0 10 -10 10h-65q-30 0 -50.5 -21t-20.5 -51v-28q0 -10 10 -10h65q10 0 10 -10v-85q0 -10 -10 -10h-65q-10 0 -10 -10v-290q0 -10 -10 -10h-95q-10 0 -10 10v290q0 10 -10 10h-23q-10 0 -10 10v85q0 10 10 10h23q10 0 10 10
v19q0 77 54.5 131.5t131.5 54.5h180q10 0 10 -10v-610z" />
    <glyph glyph-name="f_f_i" unicode="ffi" horiz-adv-x="757" 
d="M715 573q0 -27 -19.5 -47t-46.5 -20t-47 20t-20 47t20 47t47 20t46.5 -20t19.5 -47zM706 10q0 -10 -10 -10h-95q-10 0 -10 10v438q0 10 10 10h95q10 0 10 -10v-438zM534 320q0 -10 -10 -10h-66q-10 0 -10 -10v-290q0 -10 -10 -10h-95q-10 0 -10 10v290q0 10 -10 10h-126
q-10 0 -10 -10v-290q0 -10 -10 -10h-95q-10 0 -10 10v290q0 10 -10 10h-23q-10 0 -10 10v85q0 10 10 10h23q10 0 10 10v28q0 77 55 132t131 55q79 0 128 -35q10 -7 12 -7t4 1.5t5 3t4 2.5q26 18 59.5 26.5t53.5 8.5q10 0 10 -10v-86q0 -10 -9 -10q-38 -3 -57.5 -22.5
t-19.5 -48.5v-38q0 -10 10 -10h66q10 0 10 -10v-85zM338 494q0 8 -9 16q-28 25 -71 25q-30 0 -50.5 -20.5t-20.5 -51.5v-38q0 -10 10 -10h126q10 0 10 10v28q0 12 1.5 21t2.5 14t1 6z" />
    <glyph glyph-name="f_f_l" unicode="ffl" horiz-adv-x="766" 
d="M709 10q0 -10 -10 -10h-95q-10 0 -10 10v505q0 10 -10 10h-65q-30 0 -50.5 -20.5t-20.5 -51.5v-28q0 -10 10 -10h66q10 0 10 -10v-85q0 -10 -10 -10h-66q-10 0 -10 -10v-290q0 -10 -10 -10h-95q-10 0 -10 10v290q0 10 -10 10h-126q-10 0 -10 -10v-290q0 -10 -10 -10h-95
q-10 0 -10 10v290q0 10 -10 10h-23q-10 0 -10 10v85q0 10 10 10h23q10 0 10 10v28q0 77 55 132t131 55q86 0 135 -40l11 -7q1 0 13 8q42 29 102 29h180q10 0 10 -10v-610zM339 493q0 8 -9 16q-29 26 -72 26q-30 0 -50.5 -20.5t-20.5 -51.5v-38q0 -10 10 -10h126q10 0 10 10
v28q0 13 3 27z" />
    <glyph glyph-name=".notdef" horiz-adv-x="500" 
d="M12 0v665h475v-665h-475zM88 618l162 -243l161 243h-323zM60 575v-484l40 61l80 120l41 61zM440 575l-162 -242l162 -243v485zM411 48l-161 242l-162 -242h323z" />
    <glyph glyph-name=".null" horiz-adv-x="0" 
 />
    <glyph glyph-name="nonmarkingreturn" horiz-adv-x="333" 
 />
    <glyph glyph-name="space" unicode=" " horiz-adv-x="177" 
 />
    <glyph glyph-name="exclam" unicode="!" horiz-adv-x="306" 
d="M210 359l-21 -178q-1 -9 -10 -9h-50q-9 0 -10 9l-23 178v261q0 10 10 10h94q10 0 10 -10v-261zM220 57q0 -27 -20 -47t-47 -20t-47 20t-20 47t20 47t47 20t47 -20t20 -47z" />
    <glyph glyph-name="quotedbl" unicode="&#x22;" horiz-adv-x="316" 
d="M283 621q0 -5 -4 -33l-19 -149q-2 -9 -10 -9h-49q-9 0 -10 9l-20 150q-4 24 -4 32q0 9 10 9h96q10 0 10 -9zM149 621q0 -5 -4 -33l-19 -149q-2 -9 -10 -9h-49q-9 0 -10 9l-20 150q-4 24 -4 32q0 9 10 9h96q10 0 10 -9z" />
    <glyph glyph-name="numbersign" unicode="#" horiz-adv-x="556" 
d="M530 452l-3 -15l-20 -74q-3 -10 -13 -10h-65q-9 0 -10 -6l-12 -43q-4 -14 -4 -18q0 -9 10 -9h65q8 0 8 -6q0 -3 -3 -15l-20 -74q-3 -10 -13 -10h-72q-9 0 -10 -6l-46 -159q-1 -7 -10 -7h-59q-10 0 -10 9q0 4 2 10.5t2 7.5l33 122q0 2 1 5t1.5 5.5t0.5 4.5q0 8 -10 8h-78
q-9 0 -10 -6l-45 -159q-1 -7 -10 -7h-60q-10 0 -10 9q0 6 4 18l35 122q3 12 3 15q0 8 -10 8h-57q-7 0 -7 6q0 2 2 9.5t2 8.5l19 71q3 10 12 10h64q8 0 10 8l13 45q0 2 2 7.5t2 7.5q0 8 -11 8h-64q-7 0 -7 6q0 4 4 18l19 71q3 10 12 10h73q8 0 10 8l44 157q1 7 10 7h60
q11 0 11 -9q0 -3 -4 -15l-34 -121q-4 -14 -4 -18q0 -9 10 -9h77q8 0 10 8l46 157q1 7 10 7h60q11 0 11 -9q0 -3 -4 -15l-34 -121q-4 -14 -4 -18q0 -9 10 -9h57q8 0 8 -6zM336 345q0 8 -11 8h-77q-9 0 -10 -6l-12 -43q-5 -15 -5 -18q0 -9 11 -9h77q8 0 10 8l13 45q4 10 4 15z
" />
    <glyph glyph-name="dollar" unicode="$" 
d="M468 167q0 -74 -44 -121.5t-118 -54.5q-8 -1 -8 -10v-28q0 -10 -10 -10h-52q-10 0 -10 10v27q0 10 -10 10q-94 4 -141 69q-26 36 -26 50q0 5 6 8l76 38q12 6 15 6q5 0 8 -6q13 -33 32 -47q16 -12 30 -12q10 0 10 10v157q0 6 -6 9q-34 16 -49 23.5t-44.5 26.5t-43.5 36
t-26 45t-12 60q0 75 46 124t125 53q10 0 10 10v27q0 10 10 10h52q10 0 10 -10v-29q0 -9 8 -10q82 -8 128 -72q24 -34 24 -44q0 -5 -6 -8l-71 -35q-16 -9 -21 -9t-8 6q-12 26 -25 39t-21 13t-8 -11v-141q0 -6 5 -8q36 -17 59 -31t50.5 -38t41.5 -57t14 -75zM226 413v110
q0 11 -9 11q-10 0 -29 -13q-29 -21 -29 -58q0 -25 27 -44q24 -17 32 -17t8 11zM354 167q0 28 -25 50q-15 13 -23 13t-8 -11v-108q0 -11 8 -11t25 15q23 21 23 52z" />
    <glyph glyph-name="percent" unicode="%" horiz-adv-x="547" 
d="M247 439q0 -42 -27.5 -68.5t-73.5 -26.5q-45 0 -72.5 26.5t-27.5 68.5v93q0 43 27.5 70.5t72.5 27.5q46 0 73.5 -26.5t27.5 -68.5v-96zM441 622q0 -2 -13 -34l-249 -582q-3 -6 -9 -6h-53q-10 0 -10 8q0 5 13 34l249 582q3 6 9 6h53q10 0 10 -8zM501 95q0 -42 -27.5 -68.5
t-72.5 -26.5t-72.5 26.5t-27.5 68.5v96q0 42 27.5 68.5t72.5 26.5t72.5 -26.5t27.5 -68.5v-96zM166 439v96q0 7 -6 13t-14 6q-19 0 -19 -19v-96q0 -19 19 -19q8 0 14 6t6 13zM420 95v96q0 19 -19 19t-19 -19v-96q0 -19 19 -19t19 19z" />
    <glyph glyph-name="ampersand" unicode="&#x26;" horiz-adv-x="612" 
d="M597 0q0 -10 -10 -10q-88 0 -154 54q-9 9 -14 9q-2 0 -10 -8q-50 -55 -141 -55h-29q-86 0 -136 50t-50 135v24q0 61 50 109q9 9 9 12t-9 12q-50 50 -50 119q0 86 50 137.5t136 51.5q85 0 135.5 -50.5t50.5 -136.5v-19q0 -40 -20.5 -73.5t-54.5 -49.5q-6 -3 -6 -8
q0 -3 7 -8q10 -8 23 -22q4 -4 8 -4q6 0 9 7q20 45 63 70.5t102 25.5h31q10 0 10 -10v-94q0 -10 -10 -10h-39q-48 0 -72 -69l-4 -12q-3 -7 3 -13q55 -51 113 -58q9 -2 9 -10v-96zM311 444v19q0 29 -21.5 50.5t-50.5 21.5q-30 0 -51 -21t-21 -51q0 -26 15.5 -45t45.5 -40
q14 -8 16 -8q4 0 17 5q23 9 36.5 27.5t13.5 41.5zM337 140q0 4 -10 16q-31 38 -65 65q-2 2 -43 29q-11 7 -14 7q-6 0 -14 -8q-24 -22 -24 -53v-29q0 -32 21 -52t51 -20h29q36 0 59 29q10 12 10 16z" />
    <glyph glyph-name="quotesingle" unicode="'" horiz-adv-x="182" 
d="M149 621q0 -5 -4 -33l-19 -149q-2 -9 -10 -9h-49q-9 0 -10 9l-20 150q-4 24 -4 32q0 9 10 9h96q10 0 10 -9z" />
    <glyph glyph-name="parenleft" unicode="(" horiz-adv-x="394" 
d="M312 -162q0 -10 -10 -10q-36 0 -77 15q-113 41 -113 171v525q0 125 105 168q44 18 85 18q10 0 10 -10v-86q0 -10 -9 -10q-37 -3 -57 -22.5t-20 -47.5v-544q0 -29 20 -48.5t57 -22.5q9 0 9 -10v-86z" />
    <glyph glyph-name="parenright" unicode=")" horiz-adv-x="394" 
d="M282 14q0 -130 -113 -171q-41 -15 -77 -15q-10 0 -10 10v86q0 10 9 10q37 3 57 22.5t20 48.5v544q0 28 -20 47.5t-57 22.5q-9 0 -9 10v86q0 10 10 10q41 0 85 -18q105 -43 105 -168v-525z" />
    <glyph glyph-name="asterisk" unicode="*" horiz-adv-x="390" 
d="M374 463q0 -2 -2 -6l-40 -68q-3 -6 -8 -6q-4 0 -7 3l-68 49q-5 3 -9 3q-7 0 -7 -8t2 -18l7 -49q0 -3 1 -8.5t1.5 -9t0.5 -5.5q0 -9 -10 -9h-79q-10 0 -10 9q0 4 3 25l6 46q2 10 2 17q0 10 -7 10q-3 0 -9 -4l-64 -50q-5 -3 -7 -3q-5 0 -8 6l-40 70q-2 4 -2 6q0 5 7 8
l77 31q7 3 7 9t-7 9l-76 33q-7 3 -7 8q0 2 2 6l40 69q3 6 8 6q3 0 7 -3l63 -52q5 -3 8 -3q8 0 8 11q0 2 -1.5 10.5t-1.5 13.5l-6 43q-2 10 -2 17q0 9 10 9h79q10 0 10 -9q0 -7 -2 -17l-6 -44q0 -3 -1 -8.5t-1.5 -9.5t-0.5 -6q0 -11 8 -11q4 0 8 3l67 53q5 3 7 3q5 0 8 -6
l39 -68q2 -4 2 -6q0 -5 -7 -8l-79 -34q-7 -3 -7 -9t7 -9l80 -31q7 -3 7 -8z" />
    <glyph glyph-name="plus" unicode="+" 
d="M468 210q0 -10 -10 -10h-152q-10 0 -10 -10v-151q0 -10 -10 -10h-66q-10 0 -10 10v151q0 10 -10 10h-151q-10 0 -10 10v66q0 10 10 10h151q10 0 10 10v152q0 10 10 10h66q10 0 10 -10v-152q0 -10 10 -10h152q10 0 10 -10v-66z" />
    <glyph glyph-name="comma" unicode="," horiz-adv-x="230" 
d="M182 49q0 -105 -70 -155q-31 -23 -41 -23q-5 0 -8 6l-23 45q-6 12 -6 14q0 5 6 8q19 10 29 28.5t10 33.5q0 9 -10 9h-11q-10 0 -10 10v97q0 10 10 10h114q10 0 10 -10v-73z" />
    <glyph glyph-name="hyphen" unicode="-" horiz-adv-x="278" 
d="M239 182q0 -10 -10 -10h-180q-10 0 -10 10v94q0 10 10 10h180q10 0 10 -10v-94z" />
    <glyph glyph-name="period" unicode="." horiz-adv-x="230" 
d="M182 57q0 -27 -20 -47t-47 -20t-47 20t-20 47t20 47t47 20t47 -20t20 -47z" />
    <glyph glyph-name="slash" unicode="/" horiz-adv-x="330" 
d="M337 622q0 -6 -5 -16l-257 -600q-3 -6 -9 -6h-63q-10 0 -10 8q0 2 6 18l256 598q3 6 9 6h63q10 0 10 -8z" />
    <glyph glyph-name="zero" unicode="0" 
d="M454 167q0 -79 -51 -128t-135 -49h-29q-85 0 -135.5 49t-50.5 128v296q0 79 50.5 128t135.5 49h29q84 0 135 -49t51 -128v-296zM339 167v296q0 30 -20.5 51t-50.5 21h-29q-29 0 -50.5 -21.5t-21.5 -50.5v-296q0 -29 21.5 -50.5t50.5 -21.5h29q30 0 50.5 21t20.5 51z" />
    <glyph glyph-name="one" unicode="1" 
d="M442 10q0 -10 -10 -10h-323q-10 0 -10 10v85q0 10 10 10h94q10 0 10 10v293q0 11 -8 11q-5 0 -9 -4l-30 -31q-3 -4 -7 -4q-1 0 -7 4l-62 61q-4 3 -4 7q0 1 4 7l164 165q6 6 12 6h52q10 0 10 -10v-505q0 -10 10 -10h94q10 0 10 -10v-85z" />
    <glyph glyph-name="two" unicode="2" 
d="M447 463q0 -42 -12.5 -74.5t-40.5 -59.5t-47.5 -41t-59.5 -38q-37 -22 -53.5 -34t-34 -37t-17.5 -54v-10q0 -10 10 -10h238q10 0 10 -10v-85q0 -10 -10 -10h-353q-10 0 -10 10v115q0 79 40 129t109 92q7 4 24 14t25 15t21 14t19.5 16t14 16.5t10.5 19.5t3 22
q0 29 -21.5 50.5t-50.5 21.5h-36q-46 0 -71 -59q-3 -7 -8 -7q-2 0 -12 5l-80 41q-6 3 -6 7q0 5 19 37q52 81 158 81h36q85 0 135.5 -49t50.5 -128z" />
    <glyph glyph-name="three" unicode="3" 
d="M440 175q0 -85 -50.5 -135t-136.5 -50h-28q-106 0 -158 81q-19 32 -19 37q0 4 6 7l80 41q10 5 12 5q5 0 8 -7q25 -59 71 -59h28q29 0 50.5 21.5t21.5 50.5v34q0 30 -21 50.5t-51 20.5h-90q-10 0 -10 10v85q0 10 10 10h90q29 0 50.5 21.5t21.5 50.5v14q0 29 -21.5 50.5
t-50.5 21.5h-28q-46 0 -71 -59q-3 -7 -8 -7q-2 0 -12 5l-80 41q-6 3 -6 7q0 5 19 37q52 81 158 81h28q85 0 136 -51t51 -136v-14q0 -56 -54 -108q-4 -3 -4 -7t4 -7q22 -22 38 -54t16 -59v-29z" />
    <glyph glyph-name="four" unicode="4" 
d="M482 148q0 -10 -10 -10h-65q-10 0 -10 -10v-118q0 -10 -10 -10h-95q-10 0 -10 10v118q0 10 -10 10h-236q-10 0 -10 10v85l261 393q4 4 8 4h92q10 0 10 -10v-367q0 -10 10 -10h65q10 0 10 -10v-85zM282 253v155q0 12 -9 12q-5 0 -9 -6l-103 -155q-3 -5 -3 -8q0 -8 11 -8
h103q10 0 10 10z" />
    <glyph glyph-name="five" unicode="5" 
d="M455 175q0 -85 -50.5 -135t-135.5 -50h-28q-106 0 -158 81q-19 32 -19 37q0 4 6 7l80 41q10 5 12 5q5 0 8 -7q25 -59 71 -59h28q30 0 50.5 21t20.5 51v34q0 30 -20.5 50.5t-50.5 20.5h-167q-10 0 -10 10v338q0 10 10 10h333q10 0 10 -10v-85q0 -10 -10 -10h-218
q-10 0 -10 -10v-128q0 -10 10 -10h52q85 0 135.5 -49.5t50.5 -134.5v-18z" />
    <glyph glyph-name="six" unicode="6" 
d="M456 167q0 -79 -51 -128t-136 -49h-30q-84 0 -135 49t-51 128v296q0 79 51 128t135 49h31q106 0 158 -81q19 -32 19 -37q0 -4 -6 -7l-80 -41q-10 -5 -12 -5q-5 0 -8 7q-25 59 -71 59h-31q-30 0 -50.5 -21t-20.5 -51v-91q0 -11 8 -11q1 0 7 2q36 19 66 19h30q75 0 126 -50
t51 -127v-38zM341 167v38q0 29 -21.5 50.5t-50.5 21.5h-30q-30 0 -50.5 -21t-20.5 -51v-38q0 -30 20.5 -51t50.5 -21h30q29 0 50.5 21.5t21.5 50.5z" />
    <glyph glyph-name="seven" unicode="7" 
d="M449 505q0 -46 -12 -82t-38 -64t-44.5 -43t-54.5 -39q-33 -23 -46.5 -33t-28.5 -31.5t-15 -45.5v-157q0 -10 -10 -10h-94q-10 0 -10 10v157q0 39 10 70.5t32 56t39.5 39.5t47.5 36q2 2 19.5 13.5t21 14t17.5 13.5t18 16t13 15.5t12 19t6 20.5t3 24v10q0 10 -10 10h-238
q-10 0 -10 10v85q0 10 10 10h352q10 0 10 -10v-115z" />
    <glyph glyph-name="eight" unicode="8" 
d="M454 175q0 -85 -50.5 -135t-135.5 -50h-29q-86 0 -136 50t-50 135v24q0 27 15.5 59t37.5 54q4 4 4 7q0 4 -4 7q-22 21 -37.5 51t-15.5 57v19q0 86 50.5 136.5t135.5 50.5h29q85 0 135.5 -51t50.5 -136v-19q0 -27 -15.5 -57t-37.5 -51q-4 -3 -4 -7q0 -3 4 -7
q22 -22 37.5 -54t15.5 -59v-24zM339 444v19q0 30 -20.5 51t-50.5 21h-29q-29 0 -50.5 -21.5t-21.5 -50.5v-19q0 -29 21.5 -50.5t50.5 -21.5h29q30 0 50.5 21t20.5 51zM339 167v29q0 30 -20.5 50.5t-50.5 20.5h-29q-30 0 -51 -20.5t-21 -50.5v-29q0 -29 21.5 -50.5
t50.5 -21.5h29q30 0 50.5 21t20.5 51z" />
    <glyph glyph-name="nine" unicode="9" 
d="M456 167q0 -79 -51 -128t-136 -49h-28q-106 0 -158 81q-19 32 -19 37q0 4 6 7l80 41q10 5 12 5q5 0 8 -7q25 -59 71 -59h28q29 0 50.5 21.5t21.5 50.5v57q0 11 -8 11q-1 0 -7 -2q-34 -18 -66 -18h-30q-75 0 -126 49.5t-51 126.5v72q0 79 51 128t135 49h30q85 0 136 -49
t51 -128v-296zM341 391v72q0 29 -21.5 50.5t-50.5 21.5h-30q-30 0 -50.5 -21t-20.5 -51v-72q0 -30 20.5 -50.5t50.5 -20.5h30q30 0 51 20.5t21 50.5z" />
    <glyph glyph-name="colon" unicode=":" horiz-adv-x="230" 
d="M182 315q0 -27 -20 -47t-47 -20t-47 20t-20 47t20 47t47 20t47 -20t20 -47zM182 57q0 -27 -20 -47t-47 -20t-47 20t-20 47t20 47t47 20t47 -20t20 -47z" />
    <glyph glyph-name="semicolon" unicode=";" horiz-adv-x="230" 
d="M182 315q0 -27 -20 -47t-47 -20t-47 20t-20 47t20 47t47 20t47 -20t20 -47zM182 49q0 -105 -70 -155q-31 -23 -41 -23q-5 0 -8 6l-23 45q-6 12 -6 14q0 5 6 8q19 10 29 28.5t10 33.5q0 9 -10 9h-11q-10 0 -10 10v97q0 10 10 10h114q10 0 10 -10v-73z" />
    <glyph glyph-name="less" unicode="&#x3c;" 
d="M429 406q0 -5 -6 -8l-248 -144q-7 -5 -7 -9t7 -9l247 -142q6 -3 6 -8q0 -1 -6 -13l-29 -52q-3 -6 -8 -6q-2 0 -20 10l-301 176q-5 3 -5 9v69q0 6 5 9l306 179q11 7 15 7q5 0 8 -6l30 -49q6 -10 6 -13z" />
    <glyph glyph-name="equal" unicode="=" 
d="M468 296q0 -10 -10 -10h-409q-10 0 -10 10v66q0 10 10 10h409q10 0 10 -10v-66zM468 125q0 -10 -10 -10h-409q-10 0 -10 10v65q0 10 10 10h409q10 0 10 -10v-65z" />
    <glyph glyph-name="greater" unicode="&#x3e;" 
d="M448 210q0 -6 -5 -9l-301 -176q-18 -10 -20 -10q-5 0 -8 6l-29 52q-6 12 -6 13q0 5 6 8l247 142q7 5 7 9t-7 9l-248 144q-6 3 -6 8q0 3 6 13l30 49q3 6 8 6q4 0 15 -7l306 -179q5 -3 5 -9v-69z" />
    <glyph glyph-name="question" unicode="?" horiz-adv-x="475" 
d="M426 463q0 -34 -9 -61t-18 -42t-31.5 -30.5t-32 -20.5t-35.5 -17q-20 -10 -30 -16t-19 -19t-9 -31q0 -14 3 -29.5t3 -16.5q0 -8 -10 -8h-95q-8 0 -10 8q-6 38 -6 60q0 40 19 70.5t35.5 41t54.5 29.5q2 2 3.5 2.5t3.5 1.5l4 2q21 11 32.5 18.5t21.5 22.5t10 35
q0 30 -20.5 51t-50.5 21h-36q-46 0 -71 -59q-3 -7 -8 -7q-2 0 -12 5l-80 41q-6 3 -6 7q0 5 19 37q52 81 158 81h36q84 0 135 -49t51 -128zM268 57q0 -27 -20 -47t-47 -20t-47 20t-20 47t20 47t47 20t47 -20t20 -47z" />
    <glyph glyph-name="at" unicode="@" horiz-adv-x="707" 
d="M626 248q0 -42 -27.5 -68.5t-73.5 -26.5h-12q-40 0 -69 24q-8 5 -10 5q-3 0 -11 -6q-32 -23 -70 -23q-60 0 -96 34t-36 91v79q0 56 36 90t96 34q19 0 40 -8q10 -5 15 -5q7 0 7 7q0 6 8 6h52q10 0 10 -10v-218q0 -13 8 -21t21 -8h11q12 0 20.5 8.5t8.5 20.5v200
q0 47 -31.5 76t-82.5 29h-172q-52 0 -83.5 -29t-31.5 -76v-276q0 -47 31.5 -76t83.5 -29h262q10 0 10 -10v-52q0 -10 -10 -10h-262q-85 0 -135.5 49t-50.5 128v276q0 79 50.5 128t135.5 49h172q84 0 135 -49t51 -128v-205zM415 285v64q0 25 -18.5 42.5t-43.5 17.5
t-42.5 -17.5t-17.5 -42.5v-64q0 -26 17.5 -43.5t42.5 -17.5t43.5 18t18.5 43z" />
    <glyph glyph-name="A" unicode="A" horiz-adv-x="450" 
d="M458 8q0 -8 -11 -8h-101q-9 0 -10 7l-30 105q-1 6 -10 6h-143q-9 0 -10 -6l-30 -105q-1 -7 -10 -7h-100q-11 0 -11 8q0 2 1 4.5t2 6.5t2 7l182 597q1 7 10 7h72q9 0 10 -7l182 -597q5 -15 5 -18zM272 232q0 4 -5 19l-29 117q-1 4 -5.5 27.5t-5.5 27.5h-3q-1 -4 -6 -27.5
t-6 -27.5l-30 -116q-5 -18 -5 -20q0 -9 11 -9h73q11 0 11 9z" />
    <glyph glyph-name="B" unicode="B" horiz-adv-x="536" 
d="M488 184q0 -85 -50 -134.5t-136 -49.5h-225q-10 0 -10 10v610q0 10 10 10h225q85 0 135.5 -50.5t50.5 -135.5v-10q0 -57 -53 -108q-4 -3 -4 -7t4 -7q22 -21 37.5 -53.5t15.5 -59.5v-15zM374 444v9q0 29 -21.5 50.5t-50.5 21.5h-110q-10 0 -10 -10v-133q0 -10 10 -10h110
q29 0 50.5 21.5t21.5 50.5zM374 177v19q0 30 -21 50.5t-51 20.5h-110q-10 0 -10 -10v-142q0 -10 10 -10h110q30 0 51 21t21 51z" />
    <glyph glyph-name="C" unicode="C" horiz-adv-x="484" 
d="M465 108q0 -5 -19 -37q-52 -81 -158 -81h-49q-85 0 -135.5 49t-50.5 128v296q0 79 50.5 128t135.5 49h49q106 0 158 -81q19 -32 19 -37q0 -4 -6 -7l-80 -41q-10 -5 -12 -5q-5 0 -8 7q-25 59 -71 59h-49q-29 0 -50.5 -21.5t-21.5 -50.5v-296q0 -29 21.5 -50.5t50.5 -21.5
h49q46 0 71 59q3 7 8 7q2 0 12 -5l80 -41q6 -3 6 -7z" />
    <glyph glyph-name="D" unicode="D" horiz-adv-x="541" 
d="M488 186q0 -86 -50 -136t-136 -50h-225q-10 0 -10 10v610q0 10 10 10h225q85 0 135.5 -50.5t50.5 -135.5v-258zM374 177v276q0 29 -21.5 50.5t-50.5 21.5h-110q-10 0 -10 -10v-400q0 -10 10 -10h110q30 0 51 21t21 51z" />
    <glyph glyph-name="E" unicode="E" horiz-adv-x="478" 
d="M440 10q0 -10 -10 -10h-353q-10 0 -10 10v610q0 10 10 10h353q10 0 10 -10v-85q0 -10 -10 -10h-238q-10 0 -10 -10v-133q0 -10 10 -10h195q10 0 10 -10v-85q0 -10 -10 -10h-195q-10 0 -10 -10v-142q0 -10 10 -10h238q10 0 10 -10v-85z" />
    <glyph glyph-name="F" unicode="F" horiz-adv-x="454" 
d="M440 535q0 -10 -10 -10h-238q-10 0 -10 -10v-133q0 -10 10 -10h195q10 0 10 -10v-85q0 -10 -10 -10h-195q-10 0 -10 -10v-247q0 -10 -10 -10h-95q-10 0 -10 10v610q0 10 10 10h353q10 0 10 -10v-85z" />
    <glyph glyph-name="G" unicode="G" horiz-adv-x="527" 
d="M482 522q0 -4 -6 -7l-80 -41q-10 -5 -12 -5q-5 0 -8 7q-25 59 -71 59h-66q-29 0 -50.5 -21.5t-21.5 -50.5v-296q0 -29 21.5 -50.5t50.5 -21.5h49q30 0 50.5 21t20.5 51v47q0 10 -10 10h-94q-10 0 -10 10v85q0 10 10 10h209q10 0 10 -10v-152q0 -79 -51 -128t-135 -49h-49
q-85 0 -135.5 49t-50.5 128v296q0 79 50.5 128t135.5 49h66q106 0 158 -81q19 -32 19 -37z" />
    <glyph glyph-name="H" unicode="H" horiz-adv-x="570" 
d="M502 10q0 -10 -10 -10h-94q-10 0 -10 10v247q0 10 -10 10h-186q-10 0 -10 -10v-247q0 -10 -10 -10h-95q-10 0 -10 10v610q0 10 10 10h95q10 0 10 -10v-238q0 -10 10 -10h186q10 0 10 10v238q0 10 10 10h94q10 0 10 -10v-610z" />
    <glyph glyph-name="I" unicode="I" horiz-adv-x="249" 
d="M182 10q0 -10 -10 -10h-95q-10 0 -10 10v610q0 10 10 10h95q10 0 10 -10v-610z" />
    <glyph glyph-name="J" unicode="J" horiz-adv-x="429" 
d="M368 177q0 -78 -54.5 -132.5t-131.5 -54.5q-42 0 -83 21.5t-71 57.5q-26 31 -26 41q0 5 7 8l76 36q16 7 18 7q5 0 8 -6q22 -60 71 -60q30 0 50.5 21t20.5 51v453q0 10 10 10h95q10 0 10 -10v-443z" />
    <glyph glyph-name="K" unicode="K" horiz-adv-x="521" 
d="M532 8q0 -8 -11 -8h-117q-5 0 -8 5l-157 251q-5 7 -9 7q-5 0 -8 -5l-32 -43q-8 -11 -8 -24v-181q0 -10 -10 -10h-95q-10 0 -10 10v610q0 10 10 10h95q10 0 10 -10v-222q0 -12 9 -12q5 0 9 6l178 234q4 4 8 4h115q11 0 11 -8q0 -4 -3 -8l-188 -233q-7 -9 -7 -13
q0 -2 6 -13l205 -332q7 -12 7 -15z" />
    <glyph glyph-name="L" unicode="L" horiz-adv-x="454" 
d="M440 10q0 -10 -10 -10h-353q-10 0 -10 10v610q0 10 10 10h95q10 0 10 -10v-505q0 -10 10 -10h238q10 0 10 -10v-85z" />
    <glyph glyph-name="M" unicode="M" horiz-adv-x="637" 
d="M569 10q0 -10 -10 -10h-94q-10 0 -10 10v105q0 110 11 242l-4 1q-1 -2 -5 -17.5t-10 -33.5t-11 -29l-83 -186q-3 -6 -9 -6h-51q-6 0 -9 6l-83 186q-5 11 -11 29t-10 33.5t-5 17.5l-4 -1q11 -132 11 -242v-105q0 -10 -10 -10h-95q-10 0 -10 10v610q0 10 10 10h84q6 0 9 -6
l133 -318q4 -10 13 -45h3q7 30 14 45l133 318q3 6 9 6h84q10 0 10 -10v-610z" />
    <glyph glyph-name="N" unicode="N" horiz-adv-x="550" 
d="M482 10q0 -10 -10 -10h-83q-6 0 -9 5l-179 326q-5 10 -21 51l-4 -1q6 -72 6 -247v-124q0 -10 -10 -10h-95q-10 0 -10 10v610q0 10 10 10h84q6 0 9 -5l179 -328q5 -10 21 -51l4 1q-6 72 -6 247v126q0 10 10 10h94q10 0 10 -10v-610z" />
    <glyph glyph-name="O" unicode="O" horiz-adv-x="527" 
d="M474 167q0 -79 -51 -128t-135 -49h-49q-85 0 -135.5 49t-50.5 128v296q0 79 50.5 128t135.5 49h49q84 0 135 -49t51 -128v-296zM359 167v296q0 30 -20.5 51t-50.5 21h-49q-29 0 -50.5 -21.5t-21.5 -50.5v-296q0 -29 21.5 -50.5t50.5 -21.5h49q30 0 50.5 21t20.5 51z" />
    <glyph glyph-name="P" unicode="P" horiz-adv-x="483" 
d="M468 444q0 -76 -51 -126.5t-135 -50.5h-90q-10 0 -10 -10v-247q0 -10 -10 -10h-95q-10 0 -10 10v610q0 10 10 10h205q85 0 135.5 -51t50.5 -135zM354 444v9q0 29 -21.5 50.5t-50.5 21.5h-90q-10 0 -10 -10v-133q0 -10 10 -10h90q29 0 50.5 21.5t21.5 50.5z" />
    <glyph glyph-name="Q" unicode="Q" horiz-adv-x="527" 
d="M474 167q0 -69 -40.5 -116.5t-110.5 -57.5q-7 -1 -7 -10v-59q0 -10 -10 -10h-85q-10 0 -10 10v59q0 8 -10 10q-69 10 -108.5 57t-39.5 117v296q0 79 50.5 128t135.5 49h49q84 0 135 -49t51 -128v-296zM359 167v296q0 30 -20.5 51t-50.5 21h-49q-29 0 -50.5 -21.5
t-21.5 -50.5v-296q0 -27 17 -46q13 -15 22 -15q6 0 9 8l13 40q3 7 10 7h51q7 0 10 -7l13 -42q3 -8 8 -8q6 0 20 14q19 22 19 49z" />
    <glyph glyph-name="R" unicode="R" horiz-adv-x="527" 
d="M499 8q0 -8 -10 -8h-103q-7 0 -9 7l-88 254q-1 6 -8 6h-89q-10 0 -10 -10v-247q0 -10 -10 -10h-95q-10 0 -10 10v610q0 10 10 10h225q85 0 135.5 -50.5t50.5 -135.5v-10q0 -36 -25 -75.5t-56 -60.5q-4 -3 -4 -8q0 -3 5 -16l86 -250q1 -3 2 -6.5t2 -6t1 -3.5zM374 444v9
q0 29 -21.5 50.5t-50.5 21.5h-110q-10 0 -10 -10v-133q0 -10 10 -10h110q29 0 50.5 21.5t21.5 50.5z" />
    <glyph glyph-name="S" unicode="S" horiz-adv-x="472" 
d="M437 167q0 -79 -50.5 -128t-135.5 -49h-40q-106 0 -158 81q-19 32 -19 37q0 4 6 7l80 41q10 5 12 5q5 0 8 -7q25 -59 71 -59h40q29 0 50.5 21.5t21.5 50.5q0 34 -24 53.5t-71 40.5q-8 3 -12 5q-33 16 -49 24.5t-42.5 27t-40 36.5t-24 46.5t-10.5 62.5q0 79 50.5 128
t135.5 49h16q106 0 158 -81q19 -32 19 -37q0 -4 -6 -7l-80 -41q-10 -5 -12 -5q-5 0 -8 7q-25 59 -71 59h-16q-29 0 -50.5 -21.5t-21.5 -50.5q0 -15 5.5 -26t20 -21.5t23.5 -15.5t34 -15.5t33 -14.5q34 -16 57.5 -30.5t48.5 -38t38 -57.5t13 -77z" />
    <glyph glyph-name="T" unicode="T" horiz-adv-x="402" 
d="M387 535q0 -10 -10 -10h-109q-10 0 -10 -10v-505q0 -10 -10 -10h-94q-10 0 -10 10v505q0 10 -10 10h-109q-10 0 -10 10v85q0 10 10 10h352q10 0 10 -10v-85z" />
    <glyph glyph-name="U" unicode="U" horiz-adv-x="527" 
d="M474 167q0 -79 -51 -128t-135 -49h-49q-85 0 -135.5 49t-50.5 128v453q0 10 10 10h94q10 0 10 -10v-453q0 -29 21.5 -50.5t50.5 -21.5h49q30 0 50.5 21t20.5 51v453q0 10 10 10h95q10 0 10 -10v-453z" />
    <glyph glyph-name="V" unicode="V" horiz-adv-x="450" 
d="M458 622q0 -2 -1 -4.5t-2 -6t-1 -4.5l-183 -600q-1 -7 -10 -7h-72q-9 0 -10 7l-182 596q-5 17 -5 19q0 8 11 8h100q9 0 10 -7l99 -360q1 -4 5 -23t5 -23h5q1 3 5 21.5t5 22.5l99 362q1 7 10 7h101q11 0 11 -8z" />
    <glyph glyph-name="W" unicode="W" horiz-adv-x="657" 
d="M654 622q0 -2 -5 -27l-127 -587q-2 -8 -10 -8h-73q-9 0 -10 7l-87 302q-1 4 -6 28t-6 27h-3q-1 -4 -6 -27.5t-6 -27.5l-87 -302q-1 -7 -10 -7h-73q-8 0 -10 8l-127 587q-1 4 -2 10.5t-2 10.5t-1 6q0 8 10 8h102q8 0 10 -8l58 -309q7 -51 10 -62h5q1 4 6.5 31t6.5 31
l82 312q1 7 10 7h50q9 0 10 -7l82 -312q1 -4 6.5 -31t6.5 -31h5q1 4 5 31t5 31l59 309q2 8 10 8h102q10 0 10 -8z" />
    <glyph glyph-name="X" unicode="X" horiz-adv-x="458" 
d="M453 8q0 -8 -11 -8h-109q-6 0 -9 6l-85 181q-3 8 -9 8t-9 -8l-88 -181q-4 -6 -9 -6h-107q-11 0 -11 8q0 1 11 25l135 267q6 12 6 16q0 2 -5 14l-139 273q-8 16 -8 19q0 8 11 8h106q5 0 9 -6l89 -184q3 -8 9 -8t9 8l86 184q3 6 9 6h108q11 0 11 -8q0 -2 -8 -18l-137 -273
q-5 -9 -5 -16q0 -6 5 -15l135 -270q10 -20 10 -22z" />
    <glyph glyph-name="Y" unicode="Y" horiz-adv-x="450" 
d="M459 622q0 -2 -7 -16l-163 -305q-7 -14 -7 -28v-263q0 -10 -10 -10h-95q-10 0 -10 10v264q0 13 -7 27l-163 305q-7 12 -7 16q0 8 11 8h111q5 0 9 -6l95 -196q3 -8 9 -8t9 8l95 196q4 6 9 6h110q11 0 11 -8z" />
    <glyph glyph-name="Z" unicode="Z" horiz-adv-x="456" 
d="M409 622q0 -2 -7 -19l-213 -473q-6 -12 -6 -17q0 -8 10 -8h203q10 0 10 -10v-85q0 -10 -10 -10h-375q-10 0 -10 8q0 3 7 19l211 471q7 14 7 19q0 8 -10 8h-182q-10 0 -10 10v85q0 10 10 10h355q10 0 10 -8z" />
    <glyph glyph-name="bracketleft" unicode="[" horiz-adv-x="394" 
d="M312 -162q0 -10 -10 -10h-180q-10 0 -10 10v877q0 10 10 10h180q10 0 10 -10v-85q0 -10 -10 -10h-66q-10 0 -10 -10v-667q0 -10 10 -10h66q10 0 10 -10v-85z" />
    <glyph glyph-name="backslash" unicode="\" horiz-adv-x="330" 
d="M337 8q0 -8 -10 -8h-63q-6 0 -9 6l-257 600q-5 10 -5 16q0 8 10 8h63q6 0 9 -6l256 -598q6 -16 6 -18z" />
    <glyph glyph-name="bracketright" unicode="]" horiz-adv-x="394" 
d="M282 -162q0 -10 -10 -10h-180q-10 0 -10 10v85q0 10 10 10h65q10 0 10 10v667q0 10 -10 10h-65q-10 0 -10 10v85q0 10 10 10h180q10 0 10 -10v-877z" />
    <glyph glyph-name="asciicircum" unicode="^" 
d="M487 271h-105l-129 266h-3l-124 -266h-106l195 369h74z" />
    <glyph glyph-name="underscore" unicode="_" horiz-adv-x="230" 
d="M242 -205q0 -10 -10 -10h-228q-10 0 -10 10v52q0 10 10 10h228q10 0 10 -10v-52z" />
    <glyph glyph-name="grave" unicode="`" horiz-adv-x="500" 
d="M316 521q0 -8 -10 -8h-68q-7 0 -16 7l-142 140q-7 7 -7 12q0 8 11 8h122q9 0 14 -8l90 -138q6 -10 6 -13z" />
    <glyph glyph-name="a" unicode="a" horiz-adv-x="465" 
d="M408 10q0 -10 -10 -10h-85q-10 0 -10 8q0 13 -7 13q-4 0 -9 -3q-33 -18 -61 -18h-38q-60 0 -100.5 37.5t-40.5 96.5v5q0 60 40 97t101 37h96q10 0 10 10v12q0 29 -21 48.5t-52 19.5q-40 0 -73 -57q-3 -6 -8 -6q-2 0 -12 5l-76 40q-6 3 -6 7q0 8 21 40q51 76 154 76
q85 0 136 -48.5t51 -127.5v-282zM294 161v16h-106q-11 0 -19 -8.5t-8 -19.5v-15q0 -12 7.5 -20.5t19.5 -8.5h38q24 0 44 17t24 39z" />
    <glyph glyph-name="b" unicode="b" horiz-adv-x="473" 
d="M430 177q0 -79 -51 -128t-135 -49q-32 0 -66 18q-6 2 -8 2q-7 0 -7 -11q0 -9 -10 -9h-85q-10 0 -10 10v610q0 10 10 10h94q10 0 10 -10v-171q0 -11 8 -11q2 0 8 2q34 18 65 18q75 0 126 -49.5t51 -126.5v-105zM315 177v105q0 30 -20.5 50.5t-50.5 20.5t-51 -20.5
t-21 -50.5v-105q0 -30 21 -51t51 -21t50.5 20.5t20.5 51.5z" />
    <glyph glyph-name="c" unicode="c" horiz-adv-x="429" 
d="M407 108q0 -6 -15 -30q-53 -88 -162 -88q-85 0 -136 49t-51 128v124q0 79 51 128t136 49q109 0 162 -88q15 -24 15 -30q0 -5 -6 -8l-75 -37q-14 -7 -17 -7q-5 0 -8 6q-25 59 -71 59q-30 0 -51 -21t-21 -51v-124q0 -30 21 -51t51 -21q46 0 71 59q3 6 8 6q3 0 17 -7l75 -37
q6 -3 6 -8z" />
    <glyph glyph-name="d" unicode="d" horiz-adv-x="473" 
d="M416 10q0 -10 -10 -10h-85q-10 0 -10 9q0 11 -8 11q-1 0 -7 -2q-34 -18 -66 -18q-85 0 -136 49t-51 128v105q0 77 51 126.5t126 49.5q32 0 66 -18q6 -2 7 -2q8 0 8 11v171q0 10 10 10h95q10 0 10 -10v-610zM301 177v105q0 30 -20.5 50.5t-50.5 20.5q-31 0 -51.5 -20.5
t-20.5 -50.5v-105q0 -31 20.5 -51.5t51.5 -20.5q30 0 50.5 20.5t20.5 51.5z" />
    <glyph glyph-name="e" unicode="e" horiz-adv-x="459" 
d="M416 210q0 -10 -10 -10h-238q-10 0 -10 -10v-23q0 -30 21 -51t51 -21q46 0 71 59q3 6 8 6q3 0 17 -7l75 -37q6 -3 6 -8q0 -6 -15 -30q-53 -88 -162 -88q-85 0 -136 49t-51 128v124q0 67 53 122t134 55t133.5 -55t52.5 -122v-81zM300 305q0 15 -18.5 36.5t-51.5 21.5
q-32 0 -51.5 -21.5t-19.5 -36.5q0 -9 11 -9h119q11 0 11 9z" />
    <glyph glyph-name="f" unicode="f" horiz-adv-x="292" 
d="M330 625q0 -5 -4 -15l-27 -74q-2 -8 -8 -8l-11 4q-11 3 -22 3q-31 0 -51 -20.5t-20 -51.5v-38q0 -10 10 -10h65q10 0 10 -10v-85q0 -10 -10 -10h-65q-10 0 -10 -10v-290q0 -10 -10 -10h-95q-10 0 -10 10v290q0 10 -10 10h-23q-10 0 -10 10v85q0 10 10 10h23q10 0 10 10
v28q0 77 55 132t131 55q34 0 64 -7q8 -2 8 -8z" />
    <glyph glyph-name="g" unicode="g" horiz-adv-x="459" 
d="M459 -101q0 -58 -40.5 -91t-103.5 -33h-128q-63 0 -103.5 33t-40.5 91v29q0 58 51 97q4 4 4 8q0 1 -9.5 17.5t-9.5 38.5q0 18 5.5 32t11 20.5t5.5 8.5q0 4 -3 7q-55 53 -55 121v14q0 76 53 121t134 45q24 0 55 -13q16 -7 18 -7q8 0 8 11q0 9 10 9h85q10 0 10 -10v-165
q0 -77 -53.5 -125t-132.5 -48h-24q-8 0 -14 -8t-6 -20q0 -30 22 -30h107q63 0 103.5 -32.5t40.5 -91.5v-29zM301 278v14q0 30 -20.5 49.5t-50.5 19.5q-31 0 -51.5 -19.5t-20.5 -49.5v-14q0 -29 20.5 -47t51.5 -18t51 18t20 47zM344 -101v29q0 13 -8 21t-21 8h-128
q-13 0 -21 -8t-8 -21v-29q0 -12 8.5 -20.5t20.5 -8.5h128q12 0 20.5 8.5t8.5 20.5z" />
    <glyph glyph-name="h" unicode="h" horiz-adv-x="483" 
d="M430 10q0 -10 -10 -10h-95q-10 0 -10 10v272q0 30 -20.5 50.5t-50.5 20.5t-51 -20.5t-21 -50.5v-272q0 -10 -10 -10h-94q-10 0 -10 10v610q0 10 10 10h94q10 0 10 -10v-171q0 -11 8 -11q1 0 7 2q34 18 66 18q76 0 126.5 -49.5t50.5 -126.5v-272z" />
    <glyph glyph-name="i" unicode="i" horiz-adv-x="230" 
d="M182 573q0 -27 -20 -47t-47 -20t-47 20t-20 47t20 47t47 20t47 -20t20 -47zM172 10q0 -10 -10 -10h-94q-10 0 -10 10v438q0 10 10 10h94q10 0 10 -10v-438z" />
    <glyph glyph-name="j" unicode="j" horiz-adv-x="230" 
d="M182 573q0 -27 -20 -47t-47 -20t-47 20t-20 47t20 47t47 20t47 -20t20 -47zM172 -50q0 -56 -30.5 -100.5t-83.5 -66.5q-43 -18 -76 -18q-10 0 -10 10v85q0 10 9 10q37 3 57 22.5t20 48.5v507q0 10 10 10h94q10 0 10 -10v-498z" />
    <glyph glyph-name="k" unicode="k" horiz-adv-x="449" 
d="M459 8q0 -8 -11 -8h-117q-6 0 -9 5l-115 189q-3 6 -8 6q-4 0 -8 -4l-14 -14q-5 -5 -5 -11v-161q0 -10 -10 -10h-94q-10 0 -10 10v610q0 10 10 10h94q10 0 10 -10v-274q0 -11 9 -11q4 0 8 4l102 112q7 7 14 7h116q11 0 11 -8q0 -5 -4 -9l-134 -137q-6 -8 -6 -12t6 -14
l159 -257q6 -10 6 -13z" />
    <glyph glyph-name="l" unicode="l" horiz-adv-x="230" 
d="M172 10q0 -10 -10 -10h-94q-10 0 -10 10v610q0 10 10 10h94q10 0 10 -10v-610z" />
    <glyph glyph-name="m" unicode="m" horiz-adv-x="707" 
d="M650 10q0 -10 -10 -10h-95q-10 0 -10 10v272q0 29 -19 50t-43 21q-23 0 -42.5 -21.5t-19.5 -49.5v-272q0 -10 -10 -10h-95q-10 0 -10 10v272q0 29 -19 50t-43 21q-22 0 -42 -21.5t-20 -49.5v-272q0 -10 -10 -10h-94q-10 0 -10 10v438q0 10 10 10h85q10 0 10 -10v-1
q0 -11 8 -11q1 0 7 2q37 20 66 20q64 0 103 -36q3 -3 7 -3t7 3q37 36 112 36q76 0 126.5 -49.5t50.5 -126.5v-272z" />
    <glyph glyph-name="n" unicode="n" horiz-adv-x="488" 
d="M430 10q0 -10 -10 -10h-95q-10 0 -10 10v272q0 30 -20.5 50.5t-50.5 20.5t-51 -20.5t-21 -50.5v-272q0 -10 -10 -10h-94q-10 0 -10 10v438q0 10 10 10h85q10 0 10 -9q0 -11 8 -11q1 0 7 2q34 18 66 18q84 0 135 -48.5t51 -127.5v-272z" />
    <glyph glyph-name="o" unicode="o" horiz-adv-x="459" 
d="M416 167q0 -79 -51 -128t-135 -49q-85 0 -136 49t-51 128v124q0 79 51 128t136 49q84 0 135 -49t51 -128v-124zM301 167v124q0 30 -20.5 51t-50.5 21t-51 -21t-21 -51v-124q0 -30 21 -51t51 -21t50.5 21t20.5 51z" />
    <glyph glyph-name="p" unicode="p" horiz-adv-x="473" 
d="M430 177q0 -77 -51 -127t-126 -50q-32 0 -66 18q-6 2 -7 2q-8 0 -8 -11v-224q0 -10 -10 -10h-94q-10 0 -10 10v663q0 10 10 10h85q10 0 10 -9q0 -11 8 -11q1 0 7 2q34 18 66 18q84 0 135 -48.5t51 -127.5v-105zM315 177v105q0 30 -20.5 50.5t-50.5 20.5t-51 -20.5
t-21 -50.5v-105q0 -30 21 -51t51 -21t50.5 20.5t20.5 51.5z" />
    <glyph glyph-name="q" unicode="q" horiz-adv-x="473" 
d="M416 -215q0 -10 -10 -10h-95q-10 0 -10 10v224q0 11 -8 11q-1 0 -7 -2q-34 -18 -66 -18q-75 0 -126 50t-51 127v105q0 79 51 127.5t136 48.5q32 0 66 -18q6 -2 7 -2q8 0 8 11q0 9 10 9h85q10 0 10 -10v-663zM301 177v105q0 30 -20.5 50.5t-50.5 20.5q-31 0 -51.5 -20.5
t-20.5 -50.5v-105q0 -31 20.5 -51.5t51.5 -20.5q30 0 50.5 20.5t20.5 51.5z" />
    <glyph glyph-name="r" unicode="r" horiz-adv-x="304" 
d="M290 344q0 -11 -10 -11q-1 0 -12.5 4.5t-23.5 4.5q-31 0 -51.5 -20t-20.5 -50v-262q0 -10 -10 -10h-94q-10 0 -10 10v438q0 10 10 10h85q10 0 10 -9v-14q0 -10 8 -10q4 0 7 3q9 10 31.5 20t44.5 10q16 0 28 -3q8 -2 8 -10v-101z" />
    <glyph glyph-name="s" unicode="s" horiz-adv-x="451" 
d="M408 352q0 -5 -6 -8l-76 -37q-8 -4 -11 -4q-5 0 -8 6q-23 57 -73 57h-29q-55 0 -55 -38q0 -11 5.5 -18.5t18 -11.5t23.5 -6.5t30.5 -5.5t31.5 -6q68 -14 107.5 -42t39.5 -89q0 -67 -45.5 -113t-126.5 -46h-29q-105 0 -155 79q-18 29 -18 38q0 5 6 8l72 35q12 6 15 6
q5 0 8 -7q23 -57 72 -57h29q27 0 42.5 12.5t15.5 30.5q0 11 -5.5 18t-18 11.5t-23.5 6.5t-31 5t-32 5q-67 13 -106 41t-39 91q0 71 49 113t119 42h29q104 0 153 -74q21 -32 21 -42z" />
    <glyph glyph-name="t" unicode="t" horiz-adv-x="321" 
d="M277 0q0 -10 -10 -10q-40 0 -85 18q-105 43 -105 159v176q0 10 -10 10h-52q-10 0 -10 9l2 54l115 122q6 6 12 6h47q10 0 10 -10v-66q0 -10 10 -10h66q10 0 10 -10v-85q0 -10 -10 -10h-66q-10 0 -10 -10v-176q0 -29 20 -48.5t57 -22.5q9 0 9 -10v-86z" />
    <glyph glyph-name="u" unicode="u" horiz-adv-x="478" 
d="M420 10q0 -10 -10 -10h-85q-10 0 -10 9q0 11 -8 11q-1 0 -7 -2q-34 -18 -66 -18q-84 0 -135 49t-51 128v271q0 10 10 10h95q10 0 10 -10v-271q0 -31 20.5 -51.5t50.5 -20.5t51 21t21 51v271q0 10 10 10h94q10 0 10 -10v-438z" />
    <glyph glyph-name="v" unicode="v" horiz-adv-x="430" 
d="M439 450q0 -4 -5 -16l-174 -428q-3 -6 -9 -6h-72q-6 0 -9 6l-172 426q-6 16 -6 18q0 8 10 8h101q6 0 9 -6l90 -231q9 -28 11 -44h4q2 17 11 44l90 231q3 6 9 6h102q10 0 10 -8z" />
    <glyph glyph-name="w" unicode="w" horiz-adv-x="599" 
d="M598 450q0 -4 -7 -25l-128 -418q-1 -7 -10 -7h-69q-9 0 -10 7l-60 211q-6 21 -12 54h-4q-3 -18 -13 -54l-59 -211q-1 -7 -10 -7h-70q-9 0 -10 7l-127 418q-7 21 -7 25q0 8 11 8h98q9 0 10 -7l49 -190q5 -16 10 -62h4q8 38 14 61l51 191q1 7 10 7h84q9 0 10 -7l50 -191
q7 -24 14 -62h4q4 38 11 63l48 190q1 7 10 7h97q11 0 11 -8z" />
    <glyph glyph-name="x" unicode="x" horiz-adv-x="409" 
d="M420 450q0 -4 -7 -14l-127 -193q-6 -9 -6 -13q0 -5 6 -14l127 -195q6 -9 6 -13q0 -8 -10 -8h-112q-6 0 -9 5l-75 121q-5 7 -9 7t-9 -7l-75 -121q-3 -5 -9 -5h-96q-11 0 -11 8q0 3 9 19l109 187q6 10 6 16q0 5 -7 16l-125 191q-6 10 -6 13q0 8 10 8h112q5 0 8 -5l76 -122
q3 -6 7 -6q5 0 8 6l77 122q3 5 8 5h113q11 0 11 -8z" />
    <glyph glyph-name="y" unicode="y" horiz-adv-x="478" 
d="M420 -49q0 -83 -48.5 -134.5t-137.5 -51.5q-102 0 -153 73q-23 32 -23 44q0 5 6 8l80 40q7 4 11 4q5 0 8 -6q23 -58 71 -58q29 0 50.5 21.5t21.5 50.5v62q0 11 -7 11q-3 0 -7 -2q-27 -13 -58 -13q-84 0 -135 49t-51 128v271q0 10 10 10h95q10 0 10 -10v-271
q0 -31 20.5 -51.5t50.5 -20.5t51 21t21 51v271q0 10 10 10h94q10 0 10 -10v-497z" />
    <glyph glyph-name="z" unicode="z" horiz-adv-x="430" 
d="M405 449q0 -5 -12 -24l-175 -290q-11 -17 -11 -22q0 -8 11 -8h172q10 0 10 -10v-85q0 -10 -10 -10h-372q-11 0 -11 8q0 3 11 22l174 290q12 19 12 24q0 8 -11 8h-154q-10 0 -10 10v85q0 10 10 10h355q11 0 11 -8z" />
    <glyph glyph-name="braceleft" unicode="{" horiz-adv-x="418" 
d="M344 -162q0 -10 -10 -10q-40 0 -87 19q-103 44 -103 167v139q0 28 -20 47.5t-57 22.5q-9 0 -9 10v87q0 10 9 10q37 3 57 22.5t20 48.5v138q0 124 104 168q42 18 86 18q10 0 10 -10v-86q0 -10 -9 -10q-37 -3 -57 -22.5t-20 -47.5v-158q0 -27 -15.5 -57t-37.5 -51
q-4 -3 -4 -7q0 -3 4 -7q22 -22 37.5 -54t15.5 -59v-151q0 -29 20 -48.5t57 -22.5q9 0 9 -10v-86z" />
    <glyph glyph-name="bar" unicode="|" horiz-adv-x="250" 
d="M82 -250v1000h86v-1000h-86z" />
    <glyph glyph-name="braceright" unicode="}" horiz-adv-x="418" 
d="M360 233q0 -10 -9 -10q-37 -3 -57 -22.5t-20 -47.5v-139q0 -123 -103 -167q-47 -19 -87 -19q-10 0 -10 10v86q0 10 9 10q37 3 57 22.5t20 48.5v151q0 27 15.5 59t37.5 54q4 4 4 7q0 4 -4 7q-22 21 -37.5 51t-15.5 57v158q0 28 -20 47.5t-57 22.5q-9 0 -9 10v86
q0 10 10 10q44 0 86 -18q104 -44 104 -168v-138q0 -29 20 -48.5t57 -22.5q9 0 9 -10v-87z" />
    <glyph glyph-name="asciitilde" unicode="~" 
d="M481 256q-54 -87 -131 -87q-53 0 -103 31q-48 32 -85 32q-43 0 -79 -65l-56 64q57 86 132 86q52 0 101 -30q52 -32 86 -32q44 0 79 64z" />
    <glyph glyph-name="uni00A0" unicode="&#xa0;" 
 />
    <glyph glyph-name="exclamdown" unicode="&#xa1;" horiz-adv-x="306" 
d="M220 401q0 -27 -20 -47t-47 -20t-47 20t-20 47t20 47t47 20t47 -20t20 -47zM210 -162q0 -10 -10 -10h-94q-10 0 -10 10v261l21 178q1 9 10 9h50q9 0 10 -9l23 -178v-261z" />
    <glyph glyph-name="cent" unicode="&#xa2;" 
d="M479 134q0 -6 -19 -36q-49 -76 -145 -82q-8 0 -8 -10v-56q0 -10 -10 -10h-52q-10 0 -10 10v57q0 10 -10 10q-77 7 -122 54.5t-45 121.5v124q0 74 45 121.5t122 54.5q10 0 10 10v57q0 10 10 10h52q10 0 10 -10v-56q0 -10 8 -10q93 -5 143 -77q21 -31 21 -39q0 -6 -6 -9
l-75 -37q-12 -7 -17 -7t-8 6q-15 31 -34 47q-14 11 -24 11q-8 0 -8 -12v-244q0 -10 7 -10q13 0 31 16q17 15 28 42q3 6 8 6t17 -7l75 -37q6 -3 6 -9zM235 134v242q0 12 -9 12q-10 0 -25 -12q-28 -21 -28 -59v-124q0 -39 30 -60q12 -10 23 -10q9 0 9 11z" />
    <glyph glyph-name="sterling" unicode="&#xa3;" 
d="M488 523q0 -6 -6 -9l-72 -36q-18 -8 -20 -8q-5 0 -8 6q-25 59 -71 59q-29 0 -50.5 -21.5t-21.5 -50.5v-81q0 -10 10 -10h66q10 0 10 -10v-85q0 -10 -10 -10h-66q-10 0 -10 -10v-90q0 -15 -5.5 -33.5t-5.5 -19.5q0 -9 10 -9h206q10 0 10 -10v-85q0 -10 -10 -10h-438
q-10 0 -10 10v85q0 10 10 10h56q27 5 45 25t18 47v80q0 10 -10 10h-23q-10 0 -10 10v85q0 10 10 10h23q10 0 10 10v71q0 77 55 132t131 55q97 0 150 -70q27 -35 27 -47z" />
    <glyph glyph-name="currency" unicode="&#xa4;" horiz-adv-x="615" 
d="M533 175q-18 -18 -52 -54l-68 68q-52 -37 -116 -37q-67 0 -116 37q-8 -8 -22 -21.5t-25 -25t-21 -21.5q-9 9 -26.5 27t-26.5 27q12 10 34.5 32t34.5 33q-36 54 -36 114q0 64 36 114l-69 66q9 9 26.5 27t26.5 27q10 -10 21 -21.5t25 -25t22 -21.5q52 36 116 36
q66 0 115 -36q12 11 35 33.5t34 34.5q34 -36 52 -54l-69 -66q37 -52 37 -114q0 -59 -37 -114q11 -11 34 -32.5t35 -32.5zM426 355q0 54 -39 91t-90 37q-55 0 -92.5 -38t-37.5 -90q0 -53 38.5 -91t91.5 -38t91 38t38 91z" />
    <glyph glyph-name="yen" unicode="&#xa5;" 
d="M488 622q0 -2 -9 -20l-125 -234q-7 -14 -7 -16q0 -8 11 -8h105q10 0 10 -10v-76q0 -10 -10 -10h-142q-10 0 -10 -10v-46q0 -10 10 -10h142q10 0 10 -10v-76q0 -10 -10 -10h-142q-10 0 -10 -10v-66q0 -10 -10 -10h-95q-10 0 -10 10v66q0 10 -10 10h-142q-10 0 -10 10v76
q0 10 10 10h142q10 0 10 10v46q0 10 -10 10h-142q-10 0 -10 10v76q0 10 10 10h105q11 0 11 8q0 3 -6 15l-129 240q-6 11 -6 15q0 8 11 8h110q5 0 9 -6l95 -196q3 -8 9 -8t9 8l95 196q4 6 9 6h111q11 0 11 -8z" />
    <glyph glyph-name="brokenbar" unicode="&#xa6;" horiz-adv-x="250" 
d="M168 367h-86v358h86v-358zM168 -172h-86v358h86v-358z" />
    <glyph glyph-name="section" unicode="&#xa7;" 
d="M455 -58q0 -79 -51 -128t-135 -49h-40q-106 0 -158 81q-19 32 -19 37q0 4 6 7l80 41q10 5 12 5q5 0 8 -7q25 -59 71 -59h40q30 0 50.5 21t20.5 51q0 27 -15 47.5t-39 34t-53 26.5t-58.5 28.5t-53.5 35t-39 51.5t-15 73v20q0 49 21 88q6 10 6 14t-6 14q-21 36 -21 89
q0 79 51 128t135 49h16q106 0 158 -81q19 -32 19 -37q0 -4 -6 -7l-80 -41q-10 -5 -12 -5q-5 0 -8 7q-25 59 -71 59h-16q-30 0 -50.5 -21t-20.5 -51q0 -32 28 -54.5t68 -39.5t80.5 -38.5t68.5 -63t28 -100.5v-20q0 -44 -21 -84q-7 -14 -7 -15q0 -3 5 -12q23 -43 23 -94z
M340 140v27q0 12 -3.5 22.5t-7.5 18t-14 16t-16 13t-21.5 12t-22 10t-25 10.5t-24.5 10q-13 5 -15 5q-9 0 -9 -15v-31q0 -14 6 -25.5t13 -19t23 -16.5t25.5 -13.5t32 -13.5t31.5 -13q16 -7 19 -7q8 0 8 10z" />
    <glyph glyph-name="dieresis" unicode="&#xa8;" horiz-adv-x="500" 
d="M396 594q0 -26 -18 -44t-44 -18t-44 18t-18 44t18 44t44 18t44 -18t18 -44zM227 594q0 -26 -18 -44t-44 -18t-44 18t-18 44t18 44t44 18t44 -18t18 -44z" />
    <glyph glyph-name="copyright" unicode="&#xa9;" horiz-adv-x="707" 
d="M626 117q0 -79 -51 -128t-135 -49h-172q-85 0 -135.5 49t-50.5 128v276q0 79 50.5 128t135.5 49h172q84 0 135 -49t51 -128v-276zM554 117v276q0 47 -31.5 76t-82.5 29h-172q-52 0 -83.5 -29t-31.5 -76v-276q0 -47 31.5 -76t83.5 -29h172q51 0 82.5 29t31.5 76zM480 167
q0 -11 -22 -37q-37 -45 -105 -45q-61 0 -98.5 36t-37.5 93v94q0 58 37 92.5t99 34.5q67 0 106 -46q21 -24 21 -33q0 -6 -6 -9l-40 -20q-14 -7 -16 -7q-5 0 -8 5q-27 39 -57 39q-24 0 -40.5 -16t-16.5 -40v-94q0 -24 16.5 -40t40.5 -16q29 0 57 40q3 5 8 5q2 0 14 -6l42 -21
q6 -3 6 -9z" />
    <glyph glyph-name="ordfeminine" unicode="&#xaa;" horiz-adv-x="331" 
d="M296 314q0 -12 -12 -12h-59q-10 0 -10 13q0 9 -5 9t-10 -5q-18 -17 -42 -17h-21q-44 0 -74 27.5t-30 71.5v3q0 45 29.5 72t74.5 27h62q7 0 7 7v4q0 18 -13 30t-32 12q-27 0 -48 -37q-3 -7 -9 -7q-2 0 -16 7l-49 25q-7 3 -7 9q0 8 15 31q36 56 113 56q62 0 99 -36t37 -93
v-197zM206 417v3q0 6 -6 6h-63q-5 0 -9.5 -4.5t-4.5 -10.5v-10q0 -6 4 -11t10 -5h30q15 0 26 9t13 23z" />
    <glyph glyph-name="guillemotleft" unicode="&#xab;" horiz-adv-x="574" 
d="M515 92q0 -11 -8 -11q-4 0 -8 3l-217 153q-4 4 -4 8v71q0 4 4 8l217 154q4 3 8 3q8 0 8 -11v-89q0 -4 -4 -8l-118 -84q-5 -3 -5 -8q0 -3 5 -8l118 -85q4 -4 4 -8v-88zM284 92q0 -11 -8 -11q-4 0 -8 3l-216 153q-4 4 -4 8v71q0 4 4 8l216 154q4 3 8 3q8 0 8 -11v-89
q0 -4 -4 -8l-118 -84q-5 -3 -5 -8q0 -3 5 -8l118 -85q4 -4 4 -8v-88z" />
    <glyph glyph-name="logicalnot" unicode="&#xac;" 
d="M468 125q0 -10 -10 -10h-75q-10 0 -10 10v151q0 10 -10 10h-314q-10 0 -10 10v66q0 10 10 10h409q10 0 10 -10v-237z" />
    <glyph glyph-name="uni00AD" unicode="&#xad;" horiz-adv-x="278" 
d="M239 182q0 -10 -10 -10h-180q-10 0 -10 10v94q0 10 10 10h180q10 0 10 -10v-94z" />
    <glyph glyph-name="registered" unicode="&#xae;" horiz-adv-x="460" 
d="M412 440q0 -76 -49 -123t-131 -47h-4q-82 0 -131 47t-49 123v20q0 76 49 123t131 47h4q82 0 131 -47t49 -123v-20zM382 440v20q0 63 -41 101.5t-109 38.5h-4q-68 0 -109 -38.5t-41 -101.5v-20q0 -63 41 -101.5t109 -38.5h4q68 0 109 38.5t41 101.5zM304 481
q0 -25 -26 -45q-4 -3 -4 -7q0 -3 5 -13l17 -34q6 -11 6 -14q0 -8 -11 -8h-16q-6 0 -9 6l-23 53q-3 6 -9 6h-25q-10 0 -10 -10v-45q0 -10 -10 -10h-11q-10 0 -10 10v168q0 10 10 10h63q29 0 46 -17t17 -46v-4zM272 485v3q0 14 -9 23t-22 9h-32q-10 0 -10 -10v-47
q0 -10 10 -10h32q13 0 22 9t9 23z" />
    <glyph glyph-name="macron" unicode="&#xaf;" horiz-adv-x="500" 
d="M376 555q0 -10 -10 -10h-228q-10 0 -10 10v85q0 10 10 10h228q10 0 10 -10v-85z" />
    <glyph glyph-name="degree" unicode="&#xb0;" horiz-adv-x="293" 
d="M247 439q0 -42 -27.5 -68.5t-73.5 -26.5q-45 0 -72.5 26.5t-27.5 68.5v93q0 43 27.5 70.5t72.5 27.5q46 0 73.5 -26.5t27.5 -68.5v-96zM166 439v96q0 7 -6 13t-14 6q-19 0 -19 -19v-96q0 -19 19 -19q8 0 14 6t6 13z" />
    <glyph glyph-name="plusminus" unicode="&#xb1;" 
d="M468 333q0 -10 -10 -10h-152q-10 0 -10 -10v-151q0 -10 -10 -10h-66q-10 0 -10 10v151q0 10 -10 10h-151q-10 0 -10 10v66q0 10 10 10h151q10 0 10 10v152q0 10 10 10h66q10 0 10 -10v-152q0 -10 10 -10h152q10 0 10 -10v-66zM468 10q0 -10 -10 -10h-409q-10 0 -10 10v66
q0 10 10 10h409q10 0 10 -10v-66z" />
    <glyph glyph-name="twosuperior" unicode="&#xb2;" horiz-adv-x="335" 
d="M304 474q0 -21 -9 -38t-18 -26t-30.5 -18t-30.5 -11t-33 -8q-18 -5 -26 -7.5t-16 -9t-8 -14.5v-6q0 -6 8 -6h152q6 0 6 -6v-67q0 -6 -6 -6h-248q-7 0 -7 6v52q0 36 9.5 61t29 38.5t34 19.5t39.5 12q20 4 26.5 6t18.5 6.5t16 11t4 15.5q0 37 -41 37h-24q-25 0 -48 -37
q-5 -8 -10 -4l-67 30q-5 4 -2 11q21 39 50 59t75 20h26q59 0 94.5 -33.5t35.5 -87.5z" />
    <glyph glyph-name="threesuperior" unicode="&#xb3;" horiz-adv-x="335" 
d="M306 335q0 -57 -36 -90.5t-98 -33.5h-18q-46 0 -75.5 18t-50.5 59q-5 8 2 11l66 31q6 3 10 -4q22 -37 52 -37h14q20 0 32 11.5t12 29.5v21q0 17 -11.5 27.5t-32.5 10.5h-62q-7 0 -7 7v67q0 6 7 6h62q21 0 32.5 10.5t11.5 27.5v11q0 17 -12 28t-32 11h-14q-31 0 -52 -36
q-4 -8 -11 -4l-65 30q-7 4 -2 11q22 41 51 59.5t75 18.5h18q61 0 97.5 -34t36.5 -90v-11q0 -41 -36 -65q-5 -5 0 -8q36 -24 36 -75v-18z" />
    <glyph glyph-name="acute" unicode="&#xb4;" horiz-adv-x="500" 
d="M434 672q0 -5 -7 -12l-142 -140q-9 -7 -16 -7h-68q-10 0 -10 8q0 3 6 13l90 138q5 8 14 8h122q11 0 11 -8z" />
    <glyph glyph-name="mu" unicode="&#xb5;" horiz-adv-x="478" 
d="M420 10q0 -10 -10 -10h-85q-10 0 -10 9q0 11 -8 11q-1 0 -7 -2q-34 -18 -66 -18q-31 0 -61 8q-10 3 -10 -8v-150q0 -10 -10 -10h-95q-10 0 -10 10v598q0 10 10 10h95q10 0 10 -10v-271q0 -31 20.5 -51.5t50.5 -20.5t51 21t21 51v271q0 10 10 10h94q10 0 10 -10v-438z" />
    <glyph glyph-name="paragraph" unicode="&#xb6;" horiz-adv-x="637" 
d="M570 -215q0 -10 -10 -10h-95q-10 0 -10 10v730q0 10 -10 10h-67q-10 0 -10 -10v-730q0 -10 -10 -10h-95q-10 0 -10 10v291q0 10 -10 10h-4q-84 0 -135 50t-51 126v182q0 84 50.5 135t135.5 51h321q10 0 10 -10v-835z" />
    <glyph glyph-name="periodcentered" unicode="&#xb7;" 
d="M321 243q0 -27 -20 -47t-47 -20t-47.5 20t-20.5 47t20 47t47 20t47.5 -20t20.5 -47z" />
    <glyph glyph-name="cedilla" unicode="&#xb8;" horiz-adv-x="500" 
d="M325 -112q0 -46 -32 -74.5t-79 -28.5h-59q-10 0 -10 10v66q0 10 10 10h59q7 0 12.5 5t5.5 12v8q0 7 -5.5 12.5t-12.5 5.5h-40q-10 0 -10 8q0 4 8 20l51 107q3 6 9 6l20 -4l44 -10q9 -1 9 -8q0 -3 -5 -13l-16 -32l-5 -13q0 -4 4 -7q42 -23 42 -72v-8z" />
    <glyph glyph-name="onesuperior" unicode="&#xb9;" horiz-adv-x="335" 
d="M302 257q0 -6 -6 -6h-234q-6 0 -6 6v67q0 6 6 6h64q8 0 8 7v104q0 8 -8 3l-22 -18q-4 -2 -9 1l-48 44q-5 5 0 9l120 112q6 3 9 3h42q6 0 6 -7v-251q0 -7 9 -7h63q6 0 6 -6v-67z" />
    <glyph glyph-name="ordmasculine" unicode="&#xba;" horiz-adv-x="321" 
d="M296 424q0 -57 -37 -93t-98 -36q-62 0 -99 36t-37 93v87q0 57 37 93t99 36q61 0 98 -36t37 -93v-87zM206 424v87q0 19 -13 32t-32 13t-32 -13.5t-13 -31.5v-87q0 -18 13 -32t32 -14t32 13.5t13 32.5z" />
    <glyph glyph-name="guillemotright" unicode="&#xbb;" horiz-adv-x="574" 
d="M526 245q0 -4 -4 -8l-216 -153q-4 -3 -8 -3q-8 0 -8 11v88q0 4 4 8l118 85q5 5 5 8q0 5 -5 8l-118 84q-4 4 -4 8v89q0 11 8 11q4 0 8 -3l216 -154q4 -4 4 -8v-71zM295 245q0 -4 -4 -8l-216 -153q-5 -3 -8 -3q-8 0 -8 11v88q0 4 4 8l117 85q5 5 5 8t-5 8l-117 84
q-4 4 -4 8v89q0 11 8 11q3 0 8 -3l216 -154q4 -4 4 -8v-71z" />
    <glyph glyph-name="onequarter" unicode="&#xbc;" horiz-adv-x="956" 
d="M824 20q0 -6 -6 -6h-45q-6 0 -6 -7v-75q0 -6 -7 -6h-77q-6 0 -6 6v75q0 7 -7 7h-162q-6 0 -6 6v62l180 250q3 3 9 3h69q7 0 7 -6v-229q0 -7 6 -7h45q6 0 6 -6v-67zM644 616l-261 -610q-3 -6 -9 -6h-54q-15 0 -9 14l261 610q3 6 9 6h54q15 0 9 -14zM362 257q0 -6 -6 -6
h-234q-6 0 -6 6v67q0 6 6 6h64q7 0 7 7v104q0 8 -7 3l-22 -18q-4 -2 -9 1l-48 44q-6 5 0 9l119 112q6 3 9 3h43q6 0 6 -7v-251q0 -7 8 -7h64q6 0 6 -6v-67zM677 98v119q0 2 -2 2t-3 -1l-72 -118q-4 -8 4 -8h66q7 0 7 6z" />
    <glyph glyph-name="onehalf" unicode="&#xbd;" horiz-adv-x="956" 
d="M823 223q0 -21 -9 -38t-18 -26t-30.5 -18t-30.5 -11t-33 -8q-18 -5 -26 -7.5t-16 -9t-8 -14.5v-6q0 -6 7 -6h152q7 0 7 -6v-67q0 -6 -7 -6h-247q-7 0 -7 6v52q0 36 9.5 61t29 38.5t34 19.5t39.5 12q20 4 26.5 6t18.5 6.5t16 11t4 15.5q0 37 -41 37h-24q-26 0 -49 -37
q-3 -9 -9 -4l-67 30q-5 4 -2 11q21 39 50 59t75 20h26q59 0 94.5 -33.5t35.5 -87.5zM644 616l-261 -610q-3 -6 -9 -6h-54q-15 0 -9 14l261 610q3 6 9 6h54q15 0 9 -14zM362 257q0 -6 -6 -6h-234q-6 0 -6 6v67q0 6 6 6h64q7 0 7 7v104q0 8 -7 3l-22 -18q-4 -2 -9 1l-48 44
q-6 5 0 9l119 112q6 3 9 3h43q6 0 6 -7v-251q0 -7 8 -7h64q6 0 6 -6v-67z" />
    <glyph glyph-name="threequarters" unicode="&#xbe;" horiz-adv-x="956" 
d="M824 20q0 -6 -6 -6h-45q-6 0 -6 -7v-75q0 -6 -7 -6h-77q-6 0 -6 6v75q0 7 -7 7h-162q-6 0 -6 6v62l180 250q3 3 9 3h69q7 0 7 -6v-229q0 -7 6 -7h45q6 0 6 -6v-67zM644 616l-261 -610q-3 -6 -9 -6h-54q-15 0 -9 14l261 610q3 6 9 6h54q15 0 9 -14zM372 335
q0 -57 -36 -90.5t-97 -33.5h-19q-46 0 -75.5 18t-50.5 59q-5 8 2 11l66 31q6 3 10 -4q22 -37 52 -37h15q19 0 31 11.5t12 29.5v21q0 17 -11.5 27.5t-31.5 10.5h-63q-7 0 -7 7v67q0 6 7 6h63q20 0 31.5 10.5t11.5 27.5v11q0 17 -12 28t-31 11h-15q-31 0 -52 -36q-4 -8 -11 -4
l-65 30q-7 4 -2 11q22 41 51 59.5t75 18.5h19q61 0 97 -34t36 -90v-11q0 -42 -36 -65q-5 -5 0 -8q36 -24 36 -75v-18zM677 98v119q0 2 -2 2t-3 -1l-72 -118q-4 -8 4 -8h66q7 0 7 6z" />
    <glyph glyph-name="questiondown" unicode="&#xbf;" horiz-adv-x="475" 
d="M341 401q0 -27 -20 -47t-47 -20t-47 20t-20 47t20 47t47 20t47 -20t20 -47zM448 -64q0 -5 -19 -37q-52 -81 -158 -81h-36q-84 0 -135 49t-51 128q0 34 9 61t18 42t31.5 30.5t32 20.5t35.5 17q20 10 30 16t19 19t9 31q0 14 -3 29.5t-3 16.5q0 8 10 8h95q8 0 10 -8
q6 -38 6 -60q0 -40 -19 -70.5t-35.5 -41t-54.5 -29.5q-7 -4 -11 -6q-21 -11 -32.5 -18.5t-21.5 -22.5t-10 -35q0 -30 20.5 -51t50.5 -21h36q46 0 71 59q3 7 8 7q2 0 12 -5l80 -41q6 -3 6 -7z" />
    <glyph glyph-name="Agrave" unicode="&#xc0;" horiz-adv-x="450" 
d="M285 705q4 -6 2 -10t-8 -4h-59q-13 0 -21 7l-133 109q-5 4 -3.5 10t8.5 6h113q10 0 18 -10zM458 8q0 -8 -11 -8h-101q-9 0 -10 7l-30 105q-1 6 -10 6h-143q-9 0 -10 -6l-30 -105q-1 -7 -10 -7h-100q-11 0 -11 8q0 2 1 4.5t2 6.5t2 7l182 597q1 7 10 7h72q9 0 10 -7
l182 -597q5 -15 5 -18zM272 232q0 4 -5 19l-29 117q-1 4 -5.5 27.5t-5.5 27.5h-3q-1 -4 -6 -27.5t-6 -27.5l-30 -116q-5 -18 -5 -20q0 -9 11 -9h73q11 0 11 9z" />
    <glyph glyph-name="Aacute" unicode="&#xc1;" horiz-adv-x="450" 
d="M385 807l-133 -109q-8 -7 -21 -7h-59q-6 0 -8 4t2 10l83 108q8 10 18 10h113q7 0 8.5 -6t-3.5 -10zM458 8q0 -8 -11 -8h-101q-9 0 -10 7l-30 105q-1 6 -10 6h-143q-9 0 -10 -6l-30 -105q-1 -7 -10 -7h-100q-11 0 -11 8q0 2 1 4.5t2 6.5t2 7l182 597q1 7 10 7h72
q9 0 10 -7l182 -597q5 -15 5 -18zM272 232q0 4 -5 19l-29 117q-1 4 -5.5 27.5t-5.5 27.5h-3q-1 -4 -6 -27.5t-6 -27.5l-30 -116q-5 -18 -5 -20q0 -9 11 -9h73q11 0 11 9z" />
    <glyph glyph-name="Acircumflex" unicode="&#xc2;" horiz-adv-x="450" 
d="M347 698q4 -5 2 -9t-8 -4h-66q-8 0 -14 9l-30 50q-5 9 -11 0l-30 -50q-6 -9 -14 -9h-66q-6 0 -8 4t2 9l92 127q4 6 12 6h35q7 0 12 -6zM458 8q0 -8 -11 -8h-101q-9 0 -10 7l-30 105q-1 6 -10 6h-143q-9 0 -10 -6l-30 -105q-1 -7 -10 -7h-100q-11 0 -11 8q0 2 1 4.5t2 6.5
t2 7l182 597q1 7 10 7h72q9 0 10 -7l182 -597q5 -15 5 -18zM272 232q0 4 -5 19l-29 117q-1 4 -5.5 27.5t-5.5 27.5h-3q-1 -4 -6 -27.5t-6 -27.5l-30 -116q-5 -18 -5 -20q0 -9 11 -9h73q11 0 11 9z" />
    <glyph glyph-name="Atilde" unicode="&#xc3;" horiz-adv-x="450" 
d="M368 768q-37 -66 -99 -66q-18 0 -48 15.5t-43 15.5q-29 0 -46 -27q-6 -10 -15 -3l-31 22q-7 6 -3 13q37 66 96 66q21 0 50 -15t41 -15q25 0 48 28q8 9 14 4l33 -24q8 -6 3 -14zM458 8q0 -8 -11 -8h-101q-9 0 -10 7l-30 105q-1 6 -10 6h-143q-9 0 -10 -6l-30 -105
q-1 -7 -10 -7h-100q-11 0 -11 8q0 2 1 4.5t2 6.5t2 7l182 597q1 7 10 7h72q9 0 10 -7l182 -597q5 -15 5 -18zM272 232q0 4 -5 19l-29 117q-1 4 -5.5 27.5t-5.5 27.5h-3q-1 -4 -6 -27.5t-6 -27.5l-30 -116q-5 -18 -5 -20q0 -9 11 -9h73q11 0 11 9z" />
    <glyph glyph-name="Adieresis" unicode="&#xc4;" horiz-adv-x="450" 
d="M360 755q0 -23 -16 -39t-39 -16t-39.5 16t-16.5 39t16.5 39t39.5 16t39 -16t16 -39zM201 755q0 -23 -16 -39t-39 -16t-39.5 16t-16.5 39t16.5 39t39.5 16t39 -16t16 -39zM458 8q0 -8 -11 -8h-101q-9 0 -10 7l-30 105q-1 6 -10 6h-143q-9 0 -10 -6l-30 -105q-1 -7 -10 -7
h-100q-11 0 -11 8q0 2 1 4.5t2 6.5t2 7l182 597q1 7 10 7h72q9 0 10 -7l182 -597q5 -15 5 -18zM272 232q0 4 -5 19l-29 117q-1 4 -5.5 27.5t-5.5 27.5h-3q-1 -4 -6 -27.5t-6 -27.5l-30 -116q-5 -18 -5 -20q0 -9 11 -9h73q11 0 11 9z" />
    <glyph glyph-name="Aring" unicode="&#xc5;" horiz-adv-x="450" 
d="M458 8q0 -8 -11 -8h-101q-9 0 -10 7l-30 105q-1 6 -10 6h-143q-9 0 -10 -6l-30 -105q-1 -7 -10 -7h-100q-11 0 -11 8q0 2 1 4.5t2 6.5t2 7l161 527q3 11 3 16q0 7 -7 13q-29 26 -29 70v29q0 42 27.5 68.5t72.5 26.5t72.5 -26.5t27.5 -68.5v-29q0 -44 -30 -71
q-7 -6 -7 -11t4 -17l161 -527q5 -15 5 -18zM254 652v29q0 11 -9 20t-20 9t-20 -9t-9 -20v-29q0 -11 9 -19.5t20 -8.5t20 8.5t9 19.5zM272 232q0 4 -5 19l-29 117q-1 4 -5.5 27.5t-5.5 27.5h-3q-1 -4 -6 -27.5t-6 -27.5l-30 -116q-5 -18 -5 -20q0 -9 11 -9h73q11 0 11 9z" />
    <glyph glyph-name="AE" unicode="&#xc6;" horiz-adv-x="686" 
d="M648 10q0 -10 -10 -10h-353q-10 0 -10 10v118q0 10 -10 10h-133q-7 0 -10 -4l-72 -129q-3 -5 -9 -5h-102q-11 0 -11 8q0 4 11 22l351 595q3 5 9 5h339q10 0 10 -10v-85q0 -10 -10 -10h-238q-10 0 -10 -10v-133q0 -10 10 -10h195q10 0 10 -10v-85q0 -10 -10 -10h-195
q-10 0 -10 -10v-142q0 -10 10 -10h238q10 0 10 -10v-85zM281 416l-4 1q-12 -31 -23 -51l-55 -101q-6 -12 -6 -14q0 -8 11 -8h61q10 0 10 10v40q0 51 6 123z" />
    <glyph glyph-name="Ccedilla" unicode="&#xc7;" horiz-adv-x="484" 
d="M465 108q0 -5 -19 -37q-48 -76 -143 -81q-16 -1 -16 -15q0 -4 4 -7q42 -23 42 -72v-8q0 -46 -32 -74.5t-79 -28.5h-59q-10 0 -10 10v66q0 10 10 10h59q7 0 12.5 5t5.5 12v8q0 7 -5.5 12.5t-12.5 5.5h-40q-10 0 -10 8q0 4 8 20l15 32q4 8 4 12q0 7 -10 9
q-63 13 -99.5 59.5t-36.5 112.5v296q0 79 50.5 128t135.5 49h49q106 0 158 -81q19 -32 19 -37q0 -4 -6 -7l-80 -41q-10 -5 -12 -5q-5 0 -8 7q-25 59 -71 59h-49q-29 0 -50.5 -21.5t-21.5 -50.5v-296q0 -29 21.5 -50.5t50.5 -21.5h49q46 0 71 59q3 7 8 7q2 0 12 -5l80 -41
q6 -3 6 -7z" />
    <glyph glyph-name="Egrave" unicode="&#xc8;" horiz-adv-x="478" 
d="M314 705q4 -6 2 -10t-8 -4h-59q-13 0 -21 7l-133 109q-5 4 -3.5 10t8.5 6h113q10 0 18 -10zM440 10q0 -10 -10 -10h-353q-10 0 -10 10v610q0 10 10 10h353q10 0 10 -10v-85q0 -10 -10 -10h-238q-10 0 -10 -10v-133q0 -10 10 -10h195q10 0 10 -10v-85q0 -10 -10 -10h-195
q-10 0 -10 -10v-142q0 -10 10 -10h238q10 0 10 -10v-85z" />
    <glyph glyph-name="Eacute" unicode="&#xc9;" horiz-adv-x="478" 
d="M414 807l-133 -109q-8 -7 -21 -7h-59q-6 0 -8 4t2 10l83 108q8 10 18 10h113q7 0 8.5 -6t-3.5 -10zM440 10q0 -10 -10 -10h-353q-10 0 -10 10v610q0 10 10 10h353q10 0 10 -10v-85q0 -10 -10 -10h-238q-10 0 -10 -10v-133q0 -10 10 -10h195q10 0 10 -10v-85
q0 -10 -10 -10h-195q-10 0 -10 -10v-142q0 -10 10 -10h238q10 0 10 -10v-85z" />
    <glyph glyph-name="Ecircumflex" unicode="&#xca;" horiz-adv-x="478" 
d="M376 698q4 -5 2 -9t-8 -4h-66q-8 0 -14 9l-30 50q-5 9 -11 0l-30 -50q-6 -9 -14 -9h-66q-6 0 -8 4t2 9l92 127q5 6 12 6h35q8 0 12 -6zM440 10q0 -10 -10 -10h-353q-10 0 -10 10v610q0 10 10 10h353q10 0 10 -10v-85q0 -10 -10 -10h-238q-10 0 -10 -10v-133q0 -10 10 -10
h195q10 0 10 -10v-85q0 -10 -10 -10h-195q-10 0 -10 -10v-142q0 -10 10 -10h238q10 0 10 -10v-85z" />
    <glyph glyph-name="Edieresis" unicode="&#xcb;" horiz-adv-x="478" 
d="M390 755q0 -23 -16 -39t-39 -16t-39.5 16t-16.5 39t16.5 39t39.5 16t39 -16t16 -39zM231 755q0 -23 -16 -39t-39 -16t-39.5 16t-16.5 39t16.5 39t39.5 16t39 -16t16 -39zM440 10q0 -10 -10 -10h-353q-10 0 -10 10v610q0 10 10 10h353q10 0 10 -10v-85q0 -10 -10 -10h-238
q-10 0 -10 -10v-133q0 -10 10 -10h195q10 0 10 -10v-85q0 -10 -10 -10h-195q-10 0 -10 -10v-142q0 -10 10 -10h238q10 0 10 -10v-85z" />
    <glyph glyph-name="Igrave" unicode="&#xcc;" horiz-adv-x="249" 
d="M184 705q4 -6 2 -10t-8 -4h-59q-13 0 -21 7l-133 109q-5 4 -3.5 10t8.5 6h113q10 0 18 -10zM182 10q0 -10 -10 -10h-95q-10 0 -10 10v610q0 10 10 10h95q10 0 10 -10v-610z" />
    <glyph glyph-name="Iacute" unicode="&#xcd;" horiz-adv-x="249" 
d="M284 807l-133 -109q-8 -7 -21 -7h-59q-6 0 -8 4t2 10l83 108q8 10 18 10h113q7 0 8.5 -6t-3.5 -10zM182 10q0 -10 -10 -10h-95q-10 0 -10 10v610q0 10 10 10h95q10 0 10 -10v-610z" />
    <glyph glyph-name="Icircumflex" unicode="&#xce;" horiz-adv-x="249" 
d="M246 698q4 -5 2 -9t-8 -4h-66q-8 0 -14 9l-30 50q-5 9 -11 0l-30 -50q-6 -9 -14 -9h-66q-6 0 -8 4t2 9l92 127q4 6 12 6h35q8 0 12 -6zM182 10q0 -10 -10 -10h-95q-10 0 -10 10v610q0 10 10 10h95q10 0 10 -10v-610z" />
    <glyph glyph-name="Idieresis" unicode="&#xcf;" horiz-adv-x="249" 
d="M260 755q0 -23 -16 -39t-39 -16t-39.5 16t-16.5 39t16.5 39t39.5 16t39 -16t16 -39zM101 755q0 -23 -16 -39t-39 -16t-39.5 16t-16.5 39t16.5 39t39.5 16t39 -16t16 -39zM182 10q0 -10 -10 -10h-95q-10 0 -10 10v610q0 10 10 10h95q10 0 10 -10v-610z" />
    <glyph glyph-name="Eth" unicode="&#xd0;" horiz-adv-x="541" 
d="M488 186q0 -86 -50 -136t-136 -50h-225q-10 0 -10 10v238q0 10 -11 10h-31q-10 0 -10 10v94q0 10 10 10h31q11 0 11 11v237q0 10 10 10h225q85 0 135.5 -50.5t50.5 -135.5v-258zM374 177v276q0 29 -21.5 50.5t-50.5 21.5h-110q-10 0 -10 -10v-133q0 -10 11 -10h76
q10 0 10 -10v-94q0 -10 -10 -10h-76q-11 0 -11 -11v-132q0 -10 10 -10h110q30 0 51 21t21 51z" />
    <glyph glyph-name="Ntilde" unicode="&#xd1;" horiz-adv-x="550" 
d="M415 768q-37 -66 -99 -66q-18 0 -48 15.5t-43 15.5q-29 0 -46 -27q-6 -10 -15 -3l-31 22q-7 6 -3 13q37 66 96 66q21 0 49.5 -15t41.5 -15q25 0 48 28q8 9 14 4l33 -24q8 -6 3 -14zM482 10q0 -10 -10 -10h-83q-6 0 -9 5l-179 326q-5 10 -21 51l-4 -1q6 -72 6 -247v-124
q0 -10 -10 -10h-95q-10 0 -10 10v610q0 10 10 10h84q6 0 9 -5l179 -328q5 -10 21 -51l4 1q-6 72 -6 247v126q0 10 10 10h94q10 0 10 -10v-610z" />
    <glyph glyph-name="Ograve" unicode="&#xd2;" horiz-adv-x="527" 
d="M323 705q4 -6 2 -10t-8 -4h-59q-13 0 -21 7l-133 109q-5 4 -3.5 10t8.5 6h113q10 0 18 -10zM474 167q0 -79 -51 -128t-135 -49h-49q-85 0 -135.5 49t-50.5 128v296q0 79 50.5 128t135.5 49h49q84 0 135 -49t51 -128v-296zM359 167v296q0 30 -20.5 51t-50.5 21h-49
q-29 0 -50.5 -21.5t-21.5 -50.5v-296q0 -29 21.5 -50.5t50.5 -21.5h49q30 0 50.5 21t20.5 51z" />
    <glyph glyph-name="Oacute" unicode="&#xd3;" horiz-adv-x="527" 
d="M423 807l-133 -109q-8 -7 -21 -7h-59q-6 0 -8 4t2 10l83 108q8 10 18 10h113q7 0 8.5 -6t-3.5 -10zM474 167q0 -79 -51 -128t-135 -49h-49q-85 0 -135.5 49t-50.5 128v296q0 79 50.5 128t135.5 49h49q84 0 135 -49t51 -128v-296zM359 167v296q0 30 -20.5 51t-50.5 21h-49
q-29 0 -50.5 -21.5t-21.5 -50.5v-296q0 -29 21.5 -50.5t50.5 -21.5h49q30 0 50.5 21t20.5 51z" />
    <glyph glyph-name="Ocircumflex" unicode="&#xd4;" horiz-adv-x="527" 
d="M385 698q4 -5 2 -9t-8 -4h-66q-8 0 -14 9l-30 50q-5 9 -11 0l-30 -50q-6 -9 -14 -9h-66q-6 0 -8 4t2 9l92 127q4 6 12 6h35q7 0 12 -6zM474 167q0 -79 -51 -128t-135 -49h-49q-85 0 -135.5 49t-50.5 128v296q0 79 50.5 128t135.5 49h49q84 0 135 -49t51 -128v-296z
M359 167v296q0 30 -20.5 51t-50.5 21h-49q-29 0 -50.5 -21.5t-21.5 -50.5v-296q0 -29 21.5 -50.5t50.5 -21.5h49q30 0 50.5 21t20.5 51z" />
    <glyph glyph-name="Otilde" unicode="&#xd5;" horiz-adv-x="527" 
d="M406 768q-37 -66 -99 -66q-18 0 -48 15.5t-43 15.5q-29 0 -46 -27q-6 -10 -15 -3l-31 22q-7 6 -3 13q37 66 96 66q21 0 50 -15t41 -15q25 0 48 28q8 9 14 4l33 -24q8 -6 3 -14zM474 167q0 -79 -51 -128t-135 -49h-49q-85 0 -135.5 49t-50.5 128v296q0 79 50.5 128
t135.5 49h49q84 0 135 -49t51 -128v-296zM359 167v296q0 30 -20.5 51t-50.5 21h-49q-29 0 -50.5 -21.5t-21.5 -50.5v-296q0 -29 21.5 -50.5t50.5 -21.5h49q30 0 50.5 21t20.5 51z" />
    <glyph glyph-name="Odieresis" unicode="&#xd6;" horiz-adv-x="527" 
d="M399 755q0 -23 -16 -39t-39 -16t-39.5 16t-16.5 39t16.5 39t39.5 16t39 -16t16 -39zM240 755q0 -23 -16 -39t-39 -16t-39.5 16t-16.5 39t16.5 39t39.5 16t39 -16t16 -39zM474 167q0 -79 -51 -128t-135 -49h-49q-85 0 -135.5 49t-50.5 128v296q0 79 50.5 128t135.5 49h49
q84 0 135 -49t51 -128v-296zM359 167v296q0 30 -20.5 51t-50.5 21h-49q-29 0 -50.5 -21.5t-21.5 -50.5v-296q0 -29 21.5 -50.5t50.5 -21.5h49q30 0 50.5 21t20.5 51z" />
    <glyph glyph-name="multiply" unicode="&#xd7;" 
d="M443 101l-47 -46q-7 -7 -14 0l-121 121q-7 7 -14 0l-121 -122q-8 -8 -15 0l-46 47q-7 7 0 14l121 121q8 8 0 15l-121 121q-7 7 0 14l46 47q7 7 15 0l121 -122q7 -7 14 0l121 121q7 7 14 0l47 -46q7 -8 0 -15l-121 -120q-8 -7 0 -15l121 -120q7 -8 0 -15z" />
    <glyph glyph-name="Oslash" unicode="&#xd8;" horiz-adv-x="527" 
d="M474 167q0 -79 -51 -128t-135 -49h-49q-85 0 -135.5 49t-50.5 128v296q0 79 50.5 128t135.5 49h49q84 0 135 -49t51 -128v-296zM316 521q0 8 -7 10q-14 4 -21 4h-49q-29 0 -50.5 -21.5t-21.5 -50.5v-212q0 -9 7 -9q4 0 7 5l133 267q2 6 2 7zM359 167v261q0 8 -6 8
q-5 0 -7 -5l-149 -299q-4 -10 -4 -13q0 -7 6 -11q19 -13 40 -13h49q30 0 50.5 21t20.5 51z" />
    <glyph glyph-name="Ugrave" unicode="&#xd9;" horiz-adv-x="527" 
d="M323 705q4 -6 2 -10t-8 -4h-59q-13 0 -21 7l-133 109q-5 4 -3.5 10t8.5 6h113q10 0 18 -10zM474 167q0 -79 -51 -128t-135 -49h-49q-85 0 -135.5 49t-50.5 128v453q0 10 10 10h94q10 0 10 -10v-453q0 -29 21.5 -50.5t50.5 -21.5h49q30 0 50.5 21t20.5 51v453q0 10 10 10
h95q10 0 10 -10v-453z" />
    <glyph glyph-name="Uacute" unicode="&#xda;" horiz-adv-x="527" 
d="M423 807l-133 -109q-8 -7 -21 -7h-59q-6 0 -8 4t2 10l83 108q8 10 18 10h113q7 0 8.5 -6t-3.5 -10zM474 167q0 -79 -51 -128t-135 -49h-49q-85 0 -135.5 49t-50.5 128v453q0 10 10 10h94q10 0 10 -10v-453q0 -29 21.5 -50.5t50.5 -21.5h49q30 0 50.5 21t20.5 51v453
q0 10 10 10h95q10 0 10 -10v-453z" />
    <glyph glyph-name="Ucircumflex" unicode="&#xdb;" horiz-adv-x="527" 
d="M385 698q4 -5 2 -9t-8 -4h-66q-8 0 -14 9l-30 50q-5 9 -11 0l-30 -50q-6 -9 -14 -9h-66q-6 0 -8 4t2 9l92 127q4 6 12 6h35q7 0 12 -6zM474 167q0 -79 -51 -128t-135 -49h-49q-85 0 -135.5 49t-50.5 128v453q0 10 10 10h94q10 0 10 -10v-453q0 -29 21.5 -50.5t50.5 -21.5
h49q30 0 50.5 21t20.5 51v453q0 10 10 10h95q10 0 10 -10v-453z" />
    <glyph glyph-name="Udieresis" unicode="&#xdc;" horiz-adv-x="527" 
d="M399 755q0 -23 -16 -39t-39 -16t-39.5 16t-16.5 39t16.5 39t39.5 16t39 -16t16 -39zM240 755q0 -23 -16 -39t-39 -16t-39.5 16t-16.5 39t16.5 39t39.5 16t39 -16t16 -39zM474 167q0 -79 -51 -128t-135 -49h-49q-85 0 -135.5 49t-50.5 128v453q0 10 10 10h94q10 0 10 -10
v-453q0 -29 21.5 -50.5t50.5 -21.5h49q30 0 50.5 21t20.5 51v453q0 10 10 10h95q10 0 10 -10v-453z" />
    <glyph glyph-name="Yacute" unicode="&#xdd;" horiz-adv-x="450" 
d="M420 807l-133 -109q-8 -7 -21 -7h-59q-6 0 -8 4t2 10l83 108q8 10 18 10h113q7 0 8.5 -6t-3.5 -10zM459 622q0 -2 -7 -16l-163 -305q-7 -14 -7 -28v-263q0 -10 -10 -10h-95q-10 0 -10 10v264q0 13 -7 27l-163 305q-7 12 -7 16q0 8 11 8h111q5 0 9 -6l95 -196q3 -8 9 -8
t9 8l95 196q4 6 9 6h110q11 0 11 -8z" />
    <glyph glyph-name="Thorn" unicode="&#xde;" horiz-adv-x="483" 
d="M468 324q0 -76 -51 -126.5t-135 -50.5h-90q-10 0 -10 -10v-127q0 -10 -10 -10h-95q-10 0 -10 10v610q0 10 10 10h95q10 0 10 -10v-99q0 -11 11 -11h89q85 0 135.5 -51t50.5 -135zM354 324v9q0 29 -21.5 50.5t-50.5 21.5h-90q-10 0 -10 -10v-133q0 -10 10 -10h90
q29 0 50.5 21.5t21.5 50.5z" />
    <glyph glyph-name="germandbls" unicode="&#xdf;" horiz-adv-x="491" 
d="M444 175q0 -132 -119 -172q-39 -13 -72 -13q-10 0 -10 10v86q0 10 9 10q38 3 57.5 22.5t19.5 48.5v29q0 29 -19.5 48t-57.5 22q-9 0 -9 10v87q0 10 9 10q38 3 57.5 22.5t19.5 48.5v19q0 30 -20.5 51t-50.5 21q-32 0 -52 -21t-20 -51v-453q0 -10 -10 -10h-94q-10 0 -10 10
v290q0 10 -10 10h-23q-10 0 -10 10v85q0 10 10 10h23q10 0 10 10v28q0 77 55 132t131 55q85 0 135.5 -51t50.5 -136v-19q0 -27 -15.5 -57t-37.5 -51q-4 -3 -4 -7q0 -3 4 -7q22 -22 37.5 -54t15.5 -59v-24z" />
    <glyph glyph-name="agrave" unicode="&#xe0;" horiz-adv-x="465" 
d="M304 521q0 -8 -10 -8h-68q-7 0 -16 7l-142 140q-7 7 -7 12q0 8 11 8h122q9 0 14 -8l90 -138q6 -10 6 -13zM408 10q0 -10 -10 -10h-85q-10 0 -10 8q0 13 -7 13q-4 0 -9 -3q-33 -18 -61 -18h-38q-60 0 -100.5 37.5t-40.5 96.5v5q0 60 40 97t101 37h96q10 0 10 10v12
q0 29 -21 48.5t-52 19.5q-40 0 -73 -57q-3 -6 -8 -6q-2 0 -12 5l-76 40q-6 3 -6 7q0 8 21 40q51 76 154 76q85 0 136 -48.5t51 -127.5v-282zM294 161v16h-106q-11 0 -19 -8.5t-8 -19.5v-15q0 -12 7.5 -20.5t19.5 -8.5h38q24 0 44 17t24 39z" />
    <glyph glyph-name="aacute" unicode="&#xe1;" horiz-adv-x="465" 
d="M403 672q0 -5 -7 -12l-142 -140q-9 -7 -16 -7h-68q-10 0 -10 8q0 3 6 13l90 138q5 8 14 8h122q11 0 11 -8zM408 10q0 -10 -10 -10h-85q-10 0 -10 8q0 13 -7 13q-4 0 -9 -3q-33 -18 -61 -18h-38q-60 0 -100.5 37.5t-40.5 96.5v5q0 60 40 97t101 37h96q10 0 10 10v12
q0 29 -21 48.5t-52 19.5q-40 0 -73 -57q-3 -6 -8 -6q-2 0 -12 5l-76 40q-6 3 -6 7q0 8 21 40q51 76 154 76q85 0 136 -48.5t51 -127.5v-282zM294 161v16h-106q-11 0 -19 -8.5t-8 -19.5v-15q0 -12 7.5 -20.5t19.5 -8.5h38q24 0 44 17t24 39z" />
    <glyph glyph-name="acircumflex" unicode="&#xe2;" horiz-adv-x="465" 
d="M373 521q0 -8 -11 -8h-81q-5 0 -8 5l-33 51q-3 6 -8 6q-4 0 -7 -6l-32 -51q-3 -5 -8 -5h-81q-11 0 -11 8q0 3 3 8l104 147q4 4 8 4h49q4 0 8 -4l105 -147q3 -5 3 -8zM408 10q0 -10 -10 -10h-85q-10 0 -10 8q0 13 -7 13q-4 0 -9 -3q-33 -18 -61 -18h-38q-60 0 -100.5 37.5
t-40.5 96.5v5q0 60 40 97t101 37h96q10 0 10 10v12q0 29 -21 48.5t-52 19.5q-40 0 -73 -57q-3 -6 -8 -6q-2 0 -12 5l-76 40q-6 3 -6 7q0 8 21 40q51 76 154 76q85 0 136 -48.5t51 -127.5v-282zM294 161v16h-106q-11 0 -19 -8.5t-8 -19.5v-15q0 -12 7.5 -20.5t19.5 -8.5h38
q24 0 44 17t24 39z" />
    <glyph glyph-name="atilde" unicode="&#xe3;" horiz-adv-x="465" 
d="M385 614q0 -6 -18 -34q-38 -55 -84 -55q-22 0 -69 29l-18 11q-16 10 -26 10q-20 0 -41 -31q-3 -6 -8 -6q-3 0 -14 9l-34 25q-4 3 -4 8q0 6 14 28q37 58 87 58q31 0 68 -26l17 -12q15 -11 28 -11q22 0 43 34q3 6 8 6q3 0 11 -6l36 -29q4 -3 4 -8zM408 10q0 -10 -10 -10
h-85q-10 0 -10 8q0 13 -7 13q-4 0 -9 -3q-33 -18 -61 -18h-38q-60 0 -100.5 37.5t-40.5 96.5v5q0 60 40 97t101 37h96q10 0 10 10v12q0 29 -21 48.5t-52 19.5q-40 0 -73 -57q-3 -6 -8 -6q-2 0 -12 5l-76 40q-6 3 -6 7q0 8 21 40q51 76 154 76q85 0 136 -48.5t51 -127.5v-282
zM294 161v16h-106q-11 0 -19 -8.5t-8 -19.5v-15q0 -12 7.5 -20.5t19.5 -8.5h38q24 0 44 17t24 39z" />
    <glyph glyph-name="adieresis" unicode="&#xe4;" horiz-adv-x="465" 
d="M379 594q0 -26 -18 -44t-44 -18t-44 18t-18 44t18 44t44 18t44 -18t18 -44zM210 594q0 -26 -18 -44t-44 -18t-44 18t-18 44t18 44t44 18t44 -18t18 -44zM408 10q0 -10 -10 -10h-85q-10 0 -10 8q0 13 -7 13q-4 0 -9 -3q-33 -18 -61 -18h-38q-60 0 -100.5 37.5t-40.5 96.5
v5q0 60 40 97t101 37h96q10 0 10 10v12q0 29 -21 48.5t-52 19.5q-40 0 -73 -57q-3 -6 -8 -6q-2 0 -12 5l-76 40q-6 3 -6 7q0 8 21 40q51 76 154 76q85 0 136 -48.5t51 -127.5v-282zM294 161v16h-106q-11 0 -19 -8.5t-8 -19.5v-15q0 -12 7.5 -20.5t19.5 -8.5h38q24 0 44 17
t24 39z" />
    <glyph glyph-name="aring" unicode="&#xe5;" horiz-adv-x="465" 
d="M332 608q0 -42 -27.5 -68.5t-72.5 -26.5t-72.5 26.5t-27.5 68.5v29q0 42 27.5 68.5t72.5 26.5t72.5 -26.5t27.5 -68.5v-29zM408 10q0 -10 -10 -10h-85q-10 0 -10 8q0 13 -7 13q-4 0 -9 -3q-33 -18 -61 -18h-38q-60 0 -100.5 37.5t-40.5 96.5v5q0 60 40 97t101 37h96
q10 0 10 10v12q0 29 -21 48.5t-52 19.5q-40 0 -73 -57q-3 -6 -8 -6q-2 0 -12 5l-76 40q-6 3 -6 7q0 8 21 40q51 76 154 76q85 0 136 -48.5t51 -127.5v-282zM261 608v29q0 11 -9 20t-20 9t-20 -9t-9 -20v-29q0 -11 9 -19.5t20 -8.5t20 8.5t9 19.5zM294 161v16h-106
q-11 0 -19 -8.5t-8 -19.5v-15q0 -12 7.5 -20.5t19.5 -8.5h38q24 0 44 17t24 39z" />
    <glyph glyph-name="ae" unicode="&#xe6;" horiz-adv-x="719" 
d="M676 210q0 -10 -10 -10h-238q-10 0 -10 -10v-23q0 -30 21 -51t51 -21q46 0 71 59q3 6 8 6q3 0 17 -7l75 -37q6 -3 6 -8q0 -6 -15 -30q-53 -88 -162 -88q-85 0 -134 49q-4 4 -7 4q-4 0 -7 -4q-21 -22 -51.5 -35.5t-53.5 -13.5h-47q-62 0 -103 37.5t-41 96.5v19
q0 59 41 96.5t103 37.5h104q10 0 10 10v2q0 30 -20.5 51t-50.5 21q-48 0 -71 -58q-3 -6 -8 -6t-13 5l-78 39q-6 3 -6 8q0 7 16 33q53 84 160 84q70 0 119 -36q10 -7 12 -7q5 0 12 7q49 38 114 38q81 0 133.5 -55t52.5 -122v-81zM560 305q0 15 -18.5 36.5t-51.5 21.5
q-32 0 -51.5 -21.5t-19.5 -36.5q0 -9 11 -9h119q11 0 11 9zM304 151v23q0 8 -10 8h-104q-12 0 -20.5 -8.5t-8.5 -20.5v-29q0 -12 8.5 -20.5t20.5 -8.5h47q21 0 39.5 17t27.5 39z" />
    <glyph glyph-name="ccedilla" unicode="&#xe7;" horiz-adv-x="429" 
d="M407 108q0 -6 -15 -30q-48 -78 -137 -87q0 -1 -1 -3l-5 -13q0 -4 4 -7q42 -23 42 -72v-8q0 -46 -32 -74.5t-79 -28.5h-59q-10 0 -10 10v66q0 10 10 10h59q7 0 12.5 5t5.5 12v8q0 7 -5.5 12.5t-12.5 5.5h-40q-10 0 -10 8q0 4 8 20l27 56q-59 16 -92.5 61t-33.5 108v124
q0 79 51 128t136 49q109 0 162 -88q15 -24 15 -30q0 -5 -6 -8l-75 -37q-14 -7 -17 -7q-5 0 -8 6q-25 59 -71 59q-30 0 -51 -21t-21 -51v-124q0 -30 21 -51t51 -21q46 0 71 59q3 6 8 6q3 0 17 -7l75 -37q6 -3 6 -8z" />
    <glyph glyph-name="egrave" unicode="&#xe8;" horiz-adv-x="459" 
d="M302 521q0 -8 -10 -8h-68q-7 0 -16 7l-142 140q-7 7 -7 12q0 8 11 8h122q9 0 14 -8l90 -138q6 -10 6 -13zM416 210q0 -10 -10 -10h-238q-10 0 -10 -10v-23q0 -30 21 -51t51 -21q46 0 71 59q3 6 8 6q3 0 17 -7l75 -37q6 -3 6 -8q0 -6 -15 -30q-53 -88 -162 -88
q-85 0 -136 49t-51 128v124q0 67 53 122t134 55t133.5 -55t52.5 -122v-81zM300 305q0 15 -18.5 36.5t-51.5 21.5q-32 0 -51.5 -21.5t-19.5 -36.5q0 -9 11 -9h119q11 0 11 9z" />
    <glyph glyph-name="eacute" unicode="&#xe9;" horiz-adv-x="459" 
d="M401 672q0 -5 -7 -12l-142 -140q-9 -7 -16 -7h-68q-10 0 -10 8q0 3 6 13l90 138q5 8 14 8h122q11 0 11 -8zM416 210q0 -10 -10 -10h-238q-10 0 -10 -10v-23q0 -30 21 -51t51 -21q46 0 71 59q3 6 8 6q3 0 17 -7l75 -37q6 -3 6 -8q0 -6 -15 -30q-53 -88 -162 -88
q-85 0 -136 49t-51 128v124q0 67 53 122t134 55t133.5 -55t52.5 -122v-81zM300 305q0 15 -18.5 36.5t-51.5 21.5q-32 0 -51.5 -21.5t-19.5 -36.5q0 -9 11 -9h119q11 0 11 9z" />
    <glyph glyph-name="ecircumflex" unicode="&#xea;" horiz-adv-x="459" 
d="M371 521q0 -8 -11 -8h-81q-5 0 -8 5l-33 51q-3 6 -8 6q-4 0 -7 -6l-32 -51q-3 -5 -8 -5h-81q-11 0 -11 8q0 3 3 8l104 147q4 4 8 4h49q4 0 8 -4l105 -147q3 -5 3 -8zM416 210q0 -10 -10 -10h-238q-10 0 -10 -10v-23q0 -30 21 -51t51 -21q46 0 71 59q3 6 8 6q3 0 17 -7
l75 -37q6 -3 6 -8q0 -6 -15 -30q-53 -88 -162 -88q-85 0 -136 49t-51 128v124q0 67 53 122t134 55t133.5 -55t52.5 -122v-81zM300 305q0 15 -18.5 36.5t-51.5 21.5q-32 0 -51.5 -21.5t-19.5 -36.5q0 -9 11 -9h119q11 0 11 9z" />
    <glyph glyph-name="edieresis" unicode="&#xeb;" horiz-adv-x="459" 
d="M377 594q0 -26 -18 -44t-44 -18t-44 18t-18 44t18 44t44 18t44 -18t18 -44zM208 594q0 -26 -18 -44t-44 -18t-44 18t-18 44t18 44t44 18t44 -18t18 -44zM416 210q0 -10 -10 -10h-238q-10 0 -10 -10v-23q0 -30 21 -51t51 -21q46 0 71 59q3 6 8 6q3 0 17 -7l75 -37
q6 -3 6 -8q0 -6 -15 -30q-53 -88 -162 -88q-85 0 -136 49t-51 128v124q0 67 53 122t134 55t133.5 -55t52.5 -122v-81zM300 305q0 15 -18.5 36.5t-51.5 21.5q-32 0 -51.5 -21.5t-19.5 -36.5q0 -9 11 -9h119q11 0 11 9z" />
    <glyph glyph-name="igrave" unicode="&#xec;" horiz-adv-x="230" 
d="M186 521q0 -8 -10 -8h-68q-7 0 -16 7l-142 140q-7 7 -7 12q0 8 11 8h122q9 0 14 -8l90 -138q6 -10 6 -13zM172 10q0 -10 -10 -10h-94q-10 0 -10 10v438q0 10 10 10h94q10 0 10 -10v-438z" />
    <glyph glyph-name="iacute" unicode="&#xed;" horiz-adv-x="230" 
d="M285 672q0 -5 -7 -12l-142 -140q-9 -7 -16 -7h-68q-10 0 -10 8q0 3 6 13l90 138q5 8 14 8h122q11 0 11 -8zM172 10q0 -10 -10 -10h-94q-10 0 -10 10v438q0 10 10 10h94q10 0 10 -10v-438z" />
    <glyph glyph-name="icircumflex" unicode="&#xee;" horiz-adv-x="230" 
d="M255 521q0 -8 -11 -8h-81q-5 0 -8 5l-33 51q-3 6 -8 6q-4 0 -7 -6l-32 -51q-3 -5 -8 -5h-81q-11 0 -11 8q0 3 3 8l104 147q4 4 8 4h49q4 0 8 -4l105 -147q3 -5 3 -8zM172 10q0 -10 -10 -10h-94q-10 0 -10 10v438q0 10 10 10h94q10 0 10 -10v-438z" />
    <glyph glyph-name="idieresis" unicode="&#xef;" horiz-adv-x="230" 
d="M261 594q0 -26 -18 -44t-44 -18t-44 18t-18 44t18 44t44 18t44 -18t18 -44zM92 594q0 -26 -18 -44t-44 -18t-44 18t-18 44t18 44t44 18t44 -18t18 -44zM172 10q0 -10 -10 -10h-94q-10 0 -10 10v438q0 10 10 10h94q10 0 10 -10v-438z" />
    <glyph glyph-name="eth" unicode="&#xf0;" horiz-adv-x="459" 
d="M416 167q0 -79 -51 -128t-135 -49q-85 0 -136 49t-51 128v124q0 69 40 116t109 58l-38 38l-97 -38q-5 -2 -9.5 -0.5t-4.5 5.5v34q0 14 6 16l63 25l-71 72q-4 5 -0.5 9t10.5 4h101q3 0 10 -7l42 -42l107 42q4 2 9 0t5 -6v-37q0 -10 -8 -13l-72 -28l137 -135
q34 -45 34 -113v-124zM301 167v124q0 30 -20.5 51t-50.5 21t-51 -21t-21 -51v-124q0 -30 21 -51t51 -21t50.5 21t20.5 51z" />
    <glyph glyph-name="ntilde" unicode="&#xf1;" horiz-adv-x="488" 
d="M404 614q0 -6 -18 -34q-38 -55 -84 -55q-22 0 -69 29l-18 11q-16 10 -26 10q-20 0 -41 -31q-3 -6 -8 -6q-3 0 -14 9l-34 25q-4 3 -4 8q0 6 14 28q37 58 87 58q31 0 68 -26l17 -12q15 -11 28 -11q22 0 43 34q3 6 8 6q3 0 11 -6l36 -29q4 -3 4 -8zM430 10q0 -10 -10 -10
h-95q-10 0 -10 10v272q0 30 -20.5 50.5t-50.5 20.5t-51 -20.5t-21 -50.5v-272q0 -10 -10 -10h-94q-10 0 -10 10v438q0 10 10 10h85q10 0 10 -9q0 -11 8 -11q1 0 7 2q34 18 66 18q84 0 135 -48.5t51 -127.5v-272z" />
    <glyph glyph-name="ograve" unicode="&#xf2;" horiz-adv-x="459" 
d="M304 521q0 -8 -10 -8h-68q-7 0 -16 7l-142 140q-7 7 -7 12q0 8 11 8h122q9 0 14 -8l90 -138q6 -10 6 -13zM416 167q0 -79 -51 -128t-135 -49q-85 0 -136 49t-51 128v124q0 79 51 128t136 49q84 0 135 -49t51 -128v-124zM301 167v124q0 30 -20.5 51t-50.5 21t-51 -21
t-21 -51v-124q0 -30 21 -51t51 -21t50.5 21t20.5 51z" />
    <glyph glyph-name="oacute" unicode="&#xf3;" horiz-adv-x="459" 
d="M403 672q0 -5 -7 -12l-142 -140q-9 -7 -16 -7h-68q-10 0 -10 8q0 3 6 13l90 138q5 8 14 8h122q11 0 11 -8zM416 167q0 -79 -51 -128t-135 -49q-85 0 -136 49t-51 128v124q0 79 51 128t136 49q84 0 135 -49t51 -128v-124zM301 167v124q0 30 -20.5 51t-50.5 21t-51 -21
t-21 -51v-124q0 -30 21 -51t51 -21t50.5 21t20.5 51z" />
    <glyph glyph-name="ocircumflex" unicode="&#xf4;" horiz-adv-x="459" 
d="M373 521q0 -8 -11 -8h-81q-5 0 -8 5l-33 51q-3 6 -8 6q-4 0 -7 -6l-32 -51q-3 -5 -8 -5h-81q-11 0 -11 8q0 3 3 8l104 147q4 4 8 4h49q4 0 8 -4l105 -147q3 -5 3 -8zM416 167q0 -79 -51 -128t-135 -49q-85 0 -136 49t-51 128v124q0 79 51 128t136 49q84 0 135 -49
t51 -128v-124zM301 167v124q0 30 -20.5 51t-50.5 21t-51 -21t-21 -51v-124q0 -30 21 -51t51 -21t50.5 21t20.5 51z" />
    <glyph glyph-name="otilde" unicode="&#xf5;" horiz-adv-x="459" 
d="M385 614q0 -6 -18 -34q-38 -55 -84 -55q-22 0 -69 29l-18 11q-16 10 -26 10q-20 0 -41 -31q-3 -6 -8 -6q-3 0 -14 9l-34 25q-4 3 -4 8q0 6 14 28q37 58 87 58q31 0 68 -26l17 -12q15 -11 28 -11q22 0 43 34q3 6 8 6q3 0 11 -6l36 -29q4 -3 4 -8zM416 167q0 -79 -51 -128
t-135 -49q-85 0 -136 49t-51 128v124q0 79 51 128t136 49q84 0 135 -49t51 -128v-124zM301 167v124q0 30 -20.5 51t-50.5 21t-51 -21t-21 -51v-124q0 -30 21 -51t51 -21t50.5 21t20.5 51z" />
    <glyph glyph-name="odieresis" unicode="&#xf6;" horiz-adv-x="459" 
d="M379 594q0 -26 -18 -44t-44 -18t-44 18t-18 44t18 44t44 18t44 -18t18 -44zM210 594q0 -26 -18 -44t-44 -18t-44 18t-18 44t18 44t44 18t44 -18t18 -44zM416 167q0 -79 -51 -128t-135 -49q-85 0 -136 49t-51 128v124q0 79 51 128t136 49q84 0 135 -49t51 -128v-124z
M301 167v124q0 30 -20.5 51t-50.5 21t-51 -21t-21 -51v-124q0 -30 21 -51t51 -21t50.5 21t20.5 51z" />
    <glyph glyph-name="divide" unicode="&#xf7;" 
d="M321 402q0 -27 -20 -47t-47 -20t-47.5 20t-20.5 47t20 47t47 20t47.5 -20t20.5 -47zM468 210q0 -10 -10 -10h-409q-10 0 -10 10v66q0 10 10 10h409q10 0 10 -10v-66zM321 83q0 -27 -20 -47t-47 -20t-47.5 20t-20.5 47t20 47t47 20t47 -20t20 -47h1z" />
    <glyph glyph-name="oslash" unicode="&#xf8;" horiz-adv-x="459" 
d="M416 167q0 -79 -51 -128t-135 -49q-85 0 -136 49t-51 128v124q0 79 51 128t136 49q84 0 135 -49t51 -128v-124zM239 354q0 9 -9 9q-30 0 -51 -21t-21 -51v-97q0 -8 4 -8q3 0 6 6l69 154q2 6 2 8zM301 167v120q0 9 -6 9q-4 0 -7 -7l-78 -174q-2 -3 -2 -9q0 -8 9 -10
q4 -1 13 -1q30 0 50.5 21t20.5 51z" />
    <glyph glyph-name="ugrave" unicode="&#xf9;" horiz-adv-x="478" 
d="M305 521q0 -8 -10 -8h-68q-7 0 -16 7l-142 140q-7 7 -7 12q0 8 11 8h122q9 0 14 -8l90 -138q6 -10 6 -13zM420 10q0 -10 -10 -10h-85q-10 0 -10 9q0 11 -8 11q-1 0 -7 -2q-34 -18 -66 -18q-84 0 -135 49t-51 128v271q0 10 10 10h95q10 0 10 -10v-271q0 -31 20.5 -51.5
t50.5 -20.5t51 21t21 51v271q0 10 10 10h94q10 0 10 -10v-438z" />
    <glyph glyph-name="uacute" unicode="&#xfa;" horiz-adv-x="478" 
d="M404 672q0 -5 -7 -12l-142 -140q-9 -7 -16 -7h-68q-10 0 -10 8q0 3 6 13l90 138q5 8 14 8h122q11 0 11 -8zM420 10q0 -10 -10 -10h-85q-10 0 -10 9q0 11 -8 11q-1 0 -7 -2q-34 -18 -66 -18q-84 0 -135 49t-51 128v271q0 10 10 10h95q10 0 10 -10v-271q0 -31 20.5 -51.5
t50.5 -20.5t51 21t21 51v271q0 10 10 10h94q10 0 10 -10v-438z" />
    <glyph glyph-name="ucircumflex" unicode="&#xfb;" horiz-adv-x="478" 
d="M374 521q0 -8 -11 -8h-81q-5 0 -8 5l-33 51q-3 6 -8 6q-4 0 -7 -6l-32 -51q-3 -5 -8 -5h-81q-11 0 -11 8q0 3 3 8l104 147q4 4 8 4h49q4 0 8 -4l105 -147q3 -5 3 -8zM420 10q0 -10 -10 -10h-85q-10 0 -10 9q0 11 -8 11q-1 0 -7 -2q-34 -18 -66 -18q-84 0 -135 49t-51 128
v271q0 10 10 10h95q10 0 10 -10v-271q0 -31 20.5 -51.5t50.5 -20.5t51 21t21 51v271q0 10 10 10h94q10 0 10 -10v-438z" />
    <glyph glyph-name="udieresis" unicode="&#xfc;" horiz-adv-x="478" 
d="M380 594q0 -26 -18 -44t-44 -18t-44 18t-18 44t18 44t44 18t44 -18t18 -44zM211 594q0 -26 -18 -44t-44 -18t-44 18t-18 44t18 44t44 18t44 -18t18 -44zM420 10q0 -10 -10 -10h-85q-10 0 -10 9q0 11 -8 11q-1 0 -7 -2q-34 -18 -66 -18q-84 0 -135 49t-51 128v271
q0 10 10 10h95q10 0 10 -10v-271q0 -31 20.5 -51.5t50.5 -20.5t51 21t21 51v271q0 10 10 10h94q10 0 10 -10v-438z" />
    <glyph glyph-name="yacute" unicode="&#xfd;" horiz-adv-x="478" 
d="M404 672q0 -5 -7 -12l-142 -140q-9 -7 -16 -7h-68q-10 0 -10 8q0 3 6 13l90 138q5 8 14 8h122q11 0 11 -8zM420 -49q0 -83 -48.5 -134.5t-137.5 -51.5q-102 0 -153 73q-23 32 -23 44q0 5 6 8l80 40q7 4 11 4q5 0 8 -6q23 -58 71 -58q29 0 50.5 21.5t21.5 50.5v62
q0 11 -7 11q-3 0 -7 -2q-27 -13 -58 -13q-84 0 -135 49t-51 128v271q0 10 10 10h95q10 0 10 -10v-271q0 -31 20.5 -51.5t50.5 -20.5t51 21t21 51v271q0 10 10 10h94q10 0 10 -10v-497z" />
    <glyph glyph-name="thorn" unicode="&#xfe;" horiz-adv-x="473" 
d="M430 177q0 -77 -51 -127t-126 -50q-32 0 -66 18q-6 2 -7 2q-8 0 -8 -11v-224q0 -10 -10 -10h-94q-10 0 -10 10v835q0 10 10 10h85q10 0 10 -9v-172q0 -11 8 -11q1 0 7 2q34 18 66 18q84 0 135 -48.5t51 -127.5v-105zM315 177v105q0 30 -20.5 50.5t-50.5 20.5t-51 -20.5
t-21 -50.5v-105q0 -30 21 -51t51 -21t50.5 20.5t20.5 51.5z" />
    <glyph glyph-name="ydieresis" unicode="&#xff;" horiz-adv-x="478" 
d="M380 594q0 -26 -18 -44t-44 -18t-44 18t-18 44t18 44t44 18t44 -18t18 -44zM211 594q0 -26 -18 -44t-44 -18t-44 18t-18 44t18 44t44 18t44 -18t18 -44zM420 -49q0 -83 -48.5 -134.5t-137.5 -51.5q-102 0 -153 73q-23 32 -23 44q0 5 6 8l80 40q7 4 11 4q5 0 8 -6
q23 -58 71 -58q29 0 50.5 21.5t21.5 50.5v62q0 11 -7 11q-3 0 -7 -2q-27 -13 -58 -13q-84 0 -135 49t-51 128v271q0 10 10 10h95q10 0 10 -10v-271q0 -31 20.5 -51.5t50.5 -20.5t51 21t21 51v271q0 10 10 10h94q10 0 10 -10v-497z" />
    <glyph glyph-name="dotlessi" unicode="&#x131;" horiz-adv-x="230" 
d="M172 10q0 -10 -10 -10h-94q-10 0 -10 10v438q0 10 10 10h94q10 0 10 -10v-438z" />
    <glyph glyph-name="Lslash" unicode="&#x141;" horiz-adv-x="454" 
d="M440 10q0 -10 -10 -10h-353q-10 0 -10 10v186q0 10 -5 10q-2 0 -6 -4l-6 -6q-4 -4 -8 -4t-7 3l-50 46q-4 3 -4 7q0 3 4 7l71 70q11 11 11 25v270q0 10 10 10h95q10 0 10 -10v-157q0 -7 4 -7q2 0 5 3l6 6q4 4 7 4t7 -4l49 -46q4 -3 4 -7q0 -3 -4 -7l-69 -69q-9 -9 -9 -21
v-200q0 -10 10 -10h238q10 0 10 -10v-85z" />
    <glyph glyph-name="lslash" unicode="&#x142;" horiz-adv-x="230" 
d="M254 412q0 -3 -4 -7l-69 -69q-9 -9 -9 -21v-305q0 -10 -10 -10h-94q-10 0 -10 10v186q0 10 -5 10q-2 0 -6 -4l-6 -6q-4 -4 -8 -4t-7 3l-50 46q-4 3 -4 7q0 3 4 7l71 70q11 11 11 25v270q0 10 10 10h94q10 0 10 -10v-157q0 -7 4 -7q2 0 5 3l6 6q4 4 7 4t7 -4l49 -46
q4 -3 4 -7z" />
    <glyph glyph-name="OE" unicode="&#x152;" horiz-adv-x="750" 
d="M712 10q0 -10 -10 -10h-372q-30 -10 -62 -10h-29q-85 0 -135.5 49t-50.5 128v296q0 79 50.5 128t135.5 49h29q34 0 64 -10h370q10 0 10 -10v-85q0 -10 -10 -10h-244q-11 0 -11 -8q0 -2 1.5 -8t3.5 -18t2 -28v-81q0 -10 10 -10h195q10 0 10 -10v-85q0 -10 -10 -10h-195
q-10 0 -10 -10v-90q0 -15 -2 -27t-3.5 -18.5t-1.5 -8.5q0 -8 11 -8h244q10 0 10 -10v-85zM339 167v296q0 30 -20.5 51t-50.5 21h-29q-29 0 -50.5 -21.5t-21.5 -50.5v-296q0 -29 21.5 -50.5t50.5 -21.5h29q30 0 50.5 21t20.5 51z" />
    <glyph glyph-name="oe" unicode="&#x153;" horiz-adv-x="716" 
d="M673 210q0 -10 -10 -10h-238q-10 0 -10 -10v-23q0 -30 21 -51t51 -21q46 0 71 59q3 6 8 6q3 0 17 -7l75 -37q6 -3 6 -8q0 -6 -15 -30q-53 -88 -162 -88q-69 0 -115 32q-11 8 -14 8t-14 -8q-46 -32 -114 -32q-85 0 -136 49t-51 128v124q0 79 51 128t136 49q71 0 120 -37
q9 -7 12 -7q2 0 13 7q52 37 112 37q81 0 133.5 -55t52.5 -122v-81zM557 305q0 15 -18.5 36.5t-51.5 21.5q-32 0 -51.5 -21.5t-19.5 -36.5q0 -9 11 -9h119q11 0 11 9zM301 167v124q0 30 -20.5 51t-50.5 21t-51 -21t-21 -51v-124q0 -30 21 -51t51 -21t50.5 21t20.5 51z" />
    <glyph glyph-name="Scaron" unicode="&#x160;" horiz-adv-x="472" 
d="M360 818l-92 -127q-4 -6 -12 -6h-35q-8 0 -12 6l-92 127q-4 5 -2 9t8 4h66q8 0 14 -9l30 -50q6 -9 11 0l30 50q6 9 14 9h66q6 0 8 -4t-2 -9zM437 167q0 -79 -50.5 -128t-135.5 -49h-40q-106 0 -158 81q-19 32 -19 37q0 4 6 7l80 41q10 5 12 5q5 0 8 -7q25 -59 71 -59h40
q29 0 50.5 21.5t21.5 50.5q0 34 -24 53.5t-71 40.5q-8 3 -12 5q-33 16 -49 24.5t-42.5 27t-40 36.5t-24 46.5t-10.5 62.5q0 79 50.5 128t135.5 49h16q106 0 158 -81q19 -32 19 -37q0 -4 -6 -7l-80 -41q-10 -5 -12 -5q-5 0 -8 7q-25 59 -71 59h-16q-29 0 -50.5 -21.5
t-21.5 -50.5q0 -15 5.5 -26t20 -21.5t23.5 -15.5t34 -15.5t33 -14.5q34 -16 57.5 -30.5t48.5 -38t38 -57.5t13 -77z" />
    <glyph glyph-name="scaron" unicode="&#x161;" horiz-adv-x="451" 
d="M361 672q0 -4 -10 -18l-98 -137q-4 -4 -8 -4h-49q-4 0 -8 4l-97 137q-10 15 -10 18q0 8 11 8h81q5 0 8 -5l32 -51q3 -6 7 -6q5 0 8 6l33 51q3 5 8 5h81q11 0 11 -8zM408 352q0 -5 -6 -8l-76 -37q-8 -4 -11 -4q-5 0 -8 6q-23 57 -73 57h-29q-55 0 -55 -38q0 -11 5.5 -18.5
t18 -11.5t23.5 -6.5t30.5 -5.5t31.5 -6q68 -14 107.5 -42t39.5 -89q0 -67 -45.5 -113t-126.5 -46h-29q-105 0 -155 79q-18 29 -18 38q0 5 6 8l72 35q12 6 15 6q5 0 8 -7q23 -57 72 -57h29q27 0 42.5 12.5t15.5 30.5q0 11 -5.5 18t-18 11.5t-23.5 6.5t-31 5t-32 5
q-67 13 -106 41t-39 91q0 71 49 113t119 42h29q104 0 153 -74q21 -32 21 -42z" />
    <glyph glyph-name="Ydieresis" unicode="&#x178;" horiz-adv-x="450" 
d="M358 755q0 -23 -16 -39t-39 -16t-39.5 16t-16.5 39t16.5 39t39.5 16t39 -16t16 -39zM199 755q0 -23 -16 -39t-39 -16t-39.5 16t-16.5 39t16.5 39t39.5 16t39 -16t16 -39zM459 622q0 -2 -7 -16l-163 -305q-7 -14 -7 -28v-263q0 -10 -10 -10h-95q-10 0 -10 10v264
q0 13 -7 27l-163 305q-7 12 -7 16q0 8 11 8h111q5 0 9 -6l95 -196q3 -8 9 -8t9 8l95 196q4 6 9 6h110q11 0 11 -8z" />
    <glyph glyph-name="Zcaron" unicode="&#x17d;" horiz-adv-x="456" 
d="M333 818l-92 -127q-5 -6 -12 -6h-35q-8 0 -12 6l-92 127q-4 5 -2 9t8 4h66q8 0 14 -9l30 -50q6 -9 11 0l30 50q6 9 14 9h66q6 0 8 -4t-2 -9zM409 622q0 -2 -7 -19l-213 -473q-6 -12 -6 -17q0 -8 10 -8h203q10 0 10 -10v-85q0 -10 -10 -10h-375q-10 0 -10 8q0 3 7 19
l211 471q7 14 7 19q0 8 -10 8h-182q-10 0 -10 10v85q0 10 10 10h355q10 0 10 -8z" />
    <glyph glyph-name="zcaron" unicode="&#x17e;" horiz-adv-x="430" 
d="M352 672q0 -4 -10 -18l-98 -137q-4 -4 -8 -4h-49q-4 0 -8 4l-97 137q-10 15 -10 18q0 8 11 8h81q5 0 8 -5l32 -51q3 -6 7 -6q5 0 8 6l33 51q3 5 8 5h81q11 0 11 -8zM405 449q0 -5 -12 -24l-175 -290q-11 -17 -11 -22q0 -8 11 -8h172q10 0 10 -10v-85q0 -10 -10 -10h-372
q-11 0 -11 8q0 3 11 22l174 290q12 19 12 24q0 8 -11 8h-154q-10 0 -10 10v85q0 10 10 10h355q11 0 11 -8z" />
    <glyph glyph-name="florin" unicode="&#x192;" 
d="M437 625q0 -5 -4 -15l-27 -74q-2 -8 -8 -8l-11 4q-11 3 -22 3q-31 0 -51.5 -20.5t-20.5 -51.5v-81q0 -10 10 -10h66q10 0 10 -10v-85q0 -10 -10 -10h-66q-10 0 -10 -10v-305q0 -77 -55 -132t-131 -55q-33 0 -63 7q-8 2 -8 8q0 5 4 15l27 74q2 8 8 8l11 -3q11 -4 22 -4
q31 0 51 20.5t20 51.5v315q0 10 -10 10h-23q-10 0 -10 10v85q0 10 10 10h23q10 0 10 10v71q0 77 55 132t131 55q34 0 64 -7q8 -2 8 -8z" />
    <glyph glyph-name="circumflex" unicode="&#x2c6;" horiz-adv-x="500" 
d="M391 521q0 -8 -11 -8h-81q-5 0 -8 5l-33 51q-3 6 -8 6q-4 0 -7 -6l-32 -51q-3 -5 -8 -5h-81q-11 0 -11 8q0 3 3 8l104 147q4 4 8 4h49q4 0 8 -4l105 -147q3 -5 3 -8z" />
    <glyph glyph-name="caron" unicode="&#x2c7;" horiz-adv-x="500" 
d="M390 672q0 -4 -10 -18l-98 -137q-4 -4 -8 -4h-49q-4 0 -8 4l-97 137q-10 15 -10 18q0 8 11 8h81q5 0 8 -5l32 -51q3 -6 7 -6q5 0 8 6l33 51q3 5 8 5h81q11 0 11 -8z" />
    <glyph glyph-name="uni02C9" unicode="&#x2c9;" horiz-adv-x="500" 
d="M376 555q0 -10 -10 -10h-228q-10 0 -10 10v85q0 10 10 10h228q10 0 10 -10v-85z" />
    <glyph glyph-name="breve" unicode="&#x2d8;" horiz-adv-x="500" 
d="M371 608q0 -42 -27.5 -68.5t-72.5 -26.5h-43q-45 0 -72.5 26.5t-27.5 68.5v62q0 10 10 10h51q10 0 10 -10v-43q0 -11 9 -19.5t20 -8.5h43q12 0 20 8t8 20v43q0 10 10 10h52q10 0 10 -10v-62z" />
    <glyph glyph-name="dotaccent" unicode="&#x2d9;" horiz-adv-x="500" 
d="M322 583q0 -30 -19.5 -48.5t-51.5 -18.5t-52 18.5t-20 48.5v28q0 30 20 48.5t52 18.5t51.5 -18.5t19.5 -48.5v-28z" />
    <glyph glyph-name="ring" unicode="&#x2da;" horiz-adv-x="500" 
d="M350 608q0 -42 -27.5 -68.5t-72.5 -26.5t-72.5 26.5t-27.5 68.5v29q0 42 27.5 68.5t72.5 26.5t72.5 -26.5t27.5 -68.5v-29zM279 608v29q0 11 -9 20t-20 9t-20 -9t-9 -20v-29q0 -11 9 -19.5t20 -8.5t20 8.5t9 19.5z" />
    <glyph glyph-name="ogonek" unicode="&#x2db;" horiz-adv-x="500" 
d="M361 -204q0 -10 -9 -10q-30 0 -66 17q-38 19 -60 52t-22 73v119q0 10 10 10h73q10 0 10 -10v-125q0 -43 55 -50q9 -2 9 -10v-66z" />
    <glyph glyph-name="tilde" unicode="&#x2dc;" horiz-adv-x="500" 
d="M407 614q0 -6 -18 -34q-38 -55 -84 -55q-22 0 -69 29l-18 11q-16 10 -26 10q-20 0 -41 -31q-3 -6 -8 -6q-3 0 -14 9l-34 25q-4 3 -4 8q0 6 14 28q37 58 87 58q31 0 68 -26l17 -12q15 -11 28 -11q22 0 43 34q3 6 8 6q3 0 11 -6l36 -29q4 -3 4 -8z" />
    <glyph glyph-name="hungarumlaut" unicode="&#x2dd;" horiz-adv-x="500" 
d="M440 672q0 -6 -9 -19l-86 -135q-3 -5 -9 -5h-40q-10 0 -10 8q0 5 8 26l43 126q2 7 9 7h83q11 0 11 -8zM314 672q0 -3 -9 -19l-78 -135q-3 -5 -9 -5h-48q-10 0 -10 8q0 5 8 26l43 126q2 7 9 7h83q11 0 11 -8z" />
    <glyph glyph-name="uni03A9" unicode="&#x3a9;" horiz-adv-x="714" 
d="M658 0h-246v94q124 119 124 280q0 106 -48 172t-135 66q-84 0 -136 -66.5t-52 -174.5q0 -165 125 -277v-94h-246v94h148q-150 119 -150 301q0 138 87.5 227.5t225.5 89.5q144 0 224 -87.5t80 -226.5q0 -187 -151 -304h150v-94z" />
    <glyph glyph-name="uni03BC" unicode="&#x3bc;" horiz-adv-x="478" 
d="M420 10q0 -10 -10 -10h-85q-10 0 -10 9q0 11 -8 11q-1 0 -7 -2q-34 -18 -66 -18q-31 0 -61 8q-10 3 -10 -8v-150q0 -10 -10 -10h-95q-10 0 -10 10v598q0 10 10 10h95q10 0 10 -10v-271q0 -31 20.5 -51.5t50.5 -20.5t51 21t21 51v271q0 10 10 10h94q10 0 10 -10v-438z" />
    <glyph glyph-name="pi" unicode="&#x3c0;" horiz-adv-x="659" 
d="M598 85l20 -74q-33 -20 -86 -20q-70 0 -103 42t-33 108v274h-124v-269q0 -92 -17 -146h-117q19 61 19 155v260q-53 0 -95 -23q-13 28 -32 74q58 34 156 34h427v-85h-101v-259q0 -80 53 -80q17 0 33 9z" />
    <glyph glyph-name="endash" unicode="&#x2013;" horiz-adv-x="555" 
d="M516 210q0 -10 -10 -10h-457q-10 0 -10 10v66q0 10 10 10h457q10 0 10 -10v-66z" />
    <glyph glyph-name="emdash" unicode="&#x2014;" horiz-adv-x="813" 
d="M774 210q0 -10 -10 -10h-715q-10 0 -10 10v66q0 10 10 10h715q10 0 10 -10v-66z" />
    <glyph glyph-name="quoteleft" unicode="&#x2018;" horiz-adv-x="189" 
d="M170 612q0 -5 -6 -8q-18 -8 -28.5 -24.5t-10.5 -32.5q0 -10 10 -10h8q10 0 10 -10v-91q0 -10 -10 -10h-99q-10 0 -10 10v69q0 103 62 149q29 21 38 21q5 0 8 -6l22 -43q6 -10 6 -14z" />
    <glyph glyph-name="quoteright" unicode="&#x2019;" horiz-adv-x="189" 
d="M155 551q0 -103 -62 -149q-29 -21 -38 -21q-5 0 -8 6l-22 43q-6 10 -6 14q0 5 6 8q18 8 28.5 24.5t10.5 32.5q0 10 -10 10h-8q-10 0 -10 10v91q0 10 10 10h99q10 0 10 -10v-69z" />
    <glyph glyph-name="quotesinglbase" unicode="&#x201a;" horiz-adv-x="189" 
d="M155 55q0 -103 -62 -149q-29 -21 -38 -21q-5 0 -8 6l-22 43q-6 10 -6 14q0 5 6 8q18 8 28.5 24.5t10.5 32.5q0 10 -10 10h-8q-10 0 -10 10v91q0 10 10 10h99q10 0 10 -10v-69z" />
    <glyph glyph-name="quotedblleft" unicode="&#x201c;" horiz-adv-x="346" 
d="M327 612q0 -5 -6 -8q-18 -8 -28.5 -24.5t-10.5 -32.5q0 -10 10 -10h8q10 0 10 -10v-91q0 -10 -10 -10h-99q-10 0 -10 10v69q0 103 62 149q29 21 38 21q5 0 8 -6l22 -43q6 -10 6 -14zM170 612q0 -5 -6 -8q-18 -8 -28.5 -24.5t-10.5 -32.5q0 -10 10 -10h8q10 0 10 -10v-91
q0 -10 -10 -10h-99q-10 0 -10 10v69q0 103 62 149q29 21 38 21q5 0 8 -6l22 -43q6 -10 6 -14z" />
    <glyph glyph-name="quotedblright" unicode="&#x201d;" horiz-adv-x="346" 
d="M312 551q0 -103 -62 -149q-29 -21 -38 -21q-5 0 -8 6l-22 43q-6 10 -6 14q0 5 6 8q18 8 28.5 24.5t10.5 32.5q0 10 -10 10h-8q-10 0 -10 10v91q0 10 10 10h99q10 0 10 -10v-69zM155 551q0 -103 -62 -149q-29 -21 -38 -21q-5 0 -8 6l-22 43q-6 10 -6 14q0 5 6 8
q18 8 28.5 24.5t10.5 32.5q0 10 -10 10h-8q-10 0 -10 10v91q0 10 10 10h99q10 0 10 -10v-69z" />
    <glyph glyph-name="quotedblbase" unicode="&#x201e;" horiz-adv-x="346" 
d="M312 55q0 -103 -62 -149q-29 -21 -38 -21q-5 0 -8 6l-22 43q-6 10 -6 14q0 5 6 8q18 8 28.5 24.5t10.5 32.5q0 10 -10 10h-8q-10 0 -10 10v91q0 10 10 10h99q10 0 10 -10v-69zM155 55q0 -103 -62 -149q-29 -21 -38 -21q-5 0 -8 6l-22 43q-6 10 -6 14q0 5 6 8
q18 8 28.5 24.5t10.5 32.5q0 10 -10 10h-8q-10 0 -10 10v91q0 10 10 10h99q10 0 10 -10v-69z" />
    <glyph glyph-name="dagger" unicode="&#x2020;" horiz-adv-x="401" 
d="M401 377q0 -10 -9 -10q-3 0 -71 6.5t-71 6.5q-9 0 -9 -8q0 -2 8 -56l-19 -531q0 -10 -10 -10h-38q-10 0 -10 10l-19 531q8 50 8 56q0 8 -9 8q-3 0 -71 -6.5t-72 -6.5q-9 0 -9 10v84q0 10 10 10q2 0 72 -6t73 -6q9 0 9 9q0 4 -6 77t-6 75q0 10 10 10h78q10 0 10 -10
q0 -2 -6 -75.5t-6 -76.5q0 -9 9 -9q3 0 72.5 6t71.5 6q10 0 10 -10v-84z" />
    <glyph glyph-name="daggerdbl" unicode="&#x2021;" horiz-adv-x="401" 
d="M401 170q0 -10 -10 -10q-2 0 -69.5 6t-69.5 6q-10 0 -10 -10l-12 -377q0 -10 -10 -10h-38q-10 0 -10 10l-12 377q0 10 -10 10q-2 0 -69.5 -6t-70.5 -6q-10 0 -10 10v84q0 10 9 10q4 0 70 -6t68 -6q9 0 9 10q0 1 -3 55q8 50 8 55q0 8 -9 8q-3 0 -71 -6.5t-72 -6.5
q-9 0 -9 10v84q0 10 10 10q2 0 71.5 -6t73.5 -6q9 0 9 9q0 4 -6 76.5t-6 75.5q0 10 10 10h78q10 0 10 -10q0 -4 -6 -76t-6 -76q0 -9 9 -9q3 0 72 6t72 6q10 0 10 -10v-84q0 -10 -9 -10q-4 0 -72 6.5t-70 6.5q-9 0 -9 -8q0 -6 8 -54q-3 -55 -3 -56q0 -10 9 -10q4 0 69 6t68 6
q9 0 9 -10v-84z" />
    <glyph glyph-name="bullet" unicode="&#x2022;" horiz-adv-x="500" 
d="M409 305q0 -66 -43 -107t-114 -41h-4q-71 0 -114 41t-43 107v20q0 66 43 106.5t114 40.5h4q71 0 114 -40.5t43 -106.5v-20z" />
    <glyph glyph-name="ellipsis" unicode="&#x2026;" horiz-adv-x="1000" 
d="M864 57q0 -27 -20 -47t-47 -20t-47 20t-20 47t20 47t47 20t47 -20t20 -47zM566 57q0 -27 -20 -47t-47 -20t-47 20t-20 47t20 47t47 20t47 -20t20 -47zM268 57q0 -27 -20 -47t-47 -20t-47 20t-20 47t20 47t47 20t47 -20t20 -47z" />
    <glyph glyph-name="perthousand" unicode="&#x2030;" horiz-adv-x="788" 
d="M743 95q0 -42 -27.5 -68.5t-72.5 -26.5t-72.5 26.5t-27.5 68.5v96q0 42 27.5 68.5t72.5 26.5t72.5 -26.5t27.5 -68.5v-96zM247 439q0 -42 -27.5 -68.5t-73.5 -26.5q-45 0 -72.5 26.5t-27.5 68.5v93q0 43 27.5 70.5t72.5 27.5q46 0 73.5 -26.5t27.5 -68.5v-96zM441 622
q0 -2 -13 -34l-249 -582q-3 -6 -9 -6h-53q-10 0 -10 8q0 5 13 34l249 582q3 6 9 6h53q10 0 10 -8zM501 95q0 -42 -27.5 -68.5t-72.5 -26.5t-72.5 26.5t-27.5 68.5v96q0 42 27.5 68.5t72.5 26.5t72.5 -26.5t27.5 -68.5v-96zM662 95v96q0 19 -19 19t-19 -19v-96q0 -19 19 -19
t19 19zM166 439v96q0 7 -6 13t-14 6q-19 0 -19 -19v-96q0 -19 19 -19q8 0 14 6t6 13zM420 95v96q0 19 -19 19t-19 -19v-96q0 -19 19 -19t19 19z" />
    <glyph glyph-name="guilsinglleft" unicode="&#x2039;" horiz-adv-x="343" 
d="M284 92q0 -11 -8 -11q-4 0 -8 3l-216 153q-4 4 -4 8v71q0 4 4 8l216 154q4 3 8 3q8 0 8 -11v-89q0 -4 -4 -8l-118 -84q-5 -3 -5 -8q0 -3 5 -8l118 -85q4 -4 4 -8v-88z" />
    <glyph glyph-name="guilsinglright" unicode="&#x203a;" horiz-adv-x="343" 
d="M295 245q0 -4 -4 -8l-216 -153q-5 -3 -8 -3q-8 0 -8 11v88q0 4 4 8l117 85q5 5 5 8t-5 8l-117 84q-4 4 -4 8v89q0 11 8 11q3 0 8 -3l216 -154q4 -4 4 -8v-71z" />
    <glyph glyph-name="fraction" unicode="&#x2044;" horiz-adv-x="193" 
d="M270 622q0 -6 -5 -16l-257 -600q-3 -6 -9 -6h-54q-10 0 -10 8q0 2 6 18l256 598q3 6 9 6h54q10 0 10 -8z" />
    <glyph glyph-name="Euro" unicode="&#x20ac;" 
d="M489 105q-18 -37 -39 -61q-49 -54 -137 -54h-49q-85 0 -135.5 49t-50.5 128v10q0 10 -10 10h-58q-10 0 -10 10v76q0 10 10 10h58q10 0 10 10v46q0 10 -10 10h-58q-10 0 -10 10v76q0 10 10 10h58q10 0 10 10v8q0 79 50.5 128t135.5 49h49q83 0 130 -47q22 -21 46 -65
q5 -9 -5 -14l-87 -43q-8 -4 -13 5q-25 59 -71 59h-49q-29 0 -50.5 -21.5t-21.5 -50.5v-8q0 -10 10 -10h117q10 0 10 -10v-76q0 -10 -10 -10h-117q-10 0 -10 -10v-46q0 -10 10 -10h117q10 0 10 -10v-76q0 -10 -10 -10h-117q-10 0 -10 -10v-10q0 -29 21.5 -50.5t50.5 -21.5h49
q46 0 71 61q5 9 13 5l87 -43q9 -5 5 -13z" />
    <glyph glyph-name="litre" unicode="&#x2113;" horiz-adv-x="496" 
d="M411 47q-64 -62 -137 -62q-59 0 -95 36q-41 41 -41 129v82l-54 -57q-24 34 -36 52q30 30 90 92v214q0 95 38.5 145t103.5 50q57 0 84 -35.5t27 -81.5q0 -68 -30 -129t-86 -130q-6 -6 -18 -20.5t-15 -17.5v-154q0 -94 60 -94q36 0 77 43q6 -12 17 -33t15 -29zM324 597
q0 50 -34 50q-48 0 -48 -98v-142q12 12 17 22q65 88 65 168z" />
    <glyph glyph-name="trademark" unicode="&#x2122;" horiz-adv-x="428" 
d="M378 370q0 -10 -10 -10h-12q-10 0 -10 10v72q0 12 -9 12q-5 0 -10 -7l-25 -41q-3 -5 -9 -5h-4q-5 0 -8 5l-27 41q-5 7 -10 7q-8 0 -8 -12v-72q0 -10 -10 -10h-12q-10 0 -10 10v168q0 10 10 10h12q6 0 9 -5l47 -81q5 -7 9 -7t9 7l47 81q3 5 9 5h12q10 0 10 -10v-168z
M166 527q0 -10 -10 -10h-27q-10 0 -10 -10v-137q0 -10 -10 -10h-12q-10 0 -10 10v137q0 10 -10 10h-27q-10 0 -10 10v11q0 10 10 10h106q10 0 10 -10v-11z" />
    <glyph glyph-name="Omega" unicode="&#x2126;" horiz-adv-x="714" 
d="M658 0h-246v94q124 119 124 280q0 106 -48 172t-135 66q-84 0 -136 -66.5t-52 -174.5q0 -165 125 -277v-94h-246v94h148q-150 119 -150 301q0 138 87.5 227.5t225.5 89.5q144 0 224 -87.5t80 -226.5q0 -187 -151 -304h150v-94z" />
    <glyph glyph-name="estimated" unicode="&#x212e;" horiz-adv-x="663" 
d="M604 286h-442v-197q67 -64 157 -64q134 0 211 131q31 -19 36 -22q-48 -72 -105.5 -109t-141.5 -37q-126 0 -202.5 86t-76.5 213q0 128 76 213t204 85q129 0 204.5 -84.5t79.5 -214.5zM478 324v159q-66 66 -159 66q-94 0 -157 -65v-160h316z" />
    <glyph glyph-name="partialdiff" unicode="&#x2202;" horiz-adv-x="580" 
d="M545 470q0 -94 -24 -189q-33 -126 -105.5 -209t-176.5 -83q-88 0 -142.5 55t-54.5 142q0 141 79 224.5t180 83.5q44 0 78 -18.5t49 -44.5h2q4 38 4 60q0 74 -34 113.5t-95 39.5q-51 0 -95 -27q-5 14 -25 77q55 36 136 36q103 0 163.5 -68t60.5 -192zM417 341
q-24 73 -98 73q-64 0 -113 -68.5t-49 -165.5q0 -47 22.5 -75t60.5 -28q63 0 110 75t67 189z" />
    <glyph glyph-name="Delta" unicode="&#x2206;" horiz-adv-x="613" 
d="M622 0h-598v51q40 117 115 335t108 314h156q73 -217 219 -649v-51zM485 94q-86 262 -148 448q-4 14 -15 61h-4q-13 -53 -15 -59q-24 -75 -73.5 -225t-74.5 -225h330z" />
    <glyph glyph-name="product" unicode="&#x220f;" horiz-adv-x="723" 
d="M646 -230h-117v830h-335v-830h-116v930h568v-930z" />
    <glyph glyph-name="summation" unicode="&#x2211;" horiz-adv-x="635" 
d="M582 -230h-559v59q50 68 149 204.5t149 205.5l-279 396v65h519v-94h-376q19 -28 112.5 -160.5t143.5 -203.5l-273 -378h414v-94z" />
    <glyph glyph-name="minus" unicode="&#x2212;" 
d="M468 210q0 -10 -10 -10h-409q-10 0 -10 10v66q0 10 10 10h409q10 0 10 -10v-66z" />
    <glyph glyph-name="uni2215" unicode="&#x2215;" horiz-adv-x="193" 
d="M270 622q0 -6 -5 -16l-257 -600q-3 -6 -9 -6h-54q-10 0 -10 8q0 2 6 18l256 598q3 6 9 6h54q10 0 10 -8z" />
    <glyph glyph-name="uni2219" unicode="&#x2219;" 
d="M321 243q0 -27 -20 -47t-47 -20t-47.5 20t-20.5 47t20 47t47 20t47.5 -20t20.5 -47z" />
    <glyph glyph-name="radical" unicode="&#x221a;" horiz-adv-x="519" 
d="M524 729q-61 -247 -181 -741h-93q-22 53 -64.5 158.5t-63.5 157.5q-9 -6 -27 -17.5t-27 -17.5q-6 10 -18 29.5t-18 29.5q23 15 70 45.5t70 45.5l123 -309q112 463 151 619h78z" />
    <glyph glyph-name="infinity" unicode="&#x221e;" horiz-adv-x="789" 
d="M742 294q0 -76 -48 -126t-123 -50q-55 0 -102 28.5t-79 77.5h-2q-74 -106 -178 -106q-73 0 -123 47t-50 126q0 78 50 125.5t122 47.5q108 0 179 -106h2q28 43 74 74.5t104 31.5q75 0 124.5 -48t49.5 -122zM653 293q0 40 -24 66t-68 26q-69 0 -129 -93q54 -95 129 -95
q44 0 68 28t24 68zM346 292q-58 93 -130 93q-42 0 -66 -27t-24 -67t25.5 -67t65.5 -27q71 0 129 95z" />
    <glyph glyph-name="integral" unicode="&#x222b;" horiz-adv-x="493" 
d="M412 653q-23 9 -43 9q-73 0 -73 -91v-613q0 -88 -43.5 -139t-127.5 -51q-53 0 -81 14q3 14 9.5 41t10.5 41q24 -8 44 -8q73 0 73 90v613q0 88 43.5 139.5t129.5 51.5q52 0 82 -15q-8 -28 -24 -82z" />
    <glyph glyph-name="approxequal" unicode="&#x2248;" horiz-adv-x="557" 
d="M506 421q-55 -86 -131 -86q-56 0 -103 31q-49 31 -85 31q-43 0 -79 -65l-56 65q57 86 132 86q53 0 101 -31q53 -31 86 -31q44 0 79 64zM506 196q-55 -86 -131 -86q-56 0 -103 31q-49 31 -85 31q-43 0 -79 -65l-56 65q57 86 132 86q53 0 101 -31q53 -31 86 -31q44 0 79 64
z" />
    <glyph glyph-name="notequal" unicode="&#x2260;" horiz-adv-x="557" 
d="M481 141h-223l-50 -114h-93l50 114h-88v86h125l61 140h-186v86h223l54 125h93l-55 -125h89v-86h-126l-61 -140h187v-86z" />
    <glyph glyph-name="lessequal" unicode="&#x2264;" horiz-adv-x="557" 
d="M481 0h-404v86h404v-86zM481 139l-404 182v73l404 182v-91l-294 -127v-2l294 -127v-90z" />
    <glyph glyph-name="greaterequal" unicode="&#x2265;" horiz-adv-x="557" 
d="M481 0h-404v86h404v-86zM481 321l-404 -182v91l294 127v2l-294 127v90l404 -181v-74z" />
    <glyph glyph-name="lozenge" unicode="&#x25ca;" horiz-adv-x="564" 
d="M498 350q-107 -184 -202 -350h-55q-34 58 -100.5 174.5t-100.5 174.5l201 351h55q95 -166 202 -350zM411 350q-24 42 -71.5 124.5t-70.5 124.5q-24 -41 -71 -124t-71 -125q94 -166 142 -249q23 41 70.5 124.5t71.5 124.5z" />
    <glyph glyph-name="A.sc" unicode="&#xe000;" horiz-adv-x="444" 
d="M429 10q5 -10 -7 -10h-103q-5 0 -7 6l-24 72q-2 5 -10 5h-113q-8 0 -9 -5l-25 -72q-1 -6 -8 -6h-101q-11 0 -8 10l164 486q2 5 8 5h73q5 0 7 -5zM263 172l-25 99q-4 16 -7.5 36t-5 32t-1.5 13h-2q0 -27 -15 -81l-27 -99q-2 -8 8 -8h67q10 0 8 8z" />
    <glyph glyph-name="AE.sc" unicode="&#xe001;" horiz-adv-x="628" 
d="M580 8q0 -8 -8 -8h-311q-8 0 -8 8v89q0 9 -9 9h-95q-8 0 -12 -7l-57 -93q-3 -6 -12 -6h-101q-15 0 -8 12l309 484q3 5 13 5h291q8 0 8 -8v-82q0 -7 -8 -7h-197q-10 0 -10 -9v-84q0 -8 10 -8h161q8 0 8 -7v-83q0 -8 -8 -8h-161q-10 0 -10 -8v-91q0 -8 10 -8h197q8 0 8 -8
v-82zM257 337h-2l-3 -8q-3 -8 -7 -18.5t-7 -16.5l-47 -93q-7 -10 5 -10h50q7 0 7 8v51q0 14 1 34.5t2 36t1 16.5z" />
    <glyph glyph-name="Aacute.sc" unicode="&#xe002;" horiz-adv-x="444" 
d="M412 716q0 -5 -7 -12l-142 -140q-9 -7 -16 -7h-68q-10 0 -10 8q0 3 6 13l90 138q5 8 14 8h122q11 0 11 -8zM429 10q5 -10 -7 -10h-103q-5 0 -7 6l-24 72q-2 5 -10 5h-113q-8 0 -9 -5l-25 -72q-1 -6 -8 -6h-101q-11 0 -8 10l164 486q2 5 8 5h73q5 0 7 -5zM263 172l-25 99
q-4 16 -7.5 36t-5 32t-1.5 13h-2q0 -27 -15 -81l-27 -99q-2 -8 8 -8h67q10 0 8 8z" />
    <glyph glyph-name="Acircumflex.sc" unicode="&#xe003;" horiz-adv-x="444" 
d="M363 565q0 -8 -11 -8h-81q-5 0 -8 5l-33 51q-3 6 -8 6q-4 0 -7 -6l-32 -51q-3 -5 -8 -5h-81q-11 0 -11 8q0 3 3 8l104 147q4 4 8 4h49q4 0 8 -4l105 -147q3 -5 3 -8zM429 10q5 -10 -7 -10h-103q-5 0 -7 6l-24 72q-2 5 -10 5h-113q-8 0 -9 -5l-25 -72q-1 -6 -8 -6h-101
q-11 0 -8 10l164 486q2 5 8 5h73q5 0 7 -5zM263 172l-25 99q-4 16 -7.5 36t-5 32t-1.5 13h-2q0 -27 -15 -81l-27 -99q-2 -8 8 -8h67q10 0 8 8z" />
    <glyph glyph-name="Adieresis.sc" unicode="&#xe004;" horiz-adv-x="444" 
d="M370 641q0 -26 -18 -44t-44 -18t-44 18t-18 44t18 44t44 18t44 -18t18 -44zM201 641q0 -26 -18 -44t-44 -18t-44 18t-18 44t18 44t44 18t44 -18t18 -44zM429 10q5 -10 -7 -10h-103q-5 0 -7 6l-24 72q-2 5 -10 5h-113q-8 0 -9 -5l-25 -72q-1 -6 -8 -6h-101q-11 0 -8 10
l164 486q2 5 8 5h73q5 0 7 -5zM263 172l-25 99q-4 16 -7.5 36t-5 32t-1.5 13h-2q0 -27 -15 -81l-27 -99q-2 -8 8 -8h67q10 0 8 8z" />
    <glyph glyph-name="Agrave.sc" unicode="&#xe005;" horiz-adv-x="444" 
d="M278 565q0 -8 -10 -8h-68q-7 0 -16 7l-142 140q-7 7 -7 12q0 8 11 8h122q9 0 14 -8l90 -138q6 -10 6 -13zM429 10q5 -10 -7 -10h-103q-5 0 -7 6l-24 72q-2 5 -10 5h-113q-8 0 -9 -5l-25 -72q-1 -6 -8 -6h-101q-11 0 -8 10l164 486q2 5 8 5h73q5 0 7 -5zM263 172l-25 99
q-4 16 -7.5 36t-5 32t-1.5 13h-2q0 -27 -15 -81l-27 -99q-2 -8 8 -8h67q10 0 8 8z" />
    <glyph glyph-name="Aring.sc" unicode="&#xe006;" horiz-adv-x="444" 
d="M429 10q5 -10 -7 -10h-103q-5 0 -7 6l-24 72q-2 5 -10 5h-113q-8 0 -9 -5l-25 -72q-1 -6 -8 -6h-101q-11 0 -8 10l155 459q-47 25 -47 83v29q0 42 27.5 68.5t72.5 26.5t72.5 -26.5t27.5 -68.5v-29q0 -58 -47 -83zM251 552v29q0 11 -9 20t-20 9t-20 -9t-9 -20v-29
q0 -11 9 -19.5t20 -8.5t20 8.5t9 19.5zM263 172l-25 99q-4 16 -7.5 36t-5 32t-1.5 13h-2q0 -27 -15 -81l-27 -99q-2 -8 8 -8h67q10 0 8 8z" />
    <glyph glyph-name="Atilde.sc" unicode="&#xe007;" horiz-adv-x="444" 
d="M378 657q0 -6 -18 -34q-38 -55 -84 -55q-22 0 -69 29l-18 11q-16 10 -26 10q-20 0 -41 -31q-3 -6 -8 -6q-3 0 -14 9l-34 25q-4 3 -4 8q0 6 14 28q37 58 87 58q31 0 68 -26l17 -12q15 -11 28 -11q22 0 43 34q3 6 8 6q3 0 11 -6l36 -29q4 -3 4 -8zM429 10q5 -10 -7 -10
h-103q-5 0 -7 6l-24 72q-2 5 -10 5h-113q-8 0 -9 -5l-25 -72q-1 -6 -8 -6h-101q-11 0 -8 10l164 486q2 5 8 5h73q5 0 7 -5zM263 172l-25 99q-4 16 -7.5 36t-5 32t-1.5 13h-2q0 -27 -15 -81l-27 -99q-2 -8 8 -8h67q10 0 8 8z" />
    <glyph glyph-name="B.sc" unicode="&#xe008;" horiz-adv-x="512" 
d="M454 143q0 -65 -43 -104t-119 -39h-209q-7 0 -7 8v485q0 8 7 8h209q77 0 119.5 -36.5t42.5 -104.5v-18q0 -26 -13.5 -49t-36.5 -34q-12 -7 0 -12q22 -11 36 -34t14 -50v-20zM343 343v13q0 20 -14 34t-37 14h-95q-9 0 -9 -9v-90q0 -8 9 -8h95q24 0 37.5 12.5t13.5 33.5z
M343 144v21q0 19 -14 32.5t-37 13.5h-95q-9 0 -9 -8v-97q0 -8 9 -8h95q21 0 36 14t15 32z" />
    <glyph glyph-name="C.sc" unicode="&#xe009;" horiz-adv-x="472" 
d="M433 85q-27 -50 -62.5 -73t-91.5 -23h-51q-76 0 -120 39.5t-44 104.5v234q0 66 44 105.5t120 39.5h51q56 0 91.5 -23t62.5 -73q6 -10 -1 -14l-83 -38q-7 -3 -13 5q-26 45 -62 45h-46q-24 0 -39 -13t-15 -34v-234q0 -20 15 -33.5t39 -13.5h46q35 0 62 46q5 9 13 6l83 -38
q7 -4 1 -15z" />
    <glyph glyph-name="Ccedilla.sc" unicode="&#xe00a;" horiz-adv-x="472" 
d="M433 85q-52 -96 -154 -96q-9 0 -14 -9q-3 -9 3 -12q42 -23 42 -72v-8q0 -46 -32 -74.5t-79 -28.5h-59q-10 0 -10 10v66q0 10 10 10h59q7 0 12.5 5t5.5 12v8q0 7 -5.5 12.5t-12.5 5.5h-40q-16 0 -9 14l27 55q6 12 -6 15q-49 18 -78 48t-29 87v234q0 66 44 105.5t120 39.5
h51q56 0 91.5 -23t62.5 -73q6 -10 -1 -14l-83 -38q-7 -3 -13 5q-26 45 -62 45h-46q-24 0 -39 -13t-15 -34v-234q0 -20 15 -33.5t39 -13.5h46q35 0 62 46q5 9 13 6l83 -38q7 -4 1 -15z" />
    <glyph glyph-name="D.sc" unicode="&#xe00b;" horiz-adv-x="518" 
d="M454 152q0 -70 -44 -111t-118 -41h-209q-7 0 -7 8v485q0 8 7 8h209q74 0 118 -41t44 -111v-197zM343 144v212q0 18 -15 33t-36 15h-95q-9 0 -9 -9v-289q0 -8 9 -8h95q21 0 36 14t15 32z" />
    <glyph glyph-name="Eth.sc" unicode="&#xe00c;" horiz-adv-x="518" 
d="M454 152q0 -70 -44 -111t-118 -41h-209q-7 0 -7 8v183q0 11 -9 11h-40q-10 0 -10 10v81q0 10 10 10h39q10 0 10 12v178q0 8 7 8h209q74 0 118 -41t44 -111v-197zM343 144v212q0 18 -15 33t-36 15h-95q-9 0 -9 -9v-81q0 -11 11 -11h61q10 0 10 -10v-81q0 -10 -10 -10h-61
q-11 0 -11 -11v-85q0 -8 9 -8h95q21 0 36 14t15 32z" />
    <glyph glyph-name="E.sc" unicode="&#xe00d;" horiz-adv-x="456" 
d="M408 8q0 -8 -8 -8h-317q-7 0 -7 8v485q0 8 7 8h317q8 0 8 -8v-82q0 -7 -8 -7h-203q-9 0 -9 -9v-84q0 -8 9 -8h167q9 0 9 -7v-83q0 -8 -9 -8h-167q-9 0 -9 -8v-91q0 -8 9 -8h203q8 0 8 -8v-82z" />
    <glyph glyph-name="Eacute.sc" unicode="&#xe00e;" horiz-adv-x="456" 
d="M416 716q0 -5 -7 -12l-142 -140q-9 -7 -16 -7h-68q-10 0 -10 8q0 3 6 13l90 138q5 8 14 8h122q11 0 11 -8zM408 8q0 -8 -8 -8h-317q-7 0 -7 8v485q0 8 7 8h317q8 0 8 -8v-82q0 -7 -8 -7h-203q-9 0 -9 -9v-84q0 -8 9 -8h167q9 0 9 -7v-83q0 -8 -9 -8h-167q-9 0 -9 -8v-91
q0 -8 9 -8h203q8 0 8 -8v-82z" />
    <glyph glyph-name="Ecircumflex.sc" unicode="&#xe00f;" horiz-adv-x="456" 
d="M382 565q0 -8 -11 -8h-81q-5 0 -8 5l-33 51q-3 6 -8 6q-4 0 -7 -6l-32 -51q-3 -5 -8 -5h-81q-11 0 -11 8q0 3 3 8l104 147q4 4 8 4h49q4 0 8 -4l105 -147q3 -5 3 -8zM408 8q0 -8 -8 -8h-317q-7 0 -7 8v485q0 8 7 8h317q8 0 8 -8v-82q0 -7 -8 -7h-203q-9 0 -9 -9v-84
q0 -8 9 -8h167q9 0 9 -7v-83q0 -8 -9 -8h-167q-9 0 -9 -8v-91q0 -8 9 -8h203q8 0 8 -8v-82z" />
    <glyph glyph-name="Edieresis.sc" unicode="&#xe010;" horiz-adv-x="456" 
d="M389 641q0 -26 -18 -44t-44 -18t-44 18t-18 44t18 44t44 18t44 -18t18 -44zM220 641q0 -26 -18 -44t-44 -18t-44 18t-18 44t18 44t44 18t44 -18t18 -44zM408 8q0 -8 -8 -8h-317q-7 0 -7 8v485q0 8 7 8h317q8 0 8 -8v-82q0 -7 -8 -7h-203q-9 0 -9 -9v-84q0 -8 9 -8h167
q9 0 9 -7v-83q0 -8 -9 -8h-167q-9 0 -9 -8v-91q0 -8 9 -8h203q8 0 8 -8v-82z" />
    <glyph glyph-name="Egrave.sc" unicode="&#xe011;" horiz-adv-x="456" 
d="M326 565q0 -8 -10 -8h-68q-7 0 -16 7l-142 140q-7 7 -7 12q0 8 11 8h122q9 0 14 -8l90 -138q6 -10 6 -13zM408 8q0 -8 -8 -8h-317q-7 0 -7 8v485q0 8 7 8h317q8 0 8 -8v-82q0 -7 -8 -7h-203q-9 0 -9 -9v-84q0 -8 9 -8h167q9 0 9 -7v-83q0 -8 -9 -8h-167q-9 0 -9 -8v-91
q0 -8 9 -8h203q8 0 8 -8v-82z" />
    <glyph glyph-name="F.sc" unicode="&#xe012;" horiz-adv-x="439" 
d="M408 411q0 -7 -8 -7h-203q-9 0 -9 -9v-84q0 -8 9 -8h167q9 0 9 -7v-83q0 -8 -9 -8h-167q-9 0 -9 -8v-189q0 -8 -8 -8h-97q-7 0 -7 8v485q0 8 7 8h317q8 0 8 -8v-82z" />
    <glyph glyph-name="G.sc" unicode="&#xe013;" horiz-adv-x="502" 
d="M444 416q4 -10 -3 -14l-82 -38q-7 -3 -13 5q-26 45 -62 45h-56q-24 0 -39 -13t-15 -34v-234q0 -19 15.5 -32.5t38.5 -13.5h51q22 0 36.5 13t14.5 33v42q0 8 -9 8h-70q-8 0 -8 8v70q0 8 8 8h184q7 0 7 -8v-128q0 -67 -43 -105.5t-120 -38.5h-51q-77 0 -120.5 38.5
t-43.5 105.5v234q0 66 44 105.5t120 39.5h60q56 0 92.5 -23t63.5 -73z" />
    <glyph glyph-name="H.sc" unicode="&#xe014;" horiz-adv-x="542" 
d="M466 8q0 -8 -8 -8h-95q-8 0 -8 8v189q0 8 -9 8h-149q-9 0 -9 -8v-189q0 -8 -8 -8h-97q-7 0 -7 8v485q0 8 7 8h97q8 0 8 -8v-182q0 -8 9 -8h149q9 0 9 8v182q0 8 8 8h95q8 0 8 -8v-485z" />
    <glyph glyph-name="I.sc" unicode="&#xe015;" horiz-adv-x="264" 
d="M188 8q0 -8 -8 -8h-97q-7 0 -7 8v485q0 8 7 8h97q8 0 8 -8v-485z" />
    <glyph glyph-name="Iacute.sc" unicode="&#xe016;" horiz-adv-x="264" 
d="M317 716q0 -5 -7 -12l-142 -140q-9 -7 -16 -7h-68q-10 0 -10 8q0 3 6 13l90 138q5 8 14 8h122q11 0 11 -8zM188 8q0 -8 -8 -8h-97q-7 0 -7 8v485q0 8 7 8h97q8 0 8 -8v-485z" />
    <glyph glyph-name="Icircumflex.sc" unicode="&#xe017;" horiz-adv-x="264" 
d="M271 565q0 -8 -11 -8h-81q-5 0 -8 5l-33 51q-3 6 -8 6q-4 0 -7 -6l-32 -51q-3 -5 -8 -5h-81q-11 0 -11 8q0 3 3 8l104 147q4 4 8 4h49q4 0 8 -4l105 -147q3 -5 3 -8zM188 8q0 -8 -8 -8h-97q-7 0 -7 8v485q0 8 7 8h97q8 0 8 -8v-485z" />
    <glyph glyph-name="Idieresis.sc" unicode="&#xe018;" horiz-adv-x="264" 
d="M276 641q0 -26 -18 -44t-44 -18t-44 18t-18 44t18 44t44 18t44 -18t18 -44zM107 641q0 -26 -18 -44t-44 -18t-44 18t-18 44t18 44t44 18t44 -18t18 -44zM188 8q0 -8 -8 -8h-97q-7 0 -7 8v485q0 8 7 8h97q8 0 8 -8v-485z" />
    <glyph glyph-name="Igrave.sc" unicode="&#xe019;" horiz-adv-x="264" 
d="M188 565q0 -8 -10 -8h-68q-7 0 -16 7l-142 140q-7 7 -7 12q0 8 11 8h122q9 0 14 -8l90 -138q6 -10 6 -13zM188 8q0 -8 -8 -8h-97q-7 0 -7 8v485q0 8 7 8h97q8 0 8 -8v-485z" />
    <glyph glyph-name="J.sc" unicode="&#xe01a;" horiz-adv-x="401" 
d="M337 146q0 -72 -44 -113.5t-122 -41.5q-112 0 -156 100q-5 7 3 12l87 38q7 4 12 -4q21 -48 59 -48q22 0 35.5 13.5t13.5 33.5v357q0 8 7 8h97q8 0 8 -8v-347z" />
    <glyph glyph-name="K.sc" unicode="&#xe01b;" horiz-adv-x="493" 
d="M485 12q8 -12 -6 -12h-126q-6 0 -12 6l-116 184q-5 11 -13 1l-24 -29v-154q0 -8 -8 -8h-97q-7 0 -7 8v485q0 8 7 8h97q8 0 8 -8v-143q0 -34 -2 -42l152 188q3 5 10 5h117q15 0 6 -13l-169 -193q-4 -4 0 -8z" />
    <glyph glyph-name="L.sc" unicode="&#xe01c;" horiz-adv-x="419" 
d="M408 8q0 -8 -8 -8h-317q-7 0 -7 8v485q0 8 7 8h97q8 0 8 -8v-387q0 -8 9 -8h203q8 0 8 -8v-82z" />
    <glyph glyph-name="Lslash.sc" unicode="&#xe01d;" horiz-adv-x="419" 
d="M408 8q0 -8 -8 -8h-317q-7 0 -7 8v132q0 17 -11 6l-14 -14q-7 -8 -14 -1l-52 51q-7 7 0 14l80 79q11 11 11 27v191q0 8 7 8h98q7 0 7 -8v-80q0 -6 4 -7.5t9 2.5l16 18q8 6 14 0l51 -51q7 -7 0 -14l-83 -82q-11 -11 -11 -25v-148q0 -8 10 -8h202q8 0 8 -8v-82z" />
    <glyph glyph-name="M.sc" unicode="&#xe01e;" horiz-adv-x="609" 
d="M530 8q0 -8 -8 -8h-92q-7 0 -7 8v125q0 31 1.5 68.5t3.5 62.5l1 25h-3q0 -2 -2 -12t-7 -26.5t-10 -29.5l-62 -150q-1 -8 -11 -8h-61q-9 0 -13 8l-60 152q-5 12 -10 28t-8 27l-3 11h-2l1 -24q2 -24 4 -61.5t2 -69.5v-126q0 -8 -8 -8h-93q-7 0 -7 8v485q0 8 7 8h97
q6 0 8 -5l105 -259q3 -6 5 -14t4 -13l1 -4h3q0 3 10 31l102 259q2 5 9 5h95q8 0 8 -8v-485z" />
    <glyph glyph-name="N.sc" unicode="&#xe01f;" horiz-adv-x="517" 
d="M441 8q0 -8 -8 -8h-84q-3 0 -8 6l-140 253q-16 28 -16 34h-3l1 -23q1 -23 2 -57t1 -62v-143q0 -8 -9 -8h-94q-7 0 -7 8v485q0 8 7 8h84q7 0 10 -6l139 -257q4 -8 8 -16.5t6 -14.5l3 -6h3q0 1 -1 23.5t-1.5 57.5t-0.5 65v146q0 8 7 8h93q8 0 8 -8v-485z" />
    <glyph glyph-name="Ntilde.sc" unicode="&#xe020;" horiz-adv-x="517" 
d="M419 657q0 -6 -18 -34q-38 -55 -84 -55q-22 0 -69 29l-18 11q-16 10 -26 10q-20 0 -41 -31q-3 -6 -8 -6q-3 0 -14 9l-34 25q-4 3 -4 8q0 6 14 28q37 58 87 58q31 0 68 -26l17 -12q15 -11 28 -11q22 0 43 34q3 6 8 6q3 0 11 -6l36 -29q4 -3 4 -8zM441 8q0 -8 -8 -8h-84
q-3 0 -8 6l-140 253q-16 28 -16 34h-3l1 -23q1 -23 2 -57t1 -62v-143q0 -8 -9 -8h-94q-7 0 -7 8v485q0 8 7 8h84q7 0 10 -6l139 -257q4 -8 8 -16.5t6 -14.5l3 -6h3q0 1 -1 23.5t-1.5 57.5t-0.5 65v146q0 8 7 8h93q8 0 8 -8v-485z" />
    <glyph glyph-name="O.sc" unicode="&#xe021;" horiz-adv-x="506" 
d="M442 133q0 -64 -45 -104t-118 -40h-51q-74 0 -119 40t-45 104v234q0 65 45.5 105t118.5 40h51q73 0 118 -40t45 -105v-234zM330 133v235q0 20 -14.5 33t-36.5 13h-51q-22 0 -38 -13.5t-16 -32.5v-235q0 -20 14.5 -33t39.5 -13h51q22 0 36.5 13t14.5 33z" />
    <glyph glyph-name="OE.sc" unicode="&#xe022;" horiz-adv-x="706" 
d="M658 8q0 -8 -8 -8h-307q-32 -10 -64 -10h-52q-73 0 -118 39.5t-45 104.5v232q0 65 45 105t118 40h52q33 0 65 -10h306q8 0 8 -8v-82q0 -7 -8 -7h-203q-11 0 -9 -10q4 -9 4 -38v-45q0 -8 9 -8h163q9 0 9 -7v-83q0 -8 -9 -8h-163q-9 0 -9 -8v-50q0 -31 -4 -40q-2 -9 9 -9
h203q8 0 8 -8v-82zM330 133v234q0 20 -14.5 33.5t-36.5 13.5h-52q-22 0 -37.5 -14t-15.5 -33v-234q0 -20 14.5 -32.5t38.5 -12.5h52q22 0 36.5 13t14.5 32z" />
    <glyph glyph-name="Oacute.sc" unicode="&#xe023;" horiz-adv-x="506" 
d="M436 716q0 -5 -7 -12l-142 -140q-9 -7 -16 -7h-68q-10 0 -10 8q0 3 6 13l90 138q5 8 14 8h122q11 0 11 -8zM442 133q0 -64 -45 -104t-118 -40h-51q-74 0 -119 40t-45 104v234q0 65 45.5 105t118.5 40h51q73 0 118 -40t45 -105v-234zM330 133v235q0 20 -14.5 33t-36.5 13
h-51q-22 0 -38 -13.5t-16 -32.5v-235q0 -20 14.5 -33t39.5 -13h51q22 0 36.5 13t14.5 33z" />
    <glyph glyph-name="Ocircumflex.sc" unicode="&#xe024;" horiz-adv-x="506" 
d="M395 565q0 -8 -11 -8h-81q-5 0 -8 5l-33 51q-3 6 -8 6q-4 0 -7 -6l-32 -51q-3 -5 -8 -5h-81q-11 0 -11 8q0 3 3 8l104 147q4 4 8 4h49q4 0 8 -4l105 -147q3 -5 3 -8zM442 133q0 -64 -45 -104t-118 -40h-51q-74 0 -119 40t-45 104v234q0 65 45.5 105t118.5 40h51
q73 0 118 -40t45 -105v-234zM330 133v235q0 20 -14.5 33t-36.5 13h-51q-22 0 -38 -13.5t-16 -32.5v-235q0 -20 14.5 -33t39.5 -13h51q22 0 36.5 13t14.5 33z" />
    <glyph glyph-name="Odieresis.sc" unicode="&#xe025;" horiz-adv-x="506" 
d="M400 641q0 -26 -18 -44t-44 -18t-44 18t-18 44t18 44t44 18t44 -18t18 -44zM231 641q0 -26 -18 -44t-44 -18t-44 18t-18 44t18 44t44 18t44 -18t18 -44zM442 133q0 -64 -45 -104t-118 -40h-51q-74 0 -119 40t-45 104v234q0 65 45.5 105t118.5 40h51q73 0 118 -40t45 -105
v-234zM330 133v235q0 20 -14.5 33t-36.5 13h-51q-22 0 -38 -13.5t-16 -32.5v-235q0 -20 14.5 -33t39.5 -13h51q22 0 36.5 13t14.5 33z" />
    <glyph glyph-name="Ograve.sc" unicode="&#xe026;" horiz-adv-x="506" 
d="M304 565q0 -8 -10 -8h-68q-7 0 -16 7l-142 140q-7 7 -7 12q0 8 11 8h122q9 0 14 -8l90 -138q6 -10 6 -13zM442 133q0 -64 -45 -104t-118 -40h-51q-74 0 -119 40t-45 104v234q0 65 45.5 105t118.5 40h51q73 0 118 -40t45 -105v-234zM330 133v235q0 20 -14.5 33t-36.5 13
h-51q-22 0 -38 -13.5t-16 -32.5v-235q0 -20 14.5 -33t39.5 -13h51q22 0 36.5 13t14.5 33z" />
    <glyph glyph-name="Oslash.sc" unicode="&#xe027;" horiz-adv-x="506" 
d="M442 134q0 -64 -45 -104t-118 -40h-51q-74 0 -119 39.5t-45 104.5v232q0 65 45.5 105t118.5 40h51q73 0 118 -40t45 -105v-232zM284 401q4 7 -4 9q-8 4 -25 4h-27q-22 0 -38 -14t-16 -33v-171q0 -15 1 -16q0 -5 3.5 -5t5.5 4zM330 133v169v9q-1 9 -1 10q0 5 -3.5 5
t-5.5 -4l-99 -220q-3 -8 5 -10q6 -4 25 -4h28q22 0 36.5 13t14.5 32z" />
    <glyph glyph-name="Otilde.sc" unicode="&#xe028;" horiz-adv-x="506" 
d="M409 657q0 -6 -18 -34q-38 -55 -84 -55q-22 0 -69 29l-18 11q-16 10 -26 10q-20 0 -41 -31q-3 -6 -8 -6q-3 0 -14 9l-34 25q-4 3 -4 8q0 6 14 28q37 58 87 58q31 0 68 -26l17 -12q15 -11 28 -11q22 0 43 34q3 6 8 6q3 0 11 -6l36 -29q4 -3 4 -8zM442 133q0 -64 -45 -104
t-118 -40h-51q-74 0 -119 40t-45 104v234q0 65 45.5 105t118.5 40h51q73 0 118 -40t45 -105v-234zM330 133v235q0 20 -14.5 33t-36.5 13h-51q-22 0 -38 -13.5t-16 -32.5v-235q0 -20 14.5 -33t39.5 -13h51q22 0 36.5 13t14.5 33z" />
    <glyph glyph-name="P.sc" unicode="&#xe029;" horiz-adv-x="457" 
d="M431 334q0 -58 -45.5 -93.5t-117.5 -35.5h-71q-9 0 -9 -8v-189q0 -8 -8 -8h-97q-7 0 -7 8v485q0 8 7 8h185q75 0 119 -37t44 -104v-26zM322 340v19q0 19 -14 32t-37 13h-74q-9 0 -9 -9v-90q0 -8 9 -8h74q23 0 37 12t14 31z" />
    <glyph glyph-name="Thorn.sc" unicode="&#xe02a;" horiz-adv-x="457" 
d="M431 269q0 -58 -45.5 -93.5t-118.5 -35.5h-70q-9 0 -9 -9v-123q0 -8 -8 -8h-97q-7 0 -7 8v485q0 8 8 8h97q8 0 8 -8v-49q0 -9 10 -9h68q75 0 119.5 -37t44.5 -104v-25zM321 275v19q0 18 -14 31t-37 13h-73q-9 0 -9 -8v-90q0 -9 9 -9h73q23 0 37 12t14 32z" />
    <glyph glyph-name="Q.sc" unicode="&#xe02b;" horiz-adv-x="506" 
d="M442 130q0 -57 -35 -94t-95 -47q-7 -1 -7 -8v-58q0 -9 -9 -9h-89q-8 0 -8 9v58q0 5 -7 8q-59 10 -93.5 47.5t-34.5 93.5v236q0 65 45.5 105t118.5 40h51q73 0 118 -40t45 -105v-236zM330 123v244q0 20 -14.5 33.5t-36.5 13.5h-51q-22 0 -38 -14t-16 -33v-244
q0 -22 23 -34q6 -4 9 2l15 43q5 8 11 8h39q9 0 12 -8l15 -42q4 -10 10 -2q22 8 22 33z" />
    <glyph glyph-name="R.sc" unicode="&#xe02c;" horiz-adv-x="511" 
d="M469 10q4 -10 -7 -10h-103q-5 0 -7 6l-77 194q-3 5 -7 5h-71q-9 0 -9 -8v-189q0 -8 -8 -8h-97q-7 0 -7 8v485q0 8 7 8h209q74 0 118 -41t44 -111v-7q0 -35 -17 -64t-45 -44q-7 -4 -4 -16zM343 343v13q0 21 -14 34.5t-37 13.5h-95q-9 0 -9 -9v-90q0 -8 9 -8h95
q23 0 37 12.5t14 33.5z" />
    <glyph glyph-name="S.sc" unicode="&#xe02d;" horiz-adv-x="443" 
d="M396 140q0 -70 -43.5 -110.5t-121.5 -40.5h-31q-106 0 -152 83q-6 10 2 15l70 46q11 7 14 -3q25 -43 65 -43h31q23 0 38 14.5t15 36.5q0 7 -1.5 12.5t-5 10.5t-7 9t-10.5 8t-11.5 6.5t-14.5 6.5t-15.5 6t-17.5 6.5t-17 6.5q-68 25 -100.5 57t-32.5 94q0 69 44.5 110
t120.5 41h16q105 0 153 -82q7 -11 -2 -16l-70 -45q-10 -8 -15 2q-23 43 -65 43h-17q-23 0 -37 -13.5t-14 -36.5q0 -16 14.5 -29t31 -19.5t43.5 -16.5l9 -3q69 -24 101.5 -58t32.5 -98z" />
    <glyph glyph-name="Scaron.sc" unicode="&#xe02e;" horiz-adv-x="443" 
d="M360 716q0 -4 -10 -18l-98 -137q-4 -4 -8 -4h-49q-4 0 -8 4l-97 137q-10 15 -10 18q0 8 11 8h81q5 0 8 -5l32 -51q3 -6 7 -6q5 0 8 6l33 51q3 5 8 5h81q11 0 11 -8zM396 140q0 -70 -43.5 -110.5t-121.5 -40.5h-31q-106 0 -152 83q-6 10 2 15l70 46q11 7 14 -3
q25 -43 65 -43h31q23 0 38 14.5t15 36.5q0 7 -1.5 12.5t-5 10.5t-7 9t-10.5 8t-11.5 6.5t-14.5 6.5t-15.5 6t-17.5 6.5t-17 6.5q-68 25 -100.5 57t-32.5 94q0 69 44.5 110t120.5 41h16q105 0 153 -82q7 -11 -2 -16l-70 -45q-10 -8 -15 2q-23 43 -65 43h-17q-23 0 -37 -13.5
t-14 -36.5q0 -16 14.5 -29t31 -19.5t43.5 -16.5l9 -3q69 -24 101.5 -58t32.5 -98z" />
    <glyph glyph-name="T.sc" unicode="&#xe02f;" horiz-adv-x="377" 
d="M357 411q0 -7 -7 -7h-96q-10 0 -10 -9v-387q0 -8 -7 -8h-97q-7 0 -7 8v387q0 9 -10 9h-95q-8 0 -8 7v82q0 8 8 8h322q7 0 7 -8v-82z" />
    <glyph glyph-name="U.sc" unicode="&#xe030;" horiz-adv-x="517" 
d="M448 133q0 -64 -45.5 -104t-118.5 -40h-51q-74 0 -118.5 40t-44.5 104v360q0 8 7 8h95q7 0 7 -8v-360q0 -21 14.5 -33.5t39.5 -12.5h51q24 0 38 12.5t14 33.5v360q0 8 8 8h96q8 0 8 -8v-360z" />
    <glyph glyph-name="Uacute.sc" unicode="&#xe031;" horiz-adv-x="517" 
d="M444 716q0 -5 -7 -12l-142 -140q-9 -7 -16 -7h-68q-10 0 -10 8q0 3 6 13l90 138q5 8 14 8h122q11 0 11 -8zM448 133q0 -64 -45.5 -104t-118.5 -40h-51q-74 0 -118.5 40t-44.5 104v360q0 8 7 8h95q7 0 7 -8v-360q0 -21 14.5 -33.5t39.5 -12.5h51q24 0 38 12.5t14 33.5v360
q0 8 8 8h96q8 0 8 -8v-360z" />
    <glyph glyph-name="Ucircumflex.sc" unicode="&#xe032;" horiz-adv-x="517" 
d="M399 565q0 -8 -11 -8h-81q-5 0 -8 5l-33 51q-3 6 -8 6q-4 0 -7 -6l-32 -51q-3 -5 -8 -5h-81q-11 0 -11 8q0 3 3 8l104 147q4 4 8 4h49q4 0 8 -4l105 -147q3 -5 3 -8zM448 133q0 -64 -45.5 -104t-118.5 -40h-51q-74 0 -118.5 40t-44.5 104v360q0 8 7 8h95q7 0 7 -8v-360
q0 -21 14.5 -33.5t39.5 -12.5h51q24 0 38 12.5t14 33.5v360q0 8 8 8h96q8 0 8 -8v-360z" />
    <glyph glyph-name="Udieresis.sc" unicode="&#xe033;" horiz-adv-x="517" 
d="M404 641q0 -26 -18 -44t-44 -18t-44 18t-18 44t18 44t44 18t44 -18t18 -44zM235 641q0 -26 -18 -44t-44 -18t-44 18t-18 44t18 44t44 18t44 -18t18 -44zM448 133q0 -64 -45.5 -104t-118.5 -40h-51q-74 0 -118.5 40t-44.5 104v360q0 8 7 8h95q7 0 7 -8v-360
q0 -21 14.5 -33.5t39.5 -12.5h51q24 0 38 12.5t14 33.5v360q0 8 8 8h96q8 0 8 -8v-360z" />
    <glyph glyph-name="Ugrave.sc" unicode="&#xe034;" horiz-adv-x="517" 
d="M316 565q0 -8 -10 -8h-68q-7 0 -16 7l-142 140q-7 7 -7 12q0 8 11 8h122q9 0 14 -8l90 -138q6 -10 6 -13zM448 133q0 -64 -45.5 -104t-118.5 -40h-51q-74 0 -118.5 40t-44.5 104v360q0 8 7 8h95q7 0 7 -8v-360q0 -21 14.5 -33.5t39.5 -12.5h51q24 0 38 12.5t14 33.5v360
q0 8 8 8h96q8 0 8 -8v-360z" />
    <glyph glyph-name="V.sc" unicode="&#xe035;" horiz-adv-x="444" 
d="M429 491l-163 -485q-3 -6 -8 -6h-72q-6 0 -8 6l-164 485q-3 10 8 10h103q7 0 8 -5l76 -254q10 -32 13 -59h3q1 20 13 59l72 254q1 5 8 5h104q11 0 7 -10z" />
    <glyph glyph-name="W.sc" unicode="&#xe036;" horiz-adv-x="604" 
d="M585 492l-115 -485q-1 -7 -8 -7h-77q-5 0 -7 6l-68 261q-2 7 -3.5 17t-2.5 17t-1 8h-3q0 -19 -6 -42l-67 -261q-1 -6 -8 -6h-77q-6 0 -7 7l-117 485q-4 9 7 9h102q7 0 8 -6l50 -267q5 -23 5 -44h3q0 22 6 44l64 266q2 7 9 7h65q7 0 9 -6l58 -267q2 -7 3 -18t2 -18l1 -8h2
l1 8q1 7 2.5 18.5t2.5 18.5l51 266q1 6 8 6h101q11 0 7 -9z" />
    <glyph glyph-name="X.sc" unicode="&#xe037;" horiz-adv-x="471" 
d="M440 490l-135 -234q-4 -7 1 -14l132 -231q7 -11 -7 -11h-106q-11 0 -14 9l-70 135q-1 4 -4.5 4t-5.5 -4l-70 -135q-5 -9 -15 -9h-106q-14 0 -7 12l133 231q3 8 0 13l-135 234q-3 4 -1 7.5t7 3.5h109q9 0 12 -6l73 -139q6 -11 11 0l70 139q4 6 12 6h110q5 0 7 -3.5
t-1 -7.5z" />
    <glyph glyph-name="Y.sc" unicode="&#xe038;" horiz-adv-x="395" 
d="M408 489l-154 -263v-218q0 -8 -9 -8h-95q-8 0 -8 8v218l-154 263q-7 12 7 12h110q7 0 11 -7l74 -138q8 -13 15 0l76 138q3 7 11 7h109q14 0 7 -12z" />
    <glyph glyph-name="Yacute.sc" unicode="&#xe039;" horiz-adv-x="395" 
d="M382 716q0 -5 -7 -12l-142 -140q-9 -7 -16 -7h-68q-10 0 -10 8q0 3 6 13l90 138q5 8 14 8h122q11 0 11 -8zM408 489l-154 -263v-218q0 -8 -9 -8h-95q-8 0 -8 8v218l-154 263q-7 12 7 12h110q7 0 11 -7l74 -138q8 -13 15 0l76 138q3 7 11 7h109q14 0 7 -12z" />
    <glyph glyph-name="Ydieresis.sc" unicode="&#xe03a;" horiz-adv-x="395" 
d="M347 641q0 -26 -18 -44t-44 -18t-44 18t-18 44t18 44t44 18t44 -18t18 -44zM178 641q0 -26 -18 -44t-44 -18t-44 18t-18 44t18 44t44 18t44 -18t18 -44zM408 489l-154 -263v-218q0 -8 -9 -8h-95q-8 0 -8 8v218l-154 263q-7 12 7 12h110q7 0 11 -7l74 -138q8 -13 15 0
l76 138q3 7 11 7h109q14 0 7 -12z" />
    <glyph glyph-name="Z.sc" unicode="&#xe03b;" horiz-adv-x="431" 
d="M395 490l-192 -381q-5 -11 9 -11h168q8 0 8 -8v-82q0 -8 -8 -8h-339q-13 0 -7 11l191 381q6 12 -9 12h-151q-8 0 -8 7v82q0 8 8 8h322q12 0 8 -11z" />
    <glyph glyph-name="Zcaron.sc" unicode="&#xe03c;" horiz-adv-x="431" 
d="M360 716q0 -4 -10 -18l-98 -137q-4 -4 -8 -4h-49q-4 0 -8 4l-97 137q-10 15 -10 18q0 8 11 8h81q5 0 8 -5l32 -51q3 -6 7 -6q5 0 8 6l33 51q3 5 8 5h81q11 0 11 -8zM395 490l-192 -381q-5 -11 9 -11h168q8 0 8 -8v-82q0 -8 -8 -8h-339q-13 0 -7 11l191 381q6 12 -9 12
h-151q-8 0 -8 7v82q0 8 8 8h322q12 0 8 -11z" />
    <glyph glyph-name="germandbls.sc" unicode="&#xe03d;" horiz-adv-x="871" 
d="M824 140q0 -70 -43.5 -110.5t-121.5 -40.5h-31q-106 0 -152 83q-6 10 2 15l70 46q11 7 14 -3q25 -43 65 -43h31q23 0 38 14.5t15 36.5q0 7 -1.5 12.5t-5 10.5t-7 9t-10.5 8t-11.5 6.5t-14.5 6.5t-15.5 6t-17.5 6.5t-17 6.5q-68 25 -100.5 57t-32.5 94q0 69 44.5 110
t120.5 41h16q105 0 153 -82q7 -11 -2 -16l-70 -45q-10 -8 -15 2q-23 43 -65 43h-17q-23 0 -37 -13.5t-14 -36.5q0 -16 14.5 -29t31 -19.5t43.5 -16.5l9 -3q69 -24 101.5 -58t32.5 -98zM396 140q0 -70 -43.5 -110.5t-121.5 -40.5h-31q-106 0 -152 83q-6 10 2 15l70 46
q11 7 14 -3q25 -43 65 -43h31q23 0 38 14.5t15 36.5q0 7 -1.5 12.5t-5 10.5t-7 9t-10.5 8t-11.5 6.5t-14.5 6.5t-15.5 6t-17.5 6.5t-17 6.5q-68 25 -100.5 57t-32.5 94q0 69 44.5 110t120.5 41h16q105 0 153 -82q7 -11 -2 -16l-70 -45q-10 -8 -15 2q-23 43 -65 43h-17
q-23 0 -37 -13.5t-14 -36.5q0 -16 14.5 -29t31 -19.5t43.5 -16.5l9 -3q69 -24 101.5 -58t32.5 -98z" />
    <glyph glyph-name="f_i.sc" unicode="&#xe03e;" horiz-adv-x="703" 
d="M627 8q0 -8 -8 -8h-97q-7 0 -7 8v485q0 8 7 8h97q8 0 8 -8v-485zM408 411q0 -7 -8 -7h-203q-9 0 -9 -9v-84q0 -8 9 -8h167q9 0 9 -7v-83q0 -8 -9 -8h-167q-9 0 -9 -8v-189q0 -8 -8 -8h-97q-7 0 -7 8v485q0 8 7 8h317q8 0 8 -8v-82z" />
    <glyph glyph-name="f_l.sc" unicode="&#xe03f;" horiz-adv-x="858" 
d="M847 8q0 -8 -8 -8h-317q-7 0 -7 8v485q0 8 7 8h97q8 0 8 -8v-387q0 -8 9 -8h203q8 0 8 -8v-82zM408 411q0 -7 -8 -7h-203q-9 0 -9 -9v-84q0 -8 9 -8h167q9 0 9 -7v-83q0 -8 -9 -8h-167q-9 0 -9 -8v-189q0 -8 -8 -8h-97q-7 0 -7 8v485q0 8 7 8h317q8 0 8 -8v-82z" />
    <glyph glyph-name="f_f_i.sc" unicode="&#xe041;" horiz-adv-x="1142" 
d="M1066 8q0 -8 -8 -8h-97q-7 0 -7 8v485q0 8 7 8h97q8 0 8 -8v-485zM847 411q0 -7 -8 -7h-203q-9 0 -9 -9v-84q0 -8 9 -8h167q9 0 9 -7v-83q0 -8 -9 -8h-167q-9 0 -9 -8v-189q0 -8 -8 -8h-97q-7 0 -7 8v485q0 8 7 8h317q8 0 8 -8v-82zM408 411q0 -7 -8 -7h-203q-9 0 -9 -9
v-84q0 -8 9 -8h167q9 0 9 -7v-83q0 -8 -9 -8h-167q-9 0 -9 -8v-189q0 -8 -8 -8h-97q-7 0 -7 8v485q0 8 7 8h317q8 0 8 -8v-82z" />
    <glyph glyph-name="f_f_l.sc" unicode="&#xe042;" horiz-adv-x="1297" 
d="M1286 8q0 -8 -8 -8h-317q-7 0 -7 8v485q0 8 7 8h97q8 0 8 -8v-387q0 -8 9 -8h203q8 0 8 -8v-82zM847 411q0 -7 -8 -7h-203q-9 0 -9 -9v-84q0 -8 9 -8h167q9 0 9 -7v-83q0 -8 -9 -8h-167q-9 0 -9 -8v-189q0 -8 -8 -8h-97q-7 0 -7 8v485q0 8 7 8h317q8 0 8 -8v-82zM408 411
q0 -7 -8 -7h-203q-9 0 -9 -9v-84q0 -8 9 -8h167q9 0 9 -7v-83q0 -8 -9 -8h-167q-9 0 -9 -8v-189q0 -8 -8 -8h-97q-7 0 -7 8v485q0 8 7 8h317q8 0 8 -8v-82z" />
    <glyph glyph-name="E.alt" unicode="&#xe043;" horiz-adv-x="458" 
d="M449 108q0 -5 -19 -37q-52 -81 -158 -81h-27q-86 0 -136.5 50t-50.5 135v29q0 27 16 59t38 54q4 3 4 7t-4 7q-54 52 -54 108v14q0 85 51 136t136 51h27q106 0 158 -81q19 -32 19 -37q0 -4 -6 -7l-80 -41q-10 -5 -12 -5q-5 0 -8 7q-25 59 -71 59h-27q-29 0 -50.5 -21.5
t-21.5 -50.5v-14q0 -29 21.5 -50.5t50.5 -21.5h90q10 0 10 -10v-85q0 -10 -10 -10h-90q-30 0 -51 -20.5t-21 -50.5v-34q0 -29 21.5 -50.5t50.5 -21.5h27q46 0 71 59q3 7 8 7q2 0 12 -5l80 -41q6 -3 6 -7z" />
    <glyph glyph-name="f_f.sc" unicode="&#xf040;" horiz-adv-x="878" 
d="M847 411q0 -7 -8 -7h-203q-9 0 -9 -9v-84q0 -8 9 -8h167q9 0 9 -7v-83q0 -8 -9 -8h-167q-9 0 -9 -8v-189q0 -8 -8 -8h-97q-7 0 -7 8v485q0 8 7 8h317q8 0 8 -8v-82zM408 411q0 -7 -8 -7h-203q-9 0 -9 -9v-84q0 -8 9 -8h167q9 0 9 -7v-83q0 -8 -9 -8h-167q-9 0 -9 -8v-189
q0 -8 -8 -8h-97q-7 0 -7 8v485q0 8 7 8h317q8 0 8 -8v-82z" />
    <glyph glyph-name="zero.oldstyle" unicode="&#xf730;" 
d="M454 167q0 -79 -51 -128t-135 -49h-29q-85 0 -135.5 49t-50.5 128v168q0 79 50.5 128t135.5 49h29q84 0 135 -49t51 -128v-168zM339 167v168q0 30 -20.5 51t-50.5 21h-29q-29 0 -50.5 -21.5t-21.5 -50.5v-168q0 -29 21.5 -50.5t50.5 -21.5h29q30 0 50.5 21t20.5 51z" />
    <glyph glyph-name="one.oldstyle" unicode="&#xf731;" 
d="M437 10q0 -10 -10 -10h-323q-10 0 -10 10v85q0 10 10 10h94q10 0 10 10v175q0 8 -5.5 10.5t-11.5 -3.5l-30 -31q-7 -7 -14 0l-62 61q-7 7 0 14l167 168q3 3 7 3h54q10 0 10 -10v-387q0 -10 10 -10h94q10 0 10 -10v-85z" />
    <glyph glyph-name="two.oldstyle" unicode="&#xf732;" 
d="M455 340q0 -16 -3.5 -31t-7.5 -26t-13.5 -21.5t-16 -17.5t-20.5 -15t-21.5 -12t-24 -10t-23.5 -8t-25 -7t-23 -7q-65 -20 -80 -33q-13 -12 -13 -30v-8q0 -9 11 -9h244q10 0 10 -9v-87q0 -9 -10 -9h-365q-10 0 -10 9v72q0 39 11 70t25 49t40 33t43.5 21.5t47.5 15.5
q71 20 88 32q21 16 22 43q0 62 -76 62h-39q-52 0 -76 -58q-3 -9 -15 -6l-85 44q-8 5 -4 15q26 56 68 83t109 27h42q87 0 138.5 -47t51.5 -125z" />
    <glyph glyph-name="three.oldstyle" unicode="&#xf733;" 
d="M440 47q0 -85 -50.5 -135t-136.5 -50h-28q-70 0 -110 30t-65 84q-4 8 5 13l87 43q10 5 13 -6q22 -59 70 -59h28q29 0 50.5 21.5t21.5 50.5v34q0 30 -21 50.5t-51 20.5h-90q-10 0 -10 10v85q0 10 10 10h90q29 0 50.5 21.5t21.5 50.5v14q0 29 -21.5 50.5t-50.5 21.5h-28
q-46 0 -71 -59q-4 -9 -14 -5l-86 44q-8 4 -4 13q25 53 65 82.5t110 29.5h28q85 0 136 -51t51 -136v-14q0 -56 -54 -108q-7 -7 0 -14q22 -22 38 -54t16 -59v-29z" />
    <glyph glyph-name="four.oldstyle" unicode="&#xf734;" 
d="M484 10q0 -10 -10 -10h-65q-10 0 -10 -10v-109q0 -10 -10 -10h-95q-10 0 -10 10v109q0 10 -10 10h-236q-10 0 -10 10v85l261 402q4 4 8 4h92q10 0 10 -10v-376q0 -10 10 -10h65q10 0 10 -10v-85zM284 115v164q0 9 -7 11t-11 -5l-103 -164q-4 -7 -2 -11.5t10 -4.5h103
q10 0 10 10z" />
    <glyph glyph-name="five.oldstyle" unicode="&#xf735;" 
d="M447 46q0 -85 -50.5 -135t-135.5 -50h-29q-70 0 -110 30t-64 84q-4 8 5 13l86 43q10 5 13 -6q22 -59 70 -59h29q30 0 50.5 21t20.5 51v34q0 30 -20.5 50.5t-50.5 20.5h-167q-10 0 -10 10v338q0 10 10 10h333q10 0 10 -10v-85q0 -10 -10 -10h-218q-10 0 -10 -10v-128
q0 -10 10 -10h52q85 0 135.5 -49.5t50.5 -134.5v-18z" />
    <glyph glyph-name="six.oldstyle" unicode="&#xf736;" 
d="M464 167q0 -79 -51 -128t-136 -49h-30q-84 0 -135 49t-51 128v296q0 79 51 128t135 49h30q70 0 109.5 -29t67.5 -83q5 -9 -5 -14l-87 -42q-8 -4 -13 5q-25 58 -72 58h-30q-30 0 -50.5 -21t-20.5 -51v-91q0 -17 15 -9q36 19 66 19h30q75 0 126 -50t51 -127v-38zM349 167
v38q0 29 -21.5 50.5t-50.5 21.5h-30q-30 0 -50.5 -21t-20.5 -51v-38q0 -30 20.5 -51t50.5 -21h30q29 0 50.5 21.5t21.5 50.5z" />
    <glyph glyph-name="seven.oldstyle" unicode="&#xf737;" 
d="M449 376q0 -46 -12 -82t-38 -64t-44.5 -43t-54.5 -39q-33 -23 -46.5 -33t-28.5 -31.5t-15 -45.5v-157q0 -10 -10 -10h-94q-10 0 -10 10v157q0 39 10 70.5t32 56t39.5 39.5t47.5 36q2 2 19.5 13.5t21 14t17.5 13.5t18 16t13 15.5t12 19t6 20.5t3 24v10q0 10 -10 10h-238
q-10 0 -10 10v85q0 10 10 10h352q10 0 10 -10v-115z" />
    <glyph glyph-name="eight.oldstyle" unicode="&#xf738;" 
d="M454 175q0 -85 -50.5 -135t-135.5 -50h-29q-86 0 -136 50t-50 135v24q0 27 15.5 59t37.5 54q7 7 0 14q-22 21 -37.5 51t-15.5 57v19q0 86 50.5 136.5t135.5 50.5h29q85 0 135.5 -51t50.5 -136v-19q0 -27 -15.5 -57t-37.5 -51q-7 -7 0 -14q22 -22 37.5 -54t15.5 -59v-24z
M339 444v19q0 30 -20.5 51t-50.5 21h-29q-29 0 -50.5 -21.5t-21.5 -50.5v-19q0 -29 21.5 -50.5t50.5 -21.5h29q30 0 50.5 21t20.5 51zM339 167v29q0 30 -20.5 50.5t-50.5 20.5h-29q-30 0 -51 -20.5t-21 -50.5v-29q0 -29 21.5 -50.5t50.5 -21.5h29q30 0 50.5 21t20.5 51z" />
    <glyph glyph-name="nine.oldstyle" unicode="&#xf739;" 
d="M446 39q0 -79 -51 -128t-136 -49h-30q-70 0 -110 29.5t-64 84.5q-4 8 5 13l86 43q10 5 13 -6q22 -59 70 -59h30q29 0 50.5 21.5t21.5 50.5v57q0 17 -15 9q-34 -18 -66 -18h-30q-75 0 -126 49.5t-51 126.5v72q0 79 51 128t135 49h30q85 0 136 -49t51 -128v-296zM331 263
v72q0 29 -21.5 50.5t-50.5 21.5h-30q-30 0 -50.5 -21t-20.5 -51v-72q0 -30 20.5 -50.5t50.5 -20.5h30q30 0 51 20.5t21 50.5z" />
    </font>
</defs>
</svg>
