<?xml version="1.0" standalone="no"?>
<!DOCTYPE svg PUBLIC "-//W3C//DTD SVG 1.1//EN" "http://www.w3.org/Graphics/SVG/1.1/DTD/svg11.dtd" >
<svg xmlns="http://www.w3.org/2000/svg" xmlns:xlink="http://www.w3.org/1999/xlink" version="1.1">
<metadata>
Created by FontForge 20190801 at Mon Sep 13 12:30:13 2021
 By www-data
Copyright (c) 2020 by Grilli Type. All rights reserved.
</metadata>
<defs>
<font id="GTFlexaExtendedLight" horiz-adv-x="770" >
  <font-face 
    font-family="GTFlexaExtendedLight"
    font-weight="300"
    font-stretch="expanded"
    units-per-em="1000"
    panose-1="0 0 4 5 0 0 0 0 0 0"
    ascent="800"
    descent="-200"
    x-height="476"
    cap-height="700"
    bbox="-483 -194 1397 967"
    underline-thickness="50"
    underline-position="-100"
    unicode-range="U+000D-1F517"
  />
<missing-glyph horiz-adv-x="1141" 
d="M1036 830v-34q-132 -16 -217.5 -93t-116.5 -207h13q72 0 142.5 -54.5t114 -142.5t43.5 -178q0 -164 -120 -164q-96 0 -170 118.5t-74 270.5q0 60 7 108q-60 -16 -107.5 -62t-74.5 -113q75 -34 129.5 -134t54.5 -210q0 -56 -25 -90.5t-65 -34.5q-68 0 -114 88.5t-46 219.5
q0 74 21 139q-4 1 -11 1q-71 0 -121 -69q60 -66 60 -201q0 -143 -70 -143q-38 0 -59 40t-21 111q0 105 47 186q-16 11 -31 11q-34 0 -60 -37t-26 -85h-35q0 62 36.5 109t84.5 47q24 0 50 -16q60 81 145 81q7 0 23 -2q33 80 91 133t131 68q30 147 125 234t246 105zM715 461
q-13 0 -20 -1q-9 -52 -9 -114q0 -137 63.5 -245.5t145.5 -108.5q85 0 85 129q0 126 -83.5 233t-181.5 107zM625 -65q0 97 -48.5 189.5t-112.5 122.5q-19 -62 -19 -129q0 -113 36.5 -193t88.5 -80q55 0 55 90zM325 -12q0 108 -45 170q-37 -71 -37 -162q0 -53 13 -85t35 -32
q34 0 34 109z" />
    <glyph glyph-name="f_f" unicode="ff" horiz-adv-x="874" 
d="M908 548h-87v7q0 43 -27.5 66.5t-77.5 23.5q-55 0 -85 -28.5t-30 -79.5v-61h248v-75h-248v-401h-86v404h-292v-404h-86v401h-117v75h117v39q0 95 63 149t168 54q125 0 179 -75q52 75 169 75q92 0 142 -42t50 -120v-8zM223 516v-40h292v47q0 59 -36.5 90t-103.5 31
q-71 0 -111.5 -33.5t-40.5 -94.5z" />
    <glyph glyph-name="f_f_i" unicode="ffi" horiz-adv-x="1072" 
d="M600 509v-33h377v-476h-86v404h-291v-404h-87v404h-290v-404h-86v401h-117v75h117v39q0 95 62.5 149t167.5 54q135 0 185 -85q66 85 205 85q105 0 165 -44t64 -127h-93q-6 97 -141 97q-71 0 -111.5 -35.5t-40.5 -99.5zM223 516v-40h290v47q0 59 -36.5 90t-101.5 31
q-71 0 -111.5 -33.5t-40.5 -94.5z" />
    <glyph glyph-name="f_f_l" unicode="ffl" horiz-adv-x="1154" 
d="M716 718q92 0 142 -42t50 -120v-8h-87v7q0 43 -27.5 66.5t-77.5 23.5q-55 0 -85 -28.5t-30 -79.5v-61h248v-75h-248v-401h-86v404h-292v-404h-86v401h-117v75h117v39q0 95 63 149t168 54q125 0 179 -75q52 75 169 75zM974 0v700h86v-700h-86zM223 516v-40h292v47
q0 59 -36.5 90t-103.5 31q-71 0 -111.5 -33.5t-40.5 -94.5z" />
    <glyph glyph-name="f_i" unicode="fi" horiz-adv-x="695" 
d="M224 509v-33h377v-476h-87v404h-290v-404h-87v401h-117v75h117v33q0 95 63.5 152t174.5 57q104 0 163 -44t63 -127h-89q-4 97 -137 97q-71 0 -111 -35.5t-40 -99.5z" />
    <glyph glyph-name="f_l" unicode="fl" horiz-adv-x="777" 
d="M338 718q93 0 142.5 -41.5t49.5 -120.5v-8h-87v7q0 43 -27.5 66.5t-77.5 23.5q-55 0 -84.5 -28.5t-29.5 -79.5v-61h247v-75h-247v-401h-87v401h-117v75h117v60q0 83 54.5 132.5t146.5 49.5zM596 0v700h86v-700h-86z" />
    <glyph glyph-name="g_j.liga" unicode="gj" horiz-adv-x="976" 
d="M891 562h-101v118h101v-118zM327 -192q-127 0 -196 49t-76 143h88q11 -118 184 -118q91 0 140.5 40t49.5 113v11l28 131h-14q-47 -151 -216 -151q-154 0 -220 96q-40 57 -40 138t40 138q66 96 220 96q169 0 216 -151h14l-28 133h87v-413q0 -255 -277 -255zM727 -192h-40
v74h40q70 0 70 82v512h87v-511q0 -157 -157 -157zM333 99q113 0 159 65q28 41 28 96t-28 96q-46 65 -159 65q-114 0 -160 -65q-28 -41 -28 -96t28 -96q46 -65 160 -65z" />
    <glyph glyph-name="j_j.liga" unicode="jj" horiz-adv-x="570" 
d="M200 562h-102v118h102v-118zM485 562h-101v118h101v-118zM35 -192h-40v74h40q37 0 53.5 20t16.5 62v512h87v-511q0 -157 -157 -157zM321 -192h-40v74h40q70 0 70 82v512h86v-511q0 -157 -156 -157z" />
    <glyph glyph-name="q_j.liga" unicode="qj" horiz-adv-x="1019" 
d="M934 562h-102v118h102v-118zM641 -180h-87v180l21 135h-14q-51 -153 -235 -153q-161 0 -231 103q-43 61 -43 153t43 153q70 103 231 103q184 0 235 -153h14l-21 135h87v-656zM770 -192h-41v74h41q69 0 69 82v512h87v-511q0 -157 -156 -157zM349 57q127 0 176 72
q31 43 31 109t-31 109q-49 72 -176 72t-176 -72q-31 -43 -31 -109t31 -109q49 -72 176 -72z" />
    <glyph glyph-name=".notdef" horiz-adv-x="1141" 
d="M1036 830v-34q-132 -16 -217.5 -93t-116.5 -207h13q72 0 142.5 -54.5t114 -142.5t43.5 -178q0 -164 -120 -164q-96 0 -170 118.5t-74 270.5q0 60 7 108q-60 -16 -107.5 -62t-74.5 -113q75 -34 129.5 -134t54.5 -210q0 -56 -25 -90.5t-65 -34.5q-68 0 -114 88.5t-46 219.5
q0 74 21 139q-4 1 -11 1q-71 0 -121 -69q60 -66 60 -201q0 -143 -70 -143q-38 0 -59 40t-21 111q0 105 47 186q-16 11 -31 11q-34 0 -60 -37t-26 -85h-35q0 62 36.5 109t84.5 47q24 0 50 -16q60 81 145 81q7 0 23 -2q33 80 91 133t131 68q30 147 125 234t246 105zM715 461
q-13 0 -20 -1q-9 -52 -9 -114q0 -137 63.5 -245.5t145.5 -108.5q85 0 85 129q0 126 -83.5 233t-181.5 107zM625 -65q0 97 -48.5 189.5t-112.5 122.5q-19 -62 -19 -129q0 -113 36.5 -193t88.5 -80q55 0 55 90zM325 -12q0 108 -45 170q-37 -71 -37 -162q0 -53 13 -85t35 -32
q34 0 34 109z" />
    <glyph glyph-name=".null" horiz-adv-x="0" 
 />
    <glyph glyph-name="nonmarkingreturn" horiz-adv-x="333" 
 />
    <glyph glyph-name="CR" unicode="&#xd;" horiz-adv-x="295" 
 />
    <glyph glyph-name="space" unicode=" " horiz-adv-x="295" 
 />
    <glyph glyph-name="exclam" unicode="!" horiz-adv-x="260" 
d="M173 213h-87v487h87v-487zM190 0h-120v123h120v-123z" />
    <glyph glyph-name="quotedbl" unicode="&#x22;" horiz-adv-x="394" 
d="M125 472h-30l-24 89q-12 45 -12 72v81h102v-81q0 -25 -12 -71zM299 472h-30l-24 89q-12 45 -12 72v81h102v-81q0 -25 -12 -71z" />
    <glyph glyph-name="numbersign" unicode="#" horiz-adv-x="722" 
d="M714 498l-14 -67h-133l-34 -162h136l-14 -67h-136l-43 -202h-73l43 202h-223l-43 -202h-73l43 202h-142l14 67h142l34 162h-145l14 67h145l43 202h73l-43 -202h223l43 202h73l-43 -202h133zM237 269h223l34 162h-223z" />
    <glyph glyph-name="dollar" unicode="$" horiz-adv-x="737" 
d="M667 470h-93v8q0 76 -53.5 114t-151.5 38q-145 0 -186 -70q-13 -22 -13 -53q0 -27 11 -46q28 -48 132 -62l141 -15q142 -19 185 -95q21 -37 21 -88q0 -54 -24 -96q-57 -99 -229 -111v-101h-79v101q-121 8 -191 68t-70 161v13h92v-8q0 -76 56 -116t153 -40q145 0 185 70
q14 25 14 55q0 28 -11 47q-27 48 -129 61l-142 16q-143 18 -187 95q-21 36 -21 86q0 52 24 93q56 100 226 112v92h79v-91q122 -8 191.5 -66.5t69.5 -159.5v-12z" />
    <glyph glyph-name="percent" unicode="%" horiz-adv-x="894" 
d="M241 372q-88 0 -143 48.5t-55 121.5t55.5 121.5t142.5 48.5t142.5 -48.5t55.5 -121.5t-55 -121.5t-143 -48.5zM161 -11h-88l660 722h86zM241 437q57 0 90.5 29t33.5 76t-33.5 76.5t-90.5 29.5t-90.5 -29.5t-33.5 -76.5t33.5 -76t90.5 -29zM652 -12q-88 0 -143 48t-55 122
q0 73 55.5 121.5t142.5 48.5t142.5 -48.5t55.5 -121.5q0 -74 -55 -122t-143 -48zM652 52q57 0 91 29.5t34 76.5t-34 76.5t-91 29.5t-90.5 -29.5t-33.5 -76.5t33.5 -76.5t90.5 -29.5z" />
    <glyph glyph-name="ampersand" unicode="&#x26;" horiz-adv-x="686" 
d="M565 108l106 -108h-113l-49 49q-84 -67 -208 -67t-196 51t-72 133v1q0 118 164 181v12q-67 68 -92.5 110t-25.5 85v1q0 70 58.5 116t157.5 46q100 0 158 -43.5t58 -111.5v-1q0 -60 -41.5 -108.5t-139.5 -94.5v-12l176 -179q37 68 37 168v37h87v-37q0 -138 -65 -228z
M169 554v-1q0 -29 20.5 -58t83.5 -92q82 39 116.5 74.5t34.5 75.5v1q0 39 -34.5 64.5t-94.5 25.5q-58 0 -92 -25.5t-34 -64.5zM125 175q0 -54 47.5 -86.5t134.5 -32.5q89 0 146 48l-206 206q-122 -50 -122 -134v-1z" />
    <glyph glyph-name="quotesingle" unicode="'" horiz-adv-x="220" 
d="M125 472h-30l-24 89q-12 45 -12 72v81h102v-81q0 -25 -12 -71z" />
    <glyph glyph-name="parenleft" unicode="(" horiz-adv-x="433" 
d="M423 -71v-82q-161 50 -252.5 181.5t-91.5 307.5t91.5 307.5t252.5 181.5v-82q-122 -45 -190 -154.5t-68 -252.5t68 -252.5t190 -154.5z" />
    <glyph glyph-name="parenright" unicode=")" horiz-adv-x="433" 
d="M11 743v82q161 -50 252.5 -181.5t91.5 -307.5t-91.5 -307.5t-252.5 -181.5v82q122 45 189.5 154.5t67.5 252.5t-67.5 252.5t-189.5 154.5z" />
    <glyph glyph-name="asterisk" unicode="*" horiz-adv-x="644" 
d="M323 427l-127 -164l-74 60l143 142l-211 47l30 88l204 -75l-16 183h98l-15 -183l204 76l30 -89l-211 -47l142 -142l-73 -61z" />
    <glyph glyph-name="plus" unicode="+" horiz-adv-x="760" 
d="M417 338h268v-79h-268v-218h-81v218h-261v79h261v218h81v-218z" />
    <glyph glyph-name="comma" unicode="," horiz-adv-x="228" 
d="M54 -142v65q32 0 45 17t13 60h-58v123h120v-109q0 -156 -120 -156z" />
    <glyph glyph-name="hyphen" unicode="-" horiz-adv-x="485" 
d="M424 254h-363v80h363v-80z" />
    <glyph glyph-name="period" unicode="." horiz-adv-x="229" 
d="M174 0h-120v123h120v-123z" />
    <glyph glyph-name="slash" unicode="/" horiz-adv-x="634" 
d="M100 -110h-98l533 830h97z" />
    <glyph glyph-name="zero" unicode="0" 
d="M385 -18q-227 0 -294 187q-27 75 -27 181t27 181q67 187 294 187t294 -187q27 -75 27 -181t-27 -181q-68 -187 -294 -187zM385 61q158 0 206 136q22 60 22 153t-22 153q-48 136 -206 136q-159 0 -207 -136q-22 -64 -22 -153q0 -93 22 -153q50 -136 207 -136z" />
    <glyph glyph-name="one" unicode="1" horiz-adv-x="519" 
d="M405 0h-88v620h-14q-13 -195 -212 -195h-75v92h86q85 0 131.5 48t46.5 135h125v-700z" />
    <glyph glyph-name="two" unicode="2" horiz-adv-x="654" 
d="M602 0h-538v146l298 171q80 47 114 89t34 95q0 57 -36 93q-45 45 -143 45q-93 0 -144.5 -43t-53.5 -122v-25h-91v25q2 112 79 178t209 66q141 0 215 -72q57 -59 57 -146q0 -76 -41.5 -131t-137.5 -111l-282 -162v-14h461v-82z" />
    <glyph glyph-name="three" unicode="3" horiz-adv-x="670" 
d="M334 -18q-135 0 -212 61.5t-79 170.5v10h90v-10q2 -74 54 -113.5t146 -39.5q109 0 156 47q30 32 30 76q0 48 -29 76q-43 45 -161 45h-39v91h39q119 0 161 44q29 28 29 76q0 44 -30 76q-47 47 -156 47q-93 0 -145.5 -40t-54.5 -113v-10h-90v10q2 109 78.5 170.5
t212.5 61.5q154 0 227 -73q50 -50 50 -125q0 -65 -43 -110q-49 -49 -138 -53v-14q89 -4 138 -53q43 -45 43 -110q0 -75 -50 -125q-73 -73 -227 -73z" />
    <glyph glyph-name="four" unicode="4" horiz-adv-x="701" 
d="M527 327h158v-79h-158v-248h-87v248h-401v136l348 316h140v-373zM109 341v-14h331v306h-14z" />
    <glyph glyph-name="five" unicode="5" horiz-adv-x="668" 
d="M339 -18q-124 0 -199 57.5t-78 149.5v3h90v-2q4 -56 55 -93t133 -37q105 0 152 49q40 38 40 106q0 67 -38 105q-48 46 -141 46q-116 0 -158 -73h-112v407h540v-82h-457v-266h14q56 91 196 91q121 0 186 -65q62 -62 62 -164q0 -94 -62 -156q-74 -76 -223 -76z" />
    <glyph glyph-name="six" unicode="6" horiz-adv-x="705" 
d="M364 -18q-213 0 -275 169q-25 69 -25 168q0 131 30 212q66 187 289 187q123 0 195.5 -59t74.5 -156v-4h-90v4q-2 62 -50 99t-131 37q-230 0 -230 -320h14q28 59 85 91.5t137 32.5q132 0 205 -73q60 -58 60 -151q0 -95 -64 -159q-76 -78 -225 -78zM364 60q108 0 158 52
q40 38 40 101q0 61 -40 101q-51 51 -158 51q-105 0 -158 -51q-39 -41 -39 -101q0 -62 39 -101q52 -52 158 -52z" />
    <glyph glyph-name="seven" unicode="7" horiz-adv-x="613" 
d="M231 0h-109l391 604v14h-495v82h568v-137z" />
    <glyph glyph-name="eight" unicode="8" horiz-adv-x="684" 
d="M342 -18q-160 0 -235 73q-49 49 -49 125q0 67 43 110q47 48 134 53v14q-87 5 -134 53q-43 43 -43 110q0 76 49 125q75 73 235 73t235 -73q49 -49 49 -125q0 -67 -43 -110q-47 -48 -134 -53v-14q87 -5 134 -53q43 -43 43 -110q0 -76 -49 -125q-75 -73 -235 -73zM342 396
q120 0 164 44q29 29 29 76q0 45 -31 76q-47 47 -162 47t-162 -47q-31 -31 -31 -76q0 -47 29 -76q44 -44 164 -44zM342 61q115 0 162 47q31 31 31 76q0 47 -29 76q-45 45 -164 45t-164 -45q-29 -29 -29 -76q0 -45 31 -76q47 -47 162 -47z" />
    <glyph glyph-name="nine" unicode="9" horiz-adv-x="705" 
d="M341 718q213 0 275 -169q25 -69 25 -168q0 -127 -30 -212q-68 -187 -289 -187q-123 0 -196 58.5t-75 156.5v4h91v-4q2 -62 49.5 -99t131.5 -37q229 0 229 320h-14q-60 -124 -222 -124q-132 0 -205 73q-60 60 -60 151q0 95 64 159q78 78 226 78zM340 640q-108 0 -158 -52
q-39 -39 -39 -101q0 -60 39 -101q51 -51 158 -51t158 51q40 40 40 101q0 63 -40 101q-50 52 -158 52z" />
    <glyph glyph-name="colon" unicode=":" horiz-adv-x="229" 
d="M174 323h-120v123h120v-123zM175 0h-121v123h121v-123z" />
    <glyph glyph-name="semicolon" unicode=";" horiz-adv-x="228" 
d="M174 323h-120v123h120v-123zM54 -142v65q32 0 45 17t13 60h-58v123h120v-109q0 -156 -120 -156z" />
    <glyph glyph-name="less" unicode="&#x3c;" horiz-adv-x="803" 
d="M75 357l653 210v-88l-586 -184l586 -184v-88l-653 211v123z" />
    <glyph glyph-name="equal" unicode="=" horiz-adv-x="759" 
d="M684 371h-609v79h609v-79zM684 148h-609v79h609v-79z" />
    <glyph glyph-name="greater" unicode="&#x3e;" horiz-adv-x="803" 
d="M75 478v89l653 -211v-123l-653 -211v89l586 184z" />
    <glyph glyph-name="question" unicode="?" horiz-adv-x="568" 
d="M317 213h-86v64q0 52 17 82t64 54l60 27q68 33 68 94v1q0 48 -40 76t-111 28q-80 0 -125 -38t-45 -104v-22h-90v22q0 104 69 162.5t191 58.5q113 0 178.5 -49.5t66.5 -132.5v-1q0 -47 -25 -86t-71 -61l-62 -26q-37 -21 -48 -40t-11 -63v-46zM334 0h-120v123h120v-123z
" />
    <glyph glyph-name="at" unicode="@" horiz-adv-x="1053" 
d="M531 -100q-170 0 -290 72.5t-164 196.5q-24 65 -24 140t24 139q44 124 166.5 197t294.5 73q169 0 285 -66t157 -180q20 -55 20 -123q0 -62 -17 -107q-20 -56 -61.5 -87.5t-98.5 -31.5q-52 0 -83.5 26t-34.5 72v3h-14q-40 -122 -189 -122q-129 0 -185 80q-34 49 -34 122
t34 122q55 81 182 81q153 0 191 -123h14l-20 106h73v-204v-22q0 -79 67 -79t91 67q13 38 13 98q0 58 -16 103q-34 95 -131.5 149.5t-242.5 54.5q-146 0 -249.5 -61.5t-140.5 -165.5q-21 -58 -21 -121t21 -121q37 -105 138 -166t245 -61q85 0 158.5 27t111.5 74h80
q-50 -76 -140.5 -119t-209.5 -43zM518 172q96 0 131 52q22 33 22 80q0 48 -22 81q-37 52 -131 52q-96 0 -131 -52q-22 -33 -22 -81q0 -49 22 -80q37 -52 131 -52z" />
    <glyph glyph-name="A" unicode="A" horiz-adv-x="816" 
d="M793 0h-102l-111 250h-344l-111 -250h-102l319 700h133zM392 599l-119 -267h270l-119 267l-9 47h-14z" />
    <glyph glyph-name="B" unicode="B" horiz-adv-x="752" 
d="M526 357v-14q96 -11 135 -76q20 -35 20 -82q0 -53 -22 -90q-54 -95 -207 -95h-348v700h348q153 0 207 -95q22 -37 22 -90q0 -47 -20 -82q-39 -65 -135 -76zM446 618h-251v-229h251q97 0 128 55q14 25 14 59q0 37 -14 61q-32 54 -128 54zM574 136q14 24 14 61q0 34 -14 59
q-33 55 -128 55h-251v-229h251q95 0 128 54z" />
    <glyph glyph-name="C" unicode="C" horiz-adv-x="915" 
d="M470 -19q-142 0 -248 62t-146 171q-23 59 -23 136t23 136q40 110 146.5 171.5t253.5 61.5q163 0 267.5 -74.5t115.5 -194.5h-93q-15 85 -92.5 136t-197.5 51q-114 0 -196.5 -47.5t-113.5 -133.5q-18 -48 -18 -106t18 -106q31 -85 113.5 -133t194.5 -48q116 0 189 50
t92 137h93q-18 -121 -117.5 -195t-260.5 -74z" />
    <glyph glyph-name="D" unicode="D" horiz-adv-x="864" 
d="M439 0h-335v700h335q131 0 222.5 -56t127.5 -158q22 -64 22 -136q0 -73 -22 -137q-36 -101 -127.5 -157t-222.5 -56zM195 618v-536h253q93 0 158 43t92 118q18 48 18 107q0 61 -19 109q-27 74 -92 116.5t-157 42.5h-253z" />
    <glyph glyph-name="E" unicode="E" horiz-adv-x="686" 
d="M615 0h-511v700h511v-82h-420v-225h410v-82h-410v-229h420v-82z" />
    <glyph glyph-name="F" unicode="F" horiz-adv-x="652" 
d="M195 0h-91v700h511v-82h-420v-225h402v-82h-402v-311z" />
    <glyph glyph-name="G" unicode="G" horiz-adv-x="937" 
d="M450 -19q-131 0 -233.5 60t-140.5 167q-23 65 -23 141q0 77 23 137q40 110 147.5 171.5t256.5 61.5q164 0 269.5 -73.5t118.5 -191.5h-94q-15 85 -93 134t-200 49q-118 0 -201 -47.5t-114 -133.5q-18 -48 -18 -107q0 -63 18 -111q30 -83 110 -129t189 -46q122 0 200 58
t92 155h-301v82h388v-358h-91l24 182h-14q-27 -94 -109.5 -147.5t-203.5 -53.5z" />
    <glyph glyph-name="H" unicode="H" horiz-adv-x="875" 
d="M680 393v307h91v-700h-91v311h-485v-311h-91v700h91v-307h485z" />
    <glyph glyph-name="I" unicode="I" horiz-adv-x="299" 
d="M195 0h-91v700h91v-700z" />
    <glyph glyph-name="J" unicode="J" horiz-adv-x="671" 
d="M310 -19q-270 0 -270 270v105h91v-105q0 -188 179 -188q90 0 133.5 47.5t43.5 147.5v442h90v-442q0 -135 -68.5 -206t-198.5 -71z" />
    <glyph glyph-name="K" unicode="K" horiz-adv-x="761" 
d="M620 700h123l-340 -321l335 -379h-128l-279 317l-136 -128v-189h-91v700h91v-361l-26 -56h14z" />
    <glyph glyph-name="L" unicode="L" horiz-adv-x="636" 
d="M611 0h-507v700h91v-618h416v-82z" />
    <glyph glyph-name="M" unicode="M" horiz-adv-x="1091" 
d="M194 0h-90v700h147l276 -581l11 -57h14l11 57l276 581h147v-700h-89v638h-14l-15 -92l-263 -546h-119l-263 546l-15 92h-14v-638z" />
    <glyph glyph-name="N" unicode="N" horiz-adv-x="875" 
d="M195 0h-91v700h138l400 -546l24 -92h14v638h91v-700h-138l-400 547l-24 91h-14v-638z" />
    <glyph glyph-name="O" unicode="O" horiz-adv-x="964" 
d="M483 -19q-152 0 -259.5 62.5t-147.5 172.5q-23 60 -23 134t23 134q40 109 147.5 172t258.5 63t258.5 -63t147.5 -172q23 -60 23 -134t-23 -134q-39 -109 -146 -172t-259 -63zM482 63q119 0 202 48.5t114 134.5q18 48 18 104t-18 104q-30 85 -113.5 134t-202.5 49
t-202.5 -49t-113.5 -134q-18 -48 -18 -104t18 -104q31 -85 114.5 -134t201.5 -49z" />
    <glyph glyph-name="P" unicode="P" horiz-adv-x="713" 
d="M654 604q25 -44 25 -104t-25 -104q-56 -97 -200 -97h-259v-299h-91v700h350q144 0 200 -96zM570 436q16 28 16 64q0 35 -16 63q-31 55 -120 55h-255v-237h255q88 0 120 55z" />
    <glyph glyph-name="Q" unicode="Q" horiz-adv-x="964" 
d="M888 484q23 -60 23 -134t-23 -134q-36 -100 -129 -161.5t-226 -71.5v-39h246v-84h-210q-60 0 -88.5 24.5t-28.5 82.5v15q-140 6 -239 68t-137 166q-23 60 -23 134t23 134q40 109 147.5 172t258.5 63t258.5 -63t147.5 -172zM798 246q18 48 18 104t-18 104
q-30 85 -113.5 134t-202.5 49t-202.5 -49t-113.5 -134q-18 -48 -18 -104t18 -104q31 -85 114.5 -134t201.5 -49q119 0 202 48.5t114 134.5z" />
    <glyph glyph-name="R" unicode="R" horiz-adv-x="734" 
d="M410 322v-14l25 -14l244 -294h-122l-254 315h-108v-315h-91v700h347q151 0 204 -90q24 -42 24 -102q0 -56 -23 -97q-52 -89 -215 -89h-31zM453 618h-258v-224h257q89 0 119 52q15 26 15 61q0 36 -14 58q-30 53 -119 53z" />
    <glyph glyph-name="S" unicode="S" horiz-adv-x="755" 
d="M373 -19q-140 0 -223.5 62.5t-83.5 174.5v13h96v-8q0 -79 57.5 -120t157.5 -41q150 0 190 72q15 26 15 57q0 30 -11 49q-29 49 -134 63l-146 16q-147 17 -192 98q-22 37 -22 89q0 51 24 96q33 55 105.5 86t174.5 31q140 0 222 -61t82 -173v-13h-96v9q0 78 -55.5 117.5
t-156.5 39.5q-148 0 -191 -72q-14 -25 -14 -55q0 -25 12 -48q28 -49 136 -63l146 -16q145 -19 190 -98q21 -36 21 -91q0 -56 -24 -98q-32 -56 -105 -86t-175 -30z" />
    <glyph glyph-name="T" unicode="T" horiz-adv-x="689" 
d="M14 700h660v-82h-284v-618h-91v618h-285v82z" />
    <glyph glyph-name="U" unicode="U" horiz-adv-x="838" 
d="M419 -19q-151 0 -238 80t-87 219v420h94v-418q0 -101 61.5 -159t169.5 -58t169.5 58t61.5 159v418h94v-420q0 -139 -87 -219t-238 -80z" />
    <glyph glyph-name="V" unicode="V" horiz-adv-x="769" 
d="M455 0h-141l-299 700h104l251 -605l7 -42h15l7 42l251 605h104z" />
    <glyph glyph-name="W" unicode="W" horiz-adv-x="1168" 
d="M397 0h-145l-220 700h100l180 -585l8 -61h14l8 61l171 585h142l171 -585l8 -61h14l8 61l180 585h100l-221 -700h-144l-173 589l-7 50h-14l-8 -50z" />
    <glyph glyph-name="X" unicode="X" horiz-adv-x="769" 
d="M143 0h-123l299 353l-299 347h120l227 -265l9 -34h16l9 34l228 265h120l-300 -347l300 -353h-122l-225 270l-10 33h-15l-9 -33z" />
    <glyph glyph-name="Y" unicode="Y" horiz-adv-x="740" 
d="M612 700h113l-310 -443v-257h-91v257l-309 443h113l229 -333l6 -35h14l6 35z" />
    <glyph glyph-name="Z" unicode="Z" horiz-adv-x="743" 
d="M681 0h-619v135l536 469v14h-536v82h619v-141l-531 -463v-14h531v-82z" />
    <glyph glyph-name="bracketleft" unicode="[" horiz-adv-x="439" 
d="M428 790v-75h-224v-792h224v-75h-307v942h307z" />
    <glyph glyph-name="backslash" unicode="\" horiz-adv-x="627" 
d="M624 -110h-97l-525 830h97z" />
    <glyph glyph-name="bracketright" unicode="]" horiz-adv-x="439" 
d="M318 790v-942h-307v75h225v792h-225v75h307z" />
    <glyph glyph-name="asciicircum" unicode="^" horiz-adv-x="664" 
d="M146 349h-103l223 351h132l223 -351h-104l-177 293h-15z" />
    <glyph glyph-name="underscore" unicode="_" horiz-adv-x="647" 
d="M642 -69h-637v71h637v-71z" />
    <glyph glyph-name="grave" unicode="`" horiz-adv-x="600" 
d="M395 541h-75l-109 150h104z" />
    <glyph glyph-name="a" unicode="a" horiz-adv-x="635" 
d="M308 494q122 0 183.5 -49t61.5 -141v-304h-88l22 138h-14q-19 -76 -79 -116t-151 -40q-97 0 -142 47q-36 36 -36 93q0 59 35 93q44 45 145 50l222 10v31q0 113 -161 113q-44 0 -77 -10t-48.5 -22t-25 -30.5t-10.5 -26t-2 -16.5v-3h-88v3q0 12 2 27t16 44.5t38.5 51.5
t75.5 39.5t121 17.5zM260 54q98 0 152 49.5t55 105.5l-212 -14q-59 -4 -83 -28q-17 -16 -17 -44q0 -27 17 -44q25 -25 88 -25z" />
    <glyph glyph-name="b" unicode="b" horiz-adv-x="734" 
d="M408 -18q-184 0 -235 153h-14l21 -135h-86v700h86v-224l-21 -135h14q51 153 235 153q161 0 232 -103q42 -60 42 -153t-42 -153q-71 -103 -232 -103zM386 57q127 0 176 72q30 42 30 109t-30 109q-49 72 -176 72q-126 0 -177 -72q-30 -42 -30 -109t30 -109q51 -72 177 -72z
" />
    <glyph glyph-name="c" unicode="c" horiz-adv-x="664" 
d="M336 -18q-173 0 -246 106q-41 59 -41 148q0 90 42 151q74 107 252 107q120 0 194 -52.5t80 -138.5h-87q-11 55 -59 85.5t-128 30.5q-124 0 -174 -71q-30 -42 -30 -111q0 -66 29 -110q49 -70 170 -70q78 0 124.5 30t57.5 86h87q-8 -87 -80.5 -139t-190.5 -52z" />
    <glyph glyph-name="d" unicode="d" horiz-adv-x="734" 
d="M326 -18q-161 0 -231 103q-43 61 -43 153t43 153q70 103 231 103q184 0 235 -153h14l-21 135v224h87v-700h-87l21 135h-14q-51 -153 -235 -153zM349 57q127 0 176 72q31 43 31 109t-31 109q-49 72 -176 72t-176 -72q-31 -43 -31 -109t31 -109q49 -72 176 -72z" />
    <glyph glyph-name="e" unicode="e" horiz-adv-x="650" 
d="M602 250v-34h-464q3 -53 29 -90q48 -70 170 -70q137 0 177 89h88q-18 -73 -89.5 -118t-174.5 -45q-177 0 -248 104q-41 61 -41 150q0 88 44 153q73 105 236 105q131 0 202 -65t71 -179zM141 284h370q-5 66 -51 101.5t-131 35.5q-114 -2 -163 -71q-19 -29 -25 -66z" />
    <glyph glyph-name="f" unicode="f" horiz-adv-x="496" 
d="M530 548h-87v7q0 43 -27.5 66.5t-77.5 23.5q-55 0 -84.5 -28.5t-29.5 -79.5v-61h247v-75h-247v-401h-87v401h-117v75h117v60q0 83 54.5 132.5t146.5 49.5q93 0 142.5 -41.5t49.5 -120.5v-8z" />
    <glyph glyph-name="g" unicode="g" horiz-adv-x="691" 
d="M327 -192q-127 0 -196 49t-76 143h88q11 -118 184 -118q91 0 140.5 40t49.5 113v11l28 131h-14q-47 -151 -216 -151q-154 0 -220 96q-40 57 -40 138t40 138q66 96 220 96q169 0 216 -151h14l-28 133h87v-413q0 -255 -277 -255zM333 99q113 0 159 65q28 41 28 96t-28 96
q-46 65 -159 65q-114 0 -160 -65q-28 -41 -28 -96t28 -96q46 -65 160 -65z" />
    <glyph glyph-name="h" unicode="h" horiz-adv-x="692" 
d="M180 0h-86v700h86v-224l-21 -144h14q46 162 218 162q108 0 163.5 -55.5t55.5 -163.5v-275h-87v268q0 148 -156 148q-87 0 -137 -49.5t-50 -133.5v-233z" />
    <glyph glyph-name="i" unicode="i" horiz-adv-x="274" 
d="M188 562h-101v118h101v-118zM180 0h-86v476h86v-476z" />
    <glyph glyph-name="j" unicode="j" horiz-adv-x="303" 
d="M217 562h-101v118h101v-118zM34 -192q-153 0 -168 131v1h89q6 -59 80 -59q42 0 64.5 26t22.5 74v495h87v-479q0 -93 -44.5 -141t-130.5 -48z" />
    <glyph glyph-name="k" unicode="k" horiz-adv-x="629" 
d="M495 476h119l-257 -214l252 -262h-122l-199 210l-108 -89v-121h-86v700h86v-440l-26 -51h14z" />
    <glyph glyph-name="l" unicode="l" horiz-adv-x="274" 
d="M180 0h-86v700h86v-700z" />
    <glyph glyph-name="m" unicode="m" horiz-adv-x="1009" 
d="M180 0h-86v476h86l-21 -142h14q43 160 189 160q71 0 118 -43t49 -117h14q41 160 194 160q93 0 141.5 -53.5t48.5 -156.5v-284h-87v271q0 145 -128 145q-75 0 -117 -48.5t-42 -129.5v-238h-86v271q0 71 -34.5 108t-94.5 37q-75 0 -116.5 -48.5t-41.5 -130.5v-237z" />
    <glyph glyph-name="n" unicode="n" horiz-adv-x="692" 
d="M180 0h-86v476h86l-21 -144h14q46 162 217 162q108 0 164 -56t56 -163v-275h-87v268q0 148 -156 148q-87 0 -137 -49.5t-50 -133.5v-233z" />
    <glyph glyph-name="o" unicode="o" horiz-adv-x="698" 
d="M349 -18q-88 0 -155.5 29.5t-103.5 83.5q-41 61 -41 143q0 84 41 143q36 54 103.5 83.5t155.5 29.5t155.5 -29.5t103.5 -83.5q42 -61 42 -143t-42 -143q-36 -54 -103.5 -83.5t-155.5 -29.5zM349 57q128 0 181 77q30 44 30 104t-30 104q-53 77 -181 77t-181 -77
q-29 -43 -29 -104t29 -104q53 -77 181 -77z" />
    <glyph glyph-name="p" unicode="p" horiz-adv-x="734" 
d="M180 -180h-86v656h86l-21 -135h14q51 153 235 153q161 0 232 -103q42 -60 42 -153t-42 -153q-71 -103 -232 -103q-184 0 -235 153h-14l21 -135v-180zM386 57q127 0 176 72q30 42 30 109t-30 109q-49 72 -176 72q-126 0 -177 -72q-30 -42 -30 -109t30 -109q51 -72 177 -72
z" />
    <glyph glyph-name="q" unicode="q" horiz-adv-x="734" 
d="M641 -180h-87v180l21 135h-14q-51 -153 -235 -153q-161 0 -231 103q-43 61 -43 153t43 153q70 103 231 103q184 0 235 -153h14l-21 135h87v-656zM349 57q127 0 176 72q31 43 31 109t-31 109q-49 72 -176 72t-176 -72q-31 -43 -31 -109t31 -109q49 -72 176 -72z" />
    <glyph glyph-name="r" unicode="r" horiz-adv-x="576" 
d="M180 0h-86v476h86l-24 -150h15q38 168 190 168q88 0 133.5 -46.5t45.5 -131.5v-76h-90v51q0 64 -29 94t-93 30q-72 0 -110 -47t-38 -134v-234z" />
    <glyph glyph-name="s" unicode="s" horiz-adv-x="595" 
d="M294 -18q-109 0 -171.5 44.5t-62.5 122.5v4h87v-4q0 -47 39.5 -71.5t110.5 -24.5q90 0 123 31q17 17 17 43q0 29 -21 45t-73 23l-116 14q-160 21 -160 135q0 56 37 93q57 57 194 57q113 0 173.5 -44t60.5 -123v-4h-87v4q0 96 -150 96q-90 0 -123 -31q-17 -17 -17 -43
q0 -54 95 -66l116 -14q83 -12 121 -45.5t38 -91.5q0 -56 -37 -93q-57 -57 -194 -57z" />
    <glyph glyph-name="t" unicode="t" horiz-adv-x="573" 
d="M528 476v-75h-304v-236q0 -52 27.5 -79.5t79.5 -27.5q58 0 84 29t26 90v58h87v-60q0 -92 -50.5 -142t-145.5 -50q-195 0 -195 181v237h-117v75h117v97l87 41v-138h304z" />
    <glyph glyph-name="u" unicode="u" horiz-adv-x="682" 
d="M296 -18q-106 0 -160 55.5t-54 163.5v275h87v-268q0 -148 151 -148q84 0 132.5 49.5t48.5 133.5v233h87v-476h-87l22 144h-14q-52 -162 -213 -162z" />
    <glyph glyph-name="v" unicode="v" horiz-adv-x="625" 
d="M381 0h-136l-228 476h100l181 -393l7 -30h16l6 30l181 393h100z" />
    <glyph glyph-name="w" unicode="w" horiz-adv-x="950" 
d="M336 0h-134l-174 476h95l133 -383l6 -40h16l6 40l121 383h140l121 -383l6 -40h16l6 40l133 383h95l-174 -476h-134l-126 388l-5 35h-16l-5 -35z" />
    <glyph glyph-name="x" unicode="x" horiz-adv-x="611" 
d="M144 0h-116l214 238l-214 238h116l149 -170l5 -30h15l5 30l148 170h117l-215 -238l215 -238h-117l-148 166l-5 30h-16l-5 -30z" />
    <glyph glyph-name="y" unicode="y" horiz-adv-x="625" 
d="M336 108l171 368h103l-258 -526q-35 -78 -75.5 -110t-106.5 -32q-73 0 -115 34t-42 95v12h91v-11q0 -28 17.5 -43t49.5 -15q31 0 52.5 16t39.5 54l44 95h-52l-237 431h103l198 -368h17z" />
    <glyph glyph-name="z" unicode="z" horiz-adv-x="601" 
d="M541 0h-481v131l398 256v14h-398v75h480v-131l-400 -256v-14h401v-75z" />
    <glyph glyph-name="braceleft" unicode="{" horiz-adv-x="426" 
d="M415 -151h-80q-81 0 -122 45t-41 106v192q0 34 -21 55t-59 21v107q38 0 59 20.5t21 54.5v191q0 61 41 105.5t122 44.5h80v-64l-80 -4q-83 -5 -83 -86v-214q0 -90 -93 -95v-14q93 -9 93 -95v-216q0 -81 83 -86l80 -4v-64z" />
    <glyph glyph-name="bar" unicode="|" horiz-adv-x="291" 
d="M186 -110h-82v831h82v-831z" />
    <glyph glyph-name="braceright" unicode="}" horiz-adv-x="426" 
d="M11 791h80q81 0 122 -44.5t41 -105.5v-193q0 -34 21 -54.5t59 -20.5v-107q-38 0 -59 -21t-21 -55v-190q0 -61 -41 -106t-122 -45h-80v64l80 4q83 5 83 86v214q0 90 93 95v15q-93 7 -93 94v216q0 81 -83 86l-80 4v64z" />
    <glyph glyph-name="asciitilde" unicode="~" horiz-adv-x="821" 
d="M122 238l-40 70q71 57 188 57q74 0 166.5 -28t134.5 -28q80 0 131 39l39 -70q-70 -49 -177 -49q-50 0 -140.5 28t-160.5 28q-85 0 -141 -47z" />
    <glyph glyph-name="uni00A0" unicode="&#xa0;" horiz-adv-x="295" 
 />
    <glyph glyph-name="exclamdown" unicode="&#xa1;" horiz-adv-x="260" 
d="M70 520h120v-123h-120v123zM86 307h88v-487h-88v487z" />
    <glyph glyph-name="cent" unicode="&#xa2;" horiz-adv-x="642" 
d="M327 64q74 0 119 29t56 82h83q-6 -75 -63 -123t-152 -58v-60h-77v59q-142 11 -204 100q-40 56 -40 143q0 85 41 145q63 89 203 100v62h77v-62q100 -8 160 -57t65 -124h-84q-10 53 -56.5 82.5t-122.5 29.5q-119 0 -168 -68q-29 -45 -29 -108q0 -62 29 -105q47 -67 163 -67
z" />
    <glyph glyph-name="sterling" unicode="&#xa3;" horiz-adv-x="691" 
d="M587 192l72 -30q-17 -83 -69.5 -122.5t-149.5 -39.5h-389v120q76 0 117 31.5t41 91.5q0 36 -16 70h-142v74h98q-44 71 -44 132q0 90 69 144.5t192 54.5q126 0 197.5 -63.5t71.5 -171.5h-90q0 73 -46.5 114.5t-132.5 41.5q-85 0 -127.5 -33t-42.5 -93q0 -22 8.5 -46
t16.5 -38t26 -42h269v-74h-229q14 -34 14 -73q0 -61 -39.5 -99.5t-113.5 -48.5v-14h293q64 0 97 25.5t49 88.5z" />
    <glyph glyph-name="currency" unicode="&#xa4;" horiz-adv-x="682" 
d="M600 238q0 -69 -48 -123l84 -75l-52 -54l-92 80q-67 -38 -151 -38q-85 0 -151 38l-91 -80l-52 55l83 75q-47 53 -47 122q0 66 45 121l-83 75l51 56l91 -82q67 40 154 40q86 0 155 -40l88 81l52 -55l-82 -74q46 -54 46 -122zM341 98q74 0 123.5 41t49.5 99q0 59 -49.5 100
t-123.5 41t-123 -41t-49 -100q0 -58 49.5 -99t122.5 -41z" />
    <glyph glyph-name="yen" unicode="&#xa5;" horiz-adv-x="740" 
d="M612 700h113l-259 -370h159v-69h-207l-3 -4v-84h210v-69h-210v-104h-91v104h-217v69h217v84l-3 4h-214v69h166l-258 370h113l229 -333l6 -35h14l6 35z" />
    <glyph glyph-name="brokenbar" unicode="&#xa6;" horiz-adv-x="291" 
d="M186 355h-82v363h82v-363zM186 -110h-82v365h82v-365z" />
    <glyph glyph-name="section" unicode="&#xa7;" horiz-adv-x="618" 
d="M305 -192q-113 0 -176 53.5t-63 148.5h88q0 -62 39.5 -95t115.5 -33q68 0 104.5 25t36.5 69v1q0 33 -24 54t-87 43l-132 37q-135 43 -135 141v1q0 50 37 85.5t99 47.5v14q-137 50 -137 151v1q0 76 62 121t171 45q117 0 180 -53t63 -148h-88q0 127 -153 127
q-69 0 -108 -24.5t-39 -64.5v-1q0 -67 117 -102l121 -34q75 -22 110 -57t35 -86v-1q0 -50 -39 -86.5t-104 -48.5v-14q73 -25 106 -60.5t33 -91.5v-1q0 -71 -62 -117.5t-171 -46.5zM259 177l66 -19q60 4 94.5 30.5t34.5 65.5v1q0 68 -104 97l-76 22q-54 -10 -83 -37t-29 -64
v-1q0 -69 97 -95z" />
    <glyph glyph-name="dieresis" unicode="&#xa8;" horiz-adv-x="409" 
d="M146 563h-98v103h98v-103zM357 563h-98v103h98v-103z" />
    <glyph glyph-name="copyright" unicode="&#xa9;" horiz-adv-x="1036" 
d="M518 -78q-209 0 -337 118.5t-128 308.5v1q0 191 128 309.5t337 118.5t337 -118.5t128 -309.5v-1q0 -190 -128 -308.5t-337 -118.5zM518 -18q179 0 288.5 101.5t109.5 265.5v1q0 165 -109.5 266.5t-288.5 101.5t-288.5 -101.5t-109.5 -266.5v-1q0 -164 109.5 -265.5
t288.5 -101.5zM513 144q-101 0 -166 57.5t-65 148.5q0 90 66.5 148t169.5 58q82 0 140 -36.5t77 -102.5h-80q-30 74 -137 74q-71 0 -114.5 -38.5t-42.5 -102.5q1 -65 42 -102.5t110 -37.5q108 0 136 72h81q-18 -64 -76 -101t-141 -37z" />
    <glyph glyph-name="ordfeminine" unicode="&#xaa;" horiz-adv-x="551" 
d="M261 715q103 0 154.5 -41.5t51.5 -117.5v-255h-75l19 116h-12q-16 -64 -66.5 -97.5t-126.5 -33.5q-80 0 -119 39q-30 30 -30 78q0 50 29 79q38 38 122 41l186 8v27q0 95 -135 95q-37 0 -64.5 -8.5t-40.5 -19t-21 -25t-9 -22t-1 -13.5v-3h-75v3q1 12 2.5 22.5t13.5 36.5
t32 43.5t63.5 32.5t101.5 15zM221 347q83 0 127.5 41.5t45.5 88.5l-178 -12q-51 -5 -70 -24q-14 -14 -14 -37q0 -22 15 -37q20 -20 74 -20z" />
    <glyph glyph-name="guillemotleft" unicode="&#xab;" horiz-adv-x="581" 
d="M281 54h-80v47q0 56 -30.5 88t-85.5 32h-13v88h13q55 0 85.5 32t30.5 88v47h80v-47q0 -75 -32 -114t-102 -43v-14q70 -5 102 -44t32 -113v-47zM497 54h-81v47q0 56 -30.5 88t-85.5 32h-13v88h13q55 0 85.5 32t30.5 88v47h81v-47q0 -150 -135 -157v-14q70 -5 102.5 -44
t32.5 -113v-47z" />
    <glyph glyph-name="logicalnot" unicode="&#xac;" horiz-adv-x="825" 
d="M750 96h-79v163h-596v79h675v-242z" />
    <glyph glyph-name="uni00AD" unicode="&#xad;" horiz-adv-x="485" 
d="M424 254h-363v80h363v-80z" />
    <glyph glyph-name="registered" unicode="&#xae;" horiz-adv-x="1036" 
d="M518 -78q-209 0 -337 118.5t-128 308.5v1q0 191 128 309.5t337 118.5t337 -118.5t128 -309.5v-1q0 -190 -128 -308.5t-337 -118.5zM518 -18q179 0 288.5 101.5t109.5 265.5v1q0 165 -109.5 266.5t-288.5 101.5t-288.5 -101.5t-109.5 -266.5v-1q0 -164 109.5 -265.5
t288.5 -101.5zM401 156h-68v388h251q69 0 109.5 -30.5t40.5 -80.5q0 -104 -148 -114v-12l23 -7l124 -144h-87l-127 157h-118v-157zM401 483v-115h167q92 0 92 59q0 26 -21 41t-58 15h-180z" />
    <glyph glyph-name="macron" unicode="&#xaf;" horiz-adv-x="600" 
d="M482 589h-359v61h359v-61z" />
    <glyph glyph-name="degree" unicode="&#xb0;" horiz-adv-x="573" 
d="M286 369q-97 0 -154 47.5t-57 126.5t57.5 127t153.5 48q97 0 154.5 -48t57.5 -127t-57.5 -126.5t-154.5 -47.5zM286 437q59 0 95.5 30t36.5 76t-36.5 76t-95.5 30t-94.5 -30t-35.5 -76t35.5 -76t94.5 -30z" />
    <glyph glyph-name="plusminus" unicode="&#xb1;" horiz-adv-x="760" 
d="M417 637v-207h268v-79h-268v-208h-81v208h-261v79h261v207h81zM684 0h-609v79h609v-79z" />
    <glyph glyph-name="uni00B2" unicode="&#xb2;" horiz-adv-x="487" 
d="M439 300h-380v111l200 116q55 33 78.5 61t23.5 62q0 36 -21 57q-27 29 -95 29q-60 0 -92.5 -28t-34.5 -81v-12h-77v13q1 82 55 128.5t149 46.5q107 0 157 -52q37 -39 37 -97q0 -55 -31 -95t-104 -84l-174 -97v-11h309v-67z" />
    <glyph glyph-name="uni00B3" unicode="&#xb3;" horiz-adv-x="497" 
d="M246 287q-94 0 -149 43t-56 118v7h77v-6q1 -47 35 -72t93 -25q72 0 101 31q20 20 20 50q0 29 -18 49q-32 30 -106 30h-30v68h30q79 0 106 29q18 18 18 48t-20 50q-29 31 -101 31q-59 0 -93 -26.5t-35 -76.5h-77q1 80 55.5 124t149.5 44q114 0 164 -52q35 -35 35 -87
q0 -46 -29 -75q-33 -33 -96 -38v-11q63 -5 95 -38q30 -30 30 -76q0 -52 -35 -87q-52 -52 -164 -52z" />
    <glyph glyph-name="acute" unicode="&#xb4;" horiz-adv-x="600" 
d="M292 541h-76l81 150h104z" />
    <glyph glyph-name="uni00B5" unicode="&#xb5;" horiz-adv-x="694" 
d="M513 243v233h87v-476h-87l22 144h-14q-52 -162 -213 -162q-96 0 -151 47l22 -209h-85v656h86v-268q0 -148 151 -148q84 0 133 49.5t49 133.5z" />
    <glyph glyph-name="paragraph" unicode="&#xb6;" horiz-adv-x="647" 
d="M320 -180h-82v494q-86 0 -143.5 54.5t-57.5 134.5q0 94 66.5 145.5t180.5 51.5h259v-880h-82v810h-141v-810z" />
    <glyph glyph-name="periodcentered" unicode="&#xb7;" horiz-adv-x="229" 
d="M174 235h-120v123h120v-123z" />
    <glyph glyph-name="cedilla" unicode="&#xb8;" horiz-adv-x="600" 
d="M310 -192q-55 0 -95 24.5t-44 77.5h65q9 -49 72 -49q61 0 61 36q0 14 -13 23t-36 9l-19 25l15 46h62l-11 -33q66 -15 66 -70q0 -39 -32.5 -64t-90.5 -25z" />
    <glyph glyph-name="uni00B9" unicode="&#xb9;" horiz-adv-x="403" 
d="M321 300h-76v417h-11q-9 -68 -45 -98.5t-102 -30.5h-53v80h51q63 0 97.5 32.5t34.5 89.5h104v-490z" />
    <glyph glyph-name="ordmasculine" unicode="&#xba;" horiz-adv-x="596" 
d="M298 287q-151 0 -215 94q-35 51 -35 118q0 68 35 119q64 94 215 94t215 -94q35 -49 35 -119q0 -67 -35 -118q-63 -94 -215 -94zM298 349q106 0 151 63q24 38 24 87q0 50 -24 87q-45 64 -151 64q-107 0 -150 -64q-25 -36 -25 -87q0 -50 25 -87q44 -63 150 -63z" />
    <glyph glyph-name="guillemotright" unicode="&#xbb;" horiz-adv-x="581" 
d="M84 476h80v-47q0 -56 31 -88t86 -32h13v-88h-13q-55 0 -86 -32t-31 -88v-47h-80v47q0 150 135 157v14q-70 5 -102.5 44t-32.5 113v47zM299 476h81v-47q0 -57 30.5 -88.5t85.5 -31.5h13v-88h-13q-55 0 -85.5 -31.5t-30.5 -88.5v-47h-81v47q0 150 135 157v14
q-70 5 -102.5 44t-32.5 113v47z" />
    <glyph glyph-name="onequarter" unicode="&#xbc;" horiz-adv-x="879" 
d="M126 -11h-87l667 722h87zM271 300h-66v314h-15q-12 -57 -45 -82.5t-92 -25.5h-35v70h35q68 0 98.5 29.5t30.5 94.5h89v-400zM766 0h-68v141h-222v88l196 171h94v-203h92v-56h-92v-141zM533 211v-14h165v147h-14z" />
    <glyph glyph-name="onehalf" unicode="&#xbd;" horiz-adv-x="904" 
d="M126 -11h-87l667 722h87zM271 300h-66v314h-15q-12 -57 -45 -82.5t-92 -25.5h-35v70h35q68 0 98.5 29.5t30.5 94.5h89v-400zM869 0h-325v97l174 93q46 25 64.5 46.5t18.5 48.5v1q0 32 -25 50.5t-70 18.5q-48 0 -76.5 -24t-28.5 -64h-69q0 65 46.5 105t126.5 40
q77 0 121 -34.5t44 -90.5v-1q0 -44 -25.5 -76t-90.5 -66l-137 -71v-15h252v-58z" />
    <glyph glyph-name="threequarters" unicode="&#xbe;" horiz-adv-x="969" 
d="M210 288q-78 0 -124.5 36t-46.5 102h67q0 -39 28 -60.5t76 -21.5t72.5 18t24.5 47v1q0 30 -23.5 46t-64.5 16h-35v56h35q41 0 64.5 16.5t23.5 44.5v1q0 29 -24.5 47.5t-72.5 18.5t-76 -21.5t-28 -60.5h-67q0 66 46.5 102t124.5 36q77 0 121 -32.5t44 -83.5v-1
q0 -34 -24 -58.5t-67 -29.5v-14q43 -7 67 -31t24 -57v-1q0 -51 -44 -83.5t-121 -32.5zM216 -11h-87l667 722h87zM856 0h-68v141h-222v88l196 171h94v-203h92v-56h-92v-141zM623 211v-14h165v147h-14z" />
    <glyph glyph-name="questiondown" unicode="&#xbf;" horiz-adv-x="554" 
d="M230 524h120v-123h-120v123zM247 311h86v-64q0 -52 -17 -82t-64 -54l-60 -27q-68 -33 -68 -94v-1q0 -48 40 -76t111 -28q80 0 125 38t45 104v22h90v-22q0 -104 -69 -162.5t-191 -58.5q-113 0 -178.5 49.5t-66.5 132.5v1q0 47 25 86t71 61l62 26q37 21 48 40t11 63v46z
" />
    <glyph glyph-name="Agrave" unicode="&#xc0;" horiz-adv-x="816" 
d="M377 865l73 -110h-84l-101 110h112zM793 0h-102l-111 250h-344l-111 -250h-102l319 700h133zM392 599l-119 -267h270l-119 267l-9 47h-14z" />
    <glyph glyph-name="Aacute" unicode="&#xc1;" horiz-adv-x="816" 
d="M441 865h102l-93 -110h-84zM793 0h-102l-111 250h-344l-111 -250h-102l319 700h133zM392 599l-119 -267h270l-119 267l-9 47h-14z" />
    <glyph glyph-name="Acircumflex" unicode="&#xc2;" horiz-adv-x="816" 
d="M492 757l-84 66l-85 -66h-102l138 110h98l138 -110h-103zM793 0h-102l-111 250h-344l-111 -250h-102l319 700h133zM392 599l-119 -267h270l-119 267l-9 47h-14z" />
    <glyph glyph-name="Atilde" unicode="&#xc3;" horiz-adv-x="816" 
d="M328 801q-22 0 -38.5 -11t-17.5 -28h-61q0 53 34.5 77.5t80.5 24.5q35 0 83.5 -21.5t79.5 -21.5q22 0 38.5 10.5t17.5 28.5h61q0 -53 -35 -77.5t-80 -24.5q-35 0 -83.5 21.5t-79.5 21.5zM793 0h-102l-111 250h-344l-111 -250h-102l319 700h133zM392 599l-119 -267h270
l-119 267l-9 47h-14z" />
    <glyph glyph-name="Adieresis" unicode="&#xc4;" horiz-adv-x="816" 
d="M249 860h102v-104h-102v104zM467 860h102v-104h-102v104zM793 0h-102l-111 250h-344l-111 -250h-102l319 700h133zM392 599l-119 -267h270l-119 267l-9 47h-14z" />
    <glyph glyph-name="Aring" unicode="&#xc5;" horiz-adv-x="816" 
d="M409 750q-57 0 -92 30t-35 78t35 78.5t92 30.5t92 -30t35 -78t-35 -78.5t-92 -30.5zM409 913q-31 0 -49 -15.5t-18 -38.5q0 -24 18 -39.5t49 -15.5t49 15.5t18 38.5q0 24 -18 39.5t-49 15.5zM793 0h-102l-111 250h-344l-111 -250h-102l319 700h133zM392 599l-119 -267
h270l-119 267l-9 47h-14z" />
    <glyph glyph-name="AE" unicode="&#xc6;" horiz-adv-x="1022" 
d="M951 700v-82h-357v-226h347v-82h-347v-228h357v-82h-447v258h-223l-153 -258h-105l429 700h499zM474 583l-147 -247h177v302h-14z" />
    <glyph glyph-name="Ccedilla" unicode="&#xc7;" horiz-adv-x="915" 
d="M474 63q116 0 189 50t92 137h93q-17 -117 -110 -190t-244 -79l-4 -14q66 -15 66 -70q0 -39 -33 -64t-91 -25q-55 0 -94.5 24.5t-43.5 77.5h65q9 -49 71 -49q61 0 61 36q0 32 -48 32l-20 25l9 28q-129 8 -224 69t-132 163q-23 59 -23 136t23 136q40 110 146.5 171.5
t253.5 61.5q163 0 267.5 -74.5t115.5 -194.5h-93q-15 85 -92.5 136t-197.5 51q-114 0 -196.5 -47.5t-113.5 -133.5q-18 -48 -18 -106t18 -106q31 -85 113.5 -133t194.5 -48z" />
    <glyph glyph-name="Egrave" unicode="&#xc8;" horiz-adv-x="686" 
d="M404 755h-84l-101 110h112zM615 0h-511v700h511v-82h-420v-225h410v-82h-410v-229h420v-82z" />
    <glyph glyph-name="Eacute" unicode="&#xc9;" horiz-adv-x="686" 
d="M405 755h-84l75 110h102zM615 0h-511v700h511v-82h-420v-225h410v-82h-410v-229h420v-82z" />
    <glyph glyph-name="Ecircumflex" unicode="&#xca;" horiz-adv-x="686" 
d="M278 757h-102l138 110h98l138 -110h-103l-84 66zM615 0h-511v700h511v-82h-420v-225h410v-82h-410v-229h420v-82z" />
    <glyph glyph-name="Edieresis" unicode="&#xcb;" horiz-adv-x="686" 
d="M305 756h-102v104h102v-104zM523 756h-102v104h102v-104zM615 0h-511v700h511v-82h-420v-225h410v-82h-410v-229h420v-82z" />
    <glyph glyph-name="Igrave" unicode="&#xcc;" horiz-adv-x="299" 
d="M190 755h-84l-101 110h112zM195 0h-91v700h91v-700z" />
    <glyph glyph-name="Iacute" unicode="&#xcd;" horiz-adv-x="299" 
d="M191 755h-84l75 110h102zM195 0h-91v700h91v-700z" />
    <glyph glyph-name="Icircumflex" unicode="&#xce;" horiz-adv-x="299" 
d="M64 757h-102l138 110h98l138 -110h-103l-84 66zM195 0h-91v700h91v-700z" />
    <glyph glyph-name="Idieresis" unicode="&#xcf;" horiz-adv-x="299" 
d="M91 756h-102v104h102v-104zM309 756h-102v104h102v-104zM195 0h-91v700h91v-700z" />
    <glyph glyph-name="Eth" unicode="&#xd0;" horiz-adv-x="864" 
d="M789 486q22 -64 22 -136q0 -73 -22 -137q-36 -101 -127.5 -157t-222.5 -56h-335v310h-95v79h95v311h335q131 0 222.5 -56t127.5 -158zM698 243q18 48 18 107q0 61 -19 109q-27 74 -92 116.5t-157 42.5h-253v-229h264v-79h-264v-228h253q93 0 158 43t92 118z" />
    <glyph glyph-name="Ntilde" unicode="&#xd1;" horiz-adv-x="875" 
d="M554 758q-35 0 -83.5 21.5t-79.5 21.5q-22 0 -38.5 -11t-17.5 -28h-61q0 53 34.5 77.5t80.5 24.5q35 0 83.5 -21.5t79.5 -21.5q22 0 38.5 10.5t17.5 28.5h61q0 -53 -35 -77.5t-80 -24.5zM195 0h-91v700h138l400 -546l24 -92h14v638h91v-700h-138l-400 547l-24 91h-14
v-638z" />
    <glyph glyph-name="Ograve" unicode="&#xd2;" horiz-adv-x="964" 
d="M524 755h-84l-101 110h112zM483 -19q-152 0 -259.5 62.5t-147.5 172.5q-23 60 -23 134t23 134q40 109 147.5 172t258.5 63t258.5 -63t147.5 -172q23 -60 23 -134t-23 -134q-39 -109 -146 -172t-259 -63zM482 63q119 0 202 48.5t114 134.5q18 48 18 104t-18 104
q-30 85 -113.5 134t-202.5 49t-202.5 -49t-113.5 -134q-18 -48 -18 -104t18 -104q31 -85 114.5 -134t201.5 -49z" />
    <glyph glyph-name="Oacute" unicode="&#xd3;" horiz-adv-x="964" 
d="M525 755h-84l75 110h102zM483 -19q-152 0 -259.5 62.5t-147.5 172.5q-23 60 -23 134t23 134q40 109 147.5 172t258.5 63t258.5 -63t147.5 -172q23 -60 23 -134t-23 -134q-39 -109 -146 -172t-259 -63zM482 63q119 0 202 48.5t114 134.5q18 48 18 104t-18 104
q-30 85 -113.5 134t-202.5 49t-202.5 -49t-113.5 -134q-18 -48 -18 -104t18 -104q31 -85 114.5 -134t201.5 -49z" />
    <glyph glyph-name="Ocircumflex" unicode="&#xd4;" horiz-adv-x="964" 
d="M398 757h-102l138 110h98l138 -110h-103l-84 66zM483 -19q-152 0 -259.5 62.5t-147.5 172.5q-23 60 -23 134t23 134q40 109 147.5 172t258.5 63t258.5 -63t147.5 -172q23 -60 23 -134t-23 -134q-39 -109 -146 -172t-259 -63zM482 63q119 0 202 48.5t114 134.5
q18 48 18 104t-18 104q-30 85 -113.5 134t-202.5 49t-202.5 -49t-113.5 -134q-18 -48 -18 -104t18 -104q31 -85 114.5 -134t201.5 -49z" />
    <glyph glyph-name="Otilde" unicode="&#xd5;" horiz-adv-x="964" 
d="M566 758q-35 0 -83.5 21.5t-79.5 21.5q-22 0 -38.5 -11t-17.5 -28h-61q0 53 34.5 77.5t80.5 24.5q35 0 83.5 -21.5t79.5 -21.5q22 0 38.5 10.5t17.5 28.5h61q0 -53 -35 -77.5t-80 -24.5zM483 -19q-152 0 -259.5 62.5t-147.5 172.5q-23 60 -23 134t23 134
q40 109 147.5 172t258.5 63t258.5 -63t147.5 -172q23 -60 23 -134t-23 -134q-39 -109 -146 -172t-259 -63zM482 63q119 0 202 48.5t114 134.5q18 48 18 104t-18 104q-30 85 -113.5 134t-202.5 49t-202.5 -49t-113.5 -134q-18 -48 -18 -104t18 -104q31 -85 114.5 -134
t201.5 -49z" />
    <glyph glyph-name="Odieresis" unicode="&#xd6;" horiz-adv-x="964" 
d="M426 756h-102v104h102v-104zM644 756h-102v104h102v-104zM483 -19q-152 0 -259.5 62.5t-147.5 172.5q-23 60 -23 134t23 134q40 109 147.5 172t258.5 63t258.5 -63t147.5 -172q23 -60 23 -134t-23 -134q-39 -109 -146 -172t-259 -63zM482 63q119 0 202 48.5t114 134.5
q18 48 18 104t-18 104q-30 85 -113.5 134t-202.5 49t-202.5 -49t-113.5 -134q-18 -48 -18 -104t18 -104q31 -85 114.5 -134t201.5 -49z" />
    <glyph glyph-name="multiply" unicode="&#xd7;" horiz-adv-x="718" 
d="M592 523l51 -59l-224 -180l219 -176l-51 -60l-231 185l-231 -185l-50 60l218 175l-218 175l51 60l230 -184z" />
    <glyph glyph-name="Oslash" unicode="&#xd8;" horiz-adv-x="964" 
d="M914 719l-112 -108q59 -53 86 -127q23 -60 23 -134t-23 -134q-39 -109 -146 -172t-259 -63q-156 0 -264 65l-68 -65h-104l113 109q-57 52 -84 126q-23 60 -23 134t23 134q40 109 147.5 172t258.5 63q154 0 262 -65l67 65h103zM166 246q19 -52 59 -93l454 438
q-81 46 -197 46q-119 0 -202.5 -49t-113.5 -134q-18 -48 -18 -104t18 -104zM798 246q18 48 18 104t-18 104q-20 56 -61 94l-453 -438q83 -47 198 -47q119 0 202 48.5t114 134.5z" />
    <glyph glyph-name="Ugrave" unicode="&#xd9;" horiz-adv-x="838" 
d="M460 755h-84l-101 110h112zM419 -19q-151 0 -238 80t-87 219v420h94v-418q0 -101 61.5 -159t169.5 -58t169.5 58t61.5 159v418h94v-420q0 -139 -87 -219t-238 -80z" />
    <glyph glyph-name="Uacute" unicode="&#xda;" horiz-adv-x="838" 
d="M460 755h-84l75 110h102zM419 -19q-151 0 -238 80t-87 219v420h94v-418q0 -101 61.5 -159t169.5 -58t169.5 58t61.5 159v418h94v-420q0 -139 -87 -219t-238 -80z" />
    <glyph glyph-name="Ucircumflex" unicode="&#xdb;" horiz-adv-x="838" 
d="M333 757h-102l138 110h98l138 -110h-103l-84 66zM419 -19q-151 0 -238 80t-87 219v420h94v-418q0 -101 61.5 -159t169.5 -58t169.5 58t61.5 159v418h94v-420q0 -139 -87 -219t-238 -80z" />
    <glyph glyph-name="Udieresis" unicode="&#xdc;" horiz-adv-x="838" 
d="M361 756h-102v104h102v-104zM579 756h-102v104h102v-104zM419 -19q-151 0 -238 80t-87 219v420h94v-418q0 -101 61.5 -159t169.5 -58t169.5 58t61.5 159v418h94v-420q0 -139 -87 -219t-238 -80z" />
    <glyph glyph-name="Yacute" unicode="&#xdd;" horiz-adv-x="740" 
d="M402 865h102l-93 -110h-84zM612 700h113l-310 -443v-257h-91v257l-309 443h113l229 -333l6 -35h14l6 35z" />
    <glyph glyph-name="Thorn" unicode="&#xde;" horiz-adv-x="725" 
d="M662 463q29 -50 29 -113t-29 -113q-30 -53 -88 -83t-134 -30h-245v-124h-91v700h91v-124h245q76 0 134 -30t88 -83zM574 273q19 32 19 77t-19 77q-39 67 -136 67h-243v-288h243q97 0 136 67z" />
    <glyph glyph-name="germandbls" unicode="&#xdf;" horiz-adv-x="652" 
d="M336 -18h-40v72h40q80 0 125.5 35t45.5 94v1q0 58 -45 91.5t-125 33.5h-26v85h26q80 0 125 34t45 91v1q0 56 -43 89t-117 33q-78 0 -122.5 -40t-44.5 -107v-495h-86v496q0 102 67.5 161.5t185.5 59.5q116 0 183.5 -52t67.5 -139v-1q0 -64 -48.5 -110t-129.5 -57v-14
q81 -9 129.5 -54.5t48.5 -110.5v-1q0 -89 -71 -142.5t-191 -53.5z" />
    <glyph glyph-name="agrave" unicode="&#xe0;" horiz-adv-x="635" 
d="M271 691l80 -150h-75l-109 150h104zM308 494q122 0 183.5 -49t61.5 -141v-304h-88l22 138h-14q-19 -76 -79 -116t-151 -40q-97 0 -142 47q-36 36 -36 93q0 59 35 93q44 45 145 50l222 10v31q0 113 -161 113q-44 0 -77 -10t-48.5 -22t-25 -30.5t-10.5 -26t-2 -16.5v-3h-88
v3q0 12 2 27t16 44.5t38.5 51.5t75.5 39.5t121 17.5zM260 54q98 0 152 49.5t55 105.5l-212 -14q-59 -4 -83 -28q-17 -16 -17 -44q0 -27 17 -44q25 -25 88 -25z" />
    <glyph glyph-name="aacute" unicode="&#xe1;" horiz-adv-x="635" 
d="M360 691h103l-108 -150h-76zM308 494q122 0 183.5 -49t61.5 -141v-304h-88l22 138h-14q-19 -76 -79 -116t-151 -40q-97 0 -142 47q-36 36 -36 93q0 59 35 93q44 45 145 50l222 10v31q0 113 -161 113q-44 0 -77 -10t-48.5 -22t-25 -30.5t-10.5 -26t-2 -16.5v-3h-88v3
q0 12 2 27t16 44.5t38.5 51.5t75.5 39.5t121 17.5zM260 54q98 0 152 49.5t55 105.5l-212 -14q-59 -4 -83 -28q-17 -16 -17 -44q0 -27 17 -44q25 -25 88 -25z" />
    <glyph glyph-name="acircumflex" unicode="&#xe2;" horiz-adv-x="635" 
d="M410 541l-96 101l-97 -101h-104l155 148h91l154 -148h-103zM308 494q122 0 183.5 -49t61.5 -141v-304h-88l22 138h-14q-19 -76 -79 -116t-151 -40q-97 0 -142 47q-36 36 -36 93q0 59 35 93q44 45 145 50l222 10v31q0 113 -161 113q-44 0 -77 -10t-48.5 -22t-25 -30.5
t-10.5 -26t-2 -16.5v-3h-88v3q0 12 2 27t16 44.5t38.5 51.5t75.5 39.5t121 17.5zM260 54q98 0 152 49.5t55 105.5l-212 -14q-59 -4 -83 -28q-17 -16 -17 -44q0 -27 17 -44q25 -25 88 -25z" />
    <glyph glyph-name="atilde" unicode="&#xe3;" horiz-adv-x="635" 
d="M233 616q-22 0 -38.5 -11t-17.5 -28h-61q0 53 34.5 77.5t80.5 24.5q35 0 84 -21.5t80 -21.5q22 0 38 10.5t17 28.5h61q0 -53 -34.5 -77.5t-80.5 -24.5q-35 0 -83.5 21.5t-79.5 21.5zM308 494q122 0 183.5 -49t61.5 -141v-304h-88l22 138h-14q-19 -76 -79 -116t-151 -40
q-97 0 -142 47q-36 36 -36 93q0 59 35 93q44 45 145 50l222 10v31q0 113 -161 113q-44 0 -77 -10t-48.5 -22t-25 -30.5t-10.5 -26t-2 -16.5v-3h-88v3q0 12 2 27t16 44.5t38.5 51.5t75.5 39.5t121 17.5zM260 54q98 0 152 49.5t55 105.5l-212 -14q-59 -4 -83 -28
q-17 -16 -17 -44q0 -27 17 -44q25 -25 88 -25z" />
    <glyph glyph-name="adieresis" unicode="&#xe4;" horiz-adv-x="635" 
d="M159 666h98v-103h-98v103zM370 666h98v-103h-98v103zM308 494q122 0 183.5 -49t61.5 -141v-304h-88l22 138h-14q-19 -76 -79 -116t-151 -40q-97 0 -142 47q-36 36 -36 93q0 59 35 93q44 45 145 50l222 10v31q0 113 -161 113q-44 0 -77 -10t-48.5 -22t-25 -30.5t-10.5 -26
t-2 -16.5v-3h-88v3q0 12 2 27t16 44.5t38.5 51.5t75.5 39.5t121 17.5zM260 54q98 0 152 49.5t55 105.5l-212 -14q-59 -4 -83 -28q-17 -16 -17 -44q0 -27 17 -44q25 -25 88 -25z" />
    <glyph glyph-name="aring" unicode="&#xe5;" horiz-adv-x="635" 
d="M314 542q-56 0 -92.5 30.5t-36.5 80.5t36.5 80.5t92.5 30.5q57 0 93.5 -30.5t36.5 -80.5t-36.5 -80.5t-93.5 -30.5zM314 711q-31 0 -49.5 -16t-18.5 -42t18.5 -41.5t49.5 -15.5t49.5 15.5t18.5 41.5t-18.5 42t-49.5 16zM308 494q122 0 183.5 -49t61.5 -141v-304h-88
l22 138h-14q-19 -76 -79 -116t-151 -40q-97 0 -142 47q-36 36 -36 93q0 59 35 93q44 45 145 50l222 10v31q0 113 -161 113q-44 0 -77 -10t-48.5 -22t-25 -30.5t-10.5 -26t-2 -16.5v-3h-88v3q0 12 2 27t16 44.5t38.5 51.5t75.5 39.5t121 17.5zM260 54q98 0 152 49.5t55 105.5
l-212 -14q-59 -4 -83 -28q-17 -16 -17 -44q0 -27 17 -44q25 -25 88 -25z" />
    <glyph glyph-name="ae" unicode="&#xe6;" horiz-adv-x="1045" 
d="M997 250v-34h-439q3 -53 29 -90q48 -70 157 -70q127 0 165 89h88q-18 -73 -86 -118t-166 -45q-78 0 -139.5 27t-95.5 77q-8 12 -11 18q-31 -59 -97 -90.5t-160 -31.5q-96 0 -141 47q-36 36 -36 93q0 59 35 93q42 44 145 50l221 10v11v20q0 113 -160 113q-77 0 -119 -28
t-44 -77v-3h-88v3q2 83 68 131.5t184 48.5q164 0 216 -91q35 44 92 67.5t121 23.5q125 0 193 -64.5t68 -179.5zM561 284h344q-9 137 -169 136q-103 0 -149 -66q-20 -27 -26 -70zM260 54q85 0 144.5 45t61.5 110l-211 -14q-59 -4 -83 -28q-17 -16 -17 -44q0 -27 17 -44
q25 -25 88 -25z" />
    <glyph glyph-name="ccedilla" unicode="&#xe7;" horiz-adv-x="664" 
d="M338 57q78 0 124.5 30t57.5 86h87q-7 -82 -71.5 -133t-171.5 -57l-5 -16q66 -15 66 -70q0 -39 -33 -64t-91 -25q-55 0 -94.5 24.5t-43.5 77.5h65q9 -49 71 -49q61 0 61 36q0 32 -48 32l-20 25l10 29q-147 11 -212 105q-41 59 -41 148q0 90 42 151q74 107 252 107
q120 0 194 -52.5t80 -138.5h-87q-11 55 -59 85.5t-128 30.5q-124 0 -174 -71q-30 -42 -30 -111q0 -66 29 -110q49 -70 170 -70z" />
    <glyph glyph-name="egrave" unicode="&#xe8;" horiz-adv-x="650" 
d="M289 691l80 -150h-75l-109 150h104zM602 250v-34h-464q3 -53 29 -90q48 -70 170 -70q137 0 177 89h88q-18 -73 -89.5 -118t-174.5 -45q-177 0 -248 104q-41 61 -41 150q0 88 44 153q73 105 236 105q131 0 202 -65t71 -179zM141 284h370q-5 66 -51 101.5t-131 35.5
q-114 -2 -163 -71q-19 -29 -25 -66z" />
    <glyph glyph-name="eacute" unicode="&#xe9;" horiz-adv-x="650" 
d="M378 691h103l-108 -150h-76zM602 250v-34h-464q3 -53 29 -90q48 -70 170 -70q137 0 177 89h88q-18 -73 -89.5 -118t-174.5 -45q-177 0 -248 104q-41 61 -41 150q0 88 44 153q73 105 236 105q131 0 202 -65t71 -179zM141 284h370q-5 66 -51 101.5t-131 35.5
q-114 -2 -163 -71q-19 -29 -25 -66z" />
    <glyph glyph-name="ecircumflex" unicode="&#xea;" horiz-adv-x="650" 
d="M428 541l-96 101l-97 -101h-104l155 148h91l154 -148h-103zM602 250v-34h-464q3 -53 29 -90q48 -70 170 -70q137 0 177 89h88q-18 -73 -89.5 -118t-174.5 -45q-177 0 -248 104q-41 61 -41 150q0 88 44 153q73 105 236 105q131 0 202 -65t71 -179zM141 284h370
q-5 66 -51 101.5t-131 35.5q-114 -2 -163 -71q-19 -29 -25 -66z" />
    <glyph glyph-name="edieresis" unicode="&#xeb;" horiz-adv-x="650" 
d="M177 666h98v-103h-98v103zM388 666h98v-103h-98v103zM602 250v-34h-464q3 -53 29 -90q48 -70 170 -70q137 0 177 89h88q-18 -73 -89.5 -118t-174.5 -45q-177 0 -248 104q-41 61 -41 150q0 88 44 153q73 105 236 105q131 0 202 -65t71 -179zM141 284h370q-5 66 -51 101.5
t-131 35.5q-114 -2 -163 -71q-19 -29 -25 -66z" />
    <glyph glyph-name="igrave" unicode="&#xec;" horiz-adv-x="274" 
d="M174 541h-75l-109 150h104zM180 0h-86v476h86v-476z" />
    <glyph glyph-name="iacute" unicode="&#xed;" horiz-adv-x="274" 
d="M178 541h-76l81 150h103zM180 0h-86v476h86v-476z" />
    <glyph glyph-name="icircumflex" unicode="&#xee;" horiz-adv-x="274" 
d="M40 541h-104l155 148h91l154 -148h-103l-96 101zM180 0h-86v476h86v-476z" />
    <glyph glyph-name="idieresis" unicode="&#xef;" horiz-adv-x="274" 
d="M80 563h-98v103h98v-103zM291 563h-98v103h98v-103zM180 0h-86v476h86v-476z" />
    <glyph glyph-name="eth" unicode="&#xf0;" horiz-adv-x="687" 
d="M577 643l-83 -29q140 -108 140 -330q0 -123 -52 -198q-72 -104 -242 -104q-175 0 -250 107q-41 61 -41 144q0 84 42 145q69 101 228 101q157 0 217 -117h14q-21 152 -139 221l-241 -77v58l166 52q-91 28 -226 28v73q202 0 326 -66l141 50v-58zM514 128q30 44 30 103
q0 61 -30 103q-49 71 -173 71t-173 -71q-30 -42 -30 -103t30 -103q49 -71 173 -71t173 71z" />
    <glyph glyph-name="ntilde" unicode="&#xf1;" horiz-adv-x="692" 
d="M448 573q-35 0 -83.5 21.5t-79.5 21.5q-22 0 -38.5 -11t-17.5 -28h-61q0 53 34.5 77.5t80.5 24.5q35 0 84 -21.5t80 -21.5q22 0 38 10.5t17 28.5h61q0 -53 -34.5 -77.5t-80.5 -24.5zM180 0h-86v476h86l-21 -144h14q46 162 217 162q108 0 164 -56t56 -163v-275h-87v268
q0 148 -156 148q-87 0 -137 -49.5t-50 -133.5v-233z" />
    <glyph glyph-name="ograve" unicode="&#xf2;" horiz-adv-x="698" 
d="M386 541h-75l-109 150h104zM349 -18q-88 0 -155.5 29.5t-103.5 83.5q-41 61 -41 143q0 84 41 143q36 54 103.5 83.5t155.5 29.5t155.5 -29.5t103.5 -83.5q42 -61 42 -143t-42 -143q-36 -54 -103.5 -83.5t-155.5 -29.5zM349 57q128 0 181 77q30 44 30 104t-30 104
q-53 77 -181 77t-181 -77q-29 -43 -29 -104t29 -104q53 -77 181 -77z" />
    <glyph glyph-name="oacute" unicode="&#xf3;" horiz-adv-x="698" 
d="M390 541h-76l81 150h103zM349 -18q-88 0 -155.5 29.5t-103.5 83.5q-41 61 -41 143q0 84 41 143q36 54 103.5 83.5t155.5 29.5t155.5 -29.5t103.5 -83.5q42 -61 42 -143t-42 -143q-36 -54 -103.5 -83.5t-155.5 -29.5zM349 57q128 0 181 77q30 44 30 104t-30 104
q-53 77 -181 77t-181 -77q-29 -43 -29 -104t29 -104q53 -77 181 -77z" />
    <glyph glyph-name="ocircumflex" unicode="&#xf4;" horiz-adv-x="698" 
d="M252 541h-104l155 148h91l154 -148h-103l-96 101zM349 -18q-88 0 -155.5 29.5t-103.5 83.5q-41 61 -41 143q0 84 41 143q36 54 103.5 83.5t155.5 29.5t155.5 -29.5t103.5 -83.5q42 -61 42 -143t-42 -143q-36 -54 -103.5 -83.5t-155.5 -29.5zM349 57q128 0 181 77
q30 44 30 104t-30 104q-53 77 -181 77t-181 -77q-29 -43 -29 -104t29 -104q53 -77 181 -77z" />
    <glyph glyph-name="otilde" unicode="&#xf5;" horiz-adv-x="698" 
d="M431 573q-35 0 -83.5 21.5t-79.5 21.5q-22 0 -38.5 -11t-17.5 -28h-61q0 53 34.5 77.5t80.5 24.5q34 0 83 -21.5t81 -21.5q22 0 38 10.5t17 28.5h61q0 -53 -34.5 -77.5t-80.5 -24.5zM349 -18q-88 0 -155.5 29.5t-103.5 83.5q-41 61 -41 143q0 84 41 143q36 54 103.5 83.5
t155.5 29.5t155.5 -29.5t103.5 -83.5q42 -61 42 -143t-42 -143q-36 -54 -103.5 -83.5t-155.5 -29.5zM349 57q128 0 181 77q30 44 30 104t-30 104q-53 77 -181 77t-181 -77q-29 -43 -29 -104t29 -104q53 -77 181 -77z" />
    <glyph glyph-name="odieresis" unicode="&#xf6;" horiz-adv-x="698" 
d="M292 563h-98v103h98v-103zM503 563h-98v103h98v-103zM349 -18q-88 0 -155.5 29.5t-103.5 83.5q-41 61 -41 143q0 84 41 143q36 54 103.5 83.5t155.5 29.5t155.5 -29.5t103.5 -83.5q42 -61 42 -143t-42 -143q-36 -54 -103.5 -83.5t-155.5 -29.5zM349 57q128 0 181 77
q30 44 30 104t-30 104q-53 77 -181 77t-181 -77q-29 -43 -29 -104t29 -104q53 -77 181 -77z" />
    <glyph glyph-name="divide" unicode="&#xf7;" horiz-adv-x="828" 
d="M472 435h-117v123h117v-123zM753 258h-678v79h678v-79zM472 31h-117v123h117v-123z" />
    <glyph glyph-name="oslash" unicode="&#xf8;" horiz-adv-x="698" 
d="M664 493l-84 -79q15 -14 28 -33q42 -61 42 -143t-42 -143q-36 -54 -103.5 -83.5t-155.5 -29.5q-107 0 -182 43l-42 -40h-90l82 77q-15 15 -27 33q-41 61 -41 143q0 84 41 143q36 54 103.5 83.5t155.5 29.5q106 0 181 -42l44 41h90zM168 134q1 -1 11 -14l290 274
q-50 25 -120 25q-128 0 -181 -77q-29 -43 -29 -104t29 -104zM530 134q30 44 30 104t-30 104q-4 7 -11 14l-291 -274q52 -25 121 -25q128 0 181 77z" />
    <glyph glyph-name="ugrave" unicode="&#xf9;" horiz-adv-x="682" 
d="M372 541h-75l-109 150h104zM296 -18q-106 0 -160 55.5t-54 163.5v275h87v-268q0 -148 151 -148q84 0 132.5 49.5t48.5 133.5v233h87v-476h-87l22 144h-14q-52 -162 -213 -162z" />
    <glyph glyph-name="uacute" unicode="&#xfa;" horiz-adv-x="682" 
d="M376 541h-76l81 150h103zM296 -18q-106 0 -160 55.5t-54 163.5v275h87v-268q0 -148 151 -148q84 0 132.5 49.5t48.5 133.5v233h87v-476h-87l22 144h-14q-52 -162 -213 -162z" />
    <glyph glyph-name="ucircumflex" unicode="&#xfb;" horiz-adv-x="682" 
d="M238 541h-104l155 148h91l154 -148h-103l-96 101zM296 -18q-106 0 -160 55.5t-54 163.5v275h87v-268q0 -148 151 -148q84 0 132.5 49.5t48.5 133.5v233h87v-476h-87l22 144h-14q-52 -162 -213 -162z" />
    <glyph glyph-name="udieresis" unicode="&#xfc;" horiz-adv-x="682" 
d="M278 563h-98v103h98v-103zM489 563h-98v103h98v-103zM296 -18q-106 0 -160 55.5t-54 163.5v275h87v-268q0 -148 151 -148q84 0 132.5 49.5t48.5 133.5v233h87v-476h-87l22 144h-14q-52 -162 -213 -162z" />
    <glyph glyph-name="yacute" unicode="&#xfd;" horiz-adv-x="625" 
d="M359 691h103l-108 -150h-76zM336 108l171 368h103l-258 -526q-35 -78 -75.5 -110t-106.5 -32q-73 0 -115 34t-42 95v12h91v-11q0 -28 17.5 -43t49.5 -15q31 0 52.5 16t39.5 54l44 95h-52l-237 431h103l198 -368h17z" />
    <glyph glyph-name="thorn" unicode="&#xfe;" horiz-adv-x="734" 
d="M640 391q42 -60 42 -153t-42 -153q-71 -103 -232 -103q-184 0 -235 153h-14l21 -135v-180h-86v880h86v-224l-21 -135h14q51 153 235 153q161 0 232 -103zM562 129q30 42 30 109t-30 109q-49 72 -176 72q-126 0 -177 -72q-30 -42 -30 -109t30 -109q51 -72 177 -72
q127 0 176 72z" />
    <glyph glyph-name="ydieresis" unicode="&#xff;" horiz-adv-x="625" 
d="M159 666h98v-103h-98v103zM370 666h98v-103h-98v103zM336 108l171 368h103l-258 -526q-35 -78 -75.5 -110t-106.5 -32q-73 0 -115 34t-42 95v12h91v-11q0 -28 17.5 -43t49.5 -15q31 0 52.5 16t39.5 54l44 95h-52l-237 431h103l198 -368h17z" />
    <glyph glyph-name="Amacron" unicode="&#x100;" horiz-adv-x="816" 
d="M238 837h340v-64h-340v64zM793 0h-102l-111 250h-344l-111 -250h-102l319 700h133zM392 599l-119 -267h270l-119 267l-9 47h-14z" />
    <glyph glyph-name="amacron" unicode="&#x101;" horiz-adv-x="635" 
d="M135 650h358v-61h-358v61zM308 494q122 0 183.5 -49t61.5 -141v-304h-88l22 138h-14q-19 -76 -79 -116t-151 -40q-97 0 -142 47q-36 36 -36 93q0 59 35 93q44 45 145 50l222 10v31q0 113 -161 113q-44 0 -77 -10t-48.5 -22t-25 -30.5t-10.5 -26t-2 -16.5v-3h-88v3
q0 12 2 27t16 44.5t38.5 51.5t75.5 39.5t121 17.5zM260 54q98 0 152 49.5t55 105.5l-212 -14q-59 -4 -83 -28q-17 -16 -17 -44q0 -27 17 -44q25 -25 88 -25z" />
    <glyph glyph-name="Abreve" unicode="&#x102;" horiz-adv-x="816" 
d="M409 752q-141 0 -170 110h81q2 -23 27 -38.5t62 -15.5q38 0 63 15.5t27 38.5h81q-29 -110 -171 -110zM793 0h-102l-111 250h-344l-111 -250h-102l319 700h133zM392 599l-119 -267h270l-119 267l-9 47h-14z" />
    <glyph glyph-name="abreve" unicode="&#x103;" horiz-adv-x="635" 
d="M315 542q-80 0 -130.5 38t-50.5 111h73q0 -44 30.5 -67.5t77.5 -23.5t77 23.5t30 67.5h73q0 -74 -50 -111.5t-130 -37.5zM308 494q122 0 183.5 -49t61.5 -141v-304h-88l22 138h-14q-19 -76 -79 -116t-151 -40q-97 0 -142 47q-36 36 -36 93q0 59 35 93q44 45 145 50
l222 10v31q0 113 -161 113q-44 0 -77 -10t-48.5 -22t-25 -30.5t-10.5 -26t-2 -16.5v-3h-88v3q0 12 2 27t16 44.5t38.5 51.5t75.5 39.5t121 17.5zM260 54q98 0 152 49.5t55 105.5l-212 -14q-59 -4 -83 -28q-17 -16 -17 -44q0 -27 17 -44q25 -25 88 -25z" />
    <glyph glyph-name="Aogonek" unicode="&#x104;" horiz-adv-x="816" 
d="M674 -68q0 -54 104 -54v-70q-92 0 -136 30t-44 79q0 66 85 100l-103 233h-344l-111 -250h-102l319 700h133l318 -700h-42q-41 -14 -59 -29.5t-18 -38.5zM392 599l-119 -267h270l-119 267l-9 47h-14z" />
    <glyph glyph-name="aogonek" unicode="&#x105;" horiz-adv-x="635" 
d="M553 0h-39q-41 -14 -59 -29.5t-18 -38.5q0 -54 104 -54v-70q-92 0 -136 30t-44 79q0 75 108 108l18 113h-14q-19 -76 -79 -116t-151 -40q-97 0 -142 47q-36 36 -36 93q0 59 35 93q44 45 145 50l222 10v31q0 113 -161 113q-44 0 -77 -10t-48.5 -22t-25 -30.5t-10.5 -26
t-2 -16.5v-3h-88v3q0 12 2 27t16 44.5t38.5 51.5t75.5 39.5t121 17.5q122 0 183.5 -49t61.5 -141v-304zM260 54q98 0 152 49.5t55 105.5l-212 -14q-59 -4 -83 -28q-17 -16 -17 -44q0 -27 17 -44q25 -25 88 -25z" />
    <glyph glyph-name="Cacute" unicode="&#x106;" horiz-adv-x="915" 
d="M518 755h-84l75 110h102zM470 -19q-142 0 -248 62t-146 171q-23 59 -23 136t23 136q40 110 146.5 171.5t253.5 61.5q163 0 267.5 -74.5t115.5 -194.5h-93q-15 85 -92.5 136t-197.5 51q-114 0 -196.5 -47.5t-113.5 -133.5q-18 -48 -18 -106t18 -106q31 -85 113.5 -133
t194.5 -48q116 0 189 50t92 137h93q-18 -121 -117.5 -195t-260.5 -74z" />
    <glyph glyph-name="cacute" unicode="&#x107;" horiz-adv-x="664" 
d="M383 541h-76l81 150h103zM336 -18q-173 0 -246 106q-41 59 -41 148q0 90 42 151q74 107 252 107q120 0 194 -52.5t80 -138.5h-87q-11 55 -59 85.5t-128 30.5q-124 0 -174 -71q-30 -42 -30 -111q0 -66 29 -110q49 -70 170 -70q78 0 124.5 30t57.5 86h87q-8 -87 -80.5 -139
t-190.5 -52z" />
    <glyph glyph-name="Ccircumflex" unicode="&#x108;" horiz-adv-x="915" 
d="M391 757h-102l138 110h98l138 -110h-103l-84 66zM470 -19q-142 0 -248 62t-146 171q-23 59 -23 136t23 136q40 110 146.5 171.5t253.5 61.5q163 0 267.5 -74.5t115.5 -194.5h-93q-15 85 -92.5 136t-197.5 51q-114 0 -196.5 -47.5t-113.5 -133.5q-18 -48 -18 -106t18 -106
q31 -85 113.5 -133t194.5 -48q116 0 189 50t92 137h93q-18 -121 -117.5 -195t-260.5 -74z" />
    <glyph glyph-name="ccircumflex" unicode="&#x109;" horiz-adv-x="664" 
d="M245 541h-104l155 148h91l154 -148h-103l-96 101zM336 -18q-173 0 -246 106q-41 59 -41 148q0 90 42 151q74 107 252 107q120 0 194 -52.5t80 -138.5h-87q-11 55 -59 85.5t-128 30.5q-124 0 -174 -71q-30 -42 -30 -111q0 -66 29 -110q49 -70 170 -70q78 0 124.5 30
t57.5 86h87q-8 -87 -80.5 -139t-190.5 -52z" />
    <glyph glyph-name="Cdotaccent" unicode="&#x10a;" horiz-adv-x="915" 
d="M528 755h-102v105h102v-105zM470 -19q-142 0 -248 62t-146 171q-23 59 -23 136t23 136q40 110 146.5 171.5t253.5 61.5q163 0 267.5 -74.5t115.5 -194.5h-93q-15 85 -92.5 136t-197.5 51q-114 0 -196.5 -47.5t-113.5 -133.5q-18 -48 -18 -106t18 -106q31 -85 113.5 -133
t194.5 -48q116 0 189 50t92 137h93q-18 -121 -117.5 -195t-260.5 -74z" />
    <glyph glyph-name="cdotaccent" unicode="&#x10b;" horiz-adv-x="664" 
d="M392 562h-101v118h101v-118zM336 -18q-173 0 -246 106q-41 59 -41 148q0 90 42 151q74 107 252 107q120 0 194 -52.5t80 -138.5h-87q-11 55 -59 85.5t-128 30.5q-124 0 -174 -71q-30 -42 -30 -111q0 -66 29 -110q49 -70 170 -70q78 0 124.5 30t57.5 86h87
q-8 -87 -80.5 -139t-190.5 -52z" />
    <glyph glyph-name="Ccaron" unicode="&#x10c;" horiz-adv-x="915" 
d="M525 757h-98l-138 110h103l84 -66l84 66h103zM470 -19q-142 0 -248 62t-146 171q-23 59 -23 136t23 136q40 110 146.5 171.5t253.5 61.5q163 0 267.5 -74.5t115.5 -194.5h-93q-15 85 -92.5 136t-197.5 51q-114 0 -196.5 -47.5t-113.5 -133.5q-18 -48 -18 -106t18 -106
q31 -85 113.5 -133t194.5 -48q116 0 189 50t92 137h93q-18 -121 -117.5 -195t-260.5 -74z" />
    <glyph glyph-name="ccaron" unicode="&#x10d;" horiz-adv-x="664" 
d="M387 541h-91l-155 150h104l97 -103l96 103h103zM336 -18q-173 0 -246 106q-41 59 -41 148q0 90 42 151q74 107 252 107q120 0 194 -52.5t80 -138.5h-87q-11 55 -59 85.5t-128 30.5q-124 0 -174 -71q-30 -42 -30 -111q0 -66 29 -110q49 -70 170 -70q78 0 124.5 30t57.5 86
h87q-8 -87 -80.5 -139t-190.5 -52z" />
    <glyph glyph-name="Dcaron" unicode="&#x10e;" horiz-adv-x="864" 
d="M440 757h-98l-138 110h103l84 -66l84 66h103zM439 0h-335v700h335q131 0 222.5 -56t127.5 -158q22 -64 22 -136q0 -73 -22 -137q-36 -101 -127.5 -157t-222.5 -56zM195 618v-536h253q93 0 158 43t92 118q18 48 18 107q0 61 -19 109q-27 74 -92 116.5t-157 42.5h-253z" />
    <glyph glyph-name="dcaron" unicode="&#x10f;" horiz-adv-x="734" 
d="M326 -18q-161 0 -231 103q-43 61 -43 153t43 153q70 103 231 103q184 0 235 -153h14l-21 135v224h87v-700h-87l21 135h-14q-51 -153 -235 -153zM738 536h-53l38 164h92zM349 57q127 0 176 72q31 43 31 109t-31 109q-49 72 -176 72t-176 -72q-31 -43 -31 -109t31 -109
q49 -72 176 -72z" />
    <glyph glyph-name="Dcroat" unicode="&#x110;" horiz-adv-x="864" 
d="M789 486q22 -64 22 -136q0 -73 -22 -137q-36 -101 -127.5 -157t-222.5 -56h-335v310h-95v79h95v311h335q131 0 222.5 -56t127.5 -158zM698 243q18 48 18 107q0 61 -19 109q-27 74 -92 116.5t-157 42.5h-253v-229h264v-79h-264v-228h253q93 0 158 43t92 118z" />
    <glyph glyph-name="dcroat" unicode="&#x111;" horiz-adv-x="734" 
d="M641 621h65v-58h-65v-563h-87l21 135h-14q-51 -153 -235 -153q-161 0 -231 103q-43 61 -43 153t43 153q70 103 231 103q184 0 235 -153h14l-21 135v87h-162v58h162v79h87v-79zM525 129q31 43 31 109t-31 109q-49 72 -176 72t-176 -72q-31 -43 -31 -109t31 -109
q49 -72 176 -72t176 72z" />
    <glyph glyph-name="Emacron" unicode="&#x112;" horiz-adv-x="686" 
d="M533 773h-340v64h340v-64zM615 0h-511v700h511v-82h-420v-225h410v-82h-410v-229h420v-82z" />
    <glyph glyph-name="emacron" unicode="&#x113;" horiz-adv-x="650" 
d="M153 650h358v-61h-358v61zM602 250v-34h-464q3 -53 29 -90q48 -70 170 -70q137 0 177 89h88q-18 -73 -89.5 -118t-174.5 -45q-177 0 -248 104q-41 61 -41 150q0 88 44 153q73 105 236 105q131 0 202 -65t71 -179zM141 284h370q-5 66 -51 101.5t-131 35.5
q-114 -2 -163 -71q-19 -29 -25 -66z" />
    <glyph glyph-name="Ebreve" unicode="&#x114;" horiz-adv-x="686" 
d="M363 752q-141 0 -170 110h81q2 -23 27 -38.5t62 -15.5q38 0 63 15.5t27 38.5h81q-29 -110 -171 -110zM615 0h-511v700h511v-82h-420v-225h410v-82h-410v-229h420v-82z" />
    <glyph glyph-name="ebreve" unicode="&#x115;" horiz-adv-x="650" 
d="M333 542q-80 0 -130.5 38t-50.5 111h73q0 -44 30.5 -67.5t77.5 -23.5t77 23.5t30 67.5h73q0 -74 -50 -111.5t-130 -37.5zM602 250v-34h-464q3 -53 29 -90q48 -70 170 -70q137 0 177 89h88q-18 -73 -89.5 -118t-174.5 -45q-177 0 -248 104q-41 61 -41 150q0 88 44 153
q73 105 236 105q131 0 202 -65t71 -179zM141 284h370q-5 66 -51 101.5t-131 35.5q-114 -2 -163 -71q-19 -29 -25 -66z" />
    <glyph glyph-name="Edotaccent" unicode="&#x116;" horiz-adv-x="686" 
d="M415 755h-102v105h102v-105zM615 0h-511v700h511v-82h-420v-225h410v-82h-410v-229h420v-82z" />
    <glyph glyph-name="edotaccent" unicode="&#x117;" horiz-adv-x="650" 
d="M281 680h101v-118h-101v118zM602 250v-34h-464q3 -53 29 -90q48 -70 170 -70q137 0 177 89h88q-18 -73 -89.5 -118t-174.5 -45q-177 0 -248 104q-41 61 -41 150q0 88 44 153q73 105 236 105q131 0 202 -65t71 -179zM141 284h370q-5 66 -51 101.5t-131 35.5
q-114 -2 -163 -71q-19 -29 -25 -66z" />
    <glyph glyph-name="Eogonek" unicode="&#x118;" horiz-adv-x="686" 
d="M615 700v-82h-420v-225h410v-82h-410v-229h420v-82h-42q-41 -14 -59 -29.5t-18 -38.5q0 -54 104 -54v-70q-92 0 -136 30t-44 79q0 51 51 83h-367v700h511z" />
    <glyph glyph-name="eogonek" unicode="&#x119;" horiz-adv-x="650" 
d="M602 250v-34h-464q3 -53 29 -90q48 -70 170 -70q137 0 177 89h88q-13 -54 -57 -93.5t-109 -57.5q-32 -12 -47 -26.5t-15 -35.5q0 -54 104 -54v-70q-92 0 -136 30t-44 79q0 37 28 65q-169 5 -236 104q-41 61 -41 150q0 88 44 153q73 105 236 105q131 0 202 -65t71 -179z
M141 284h370q-5 66 -51 101.5t-131 35.5q-114 -2 -163 -71q-19 -29 -25 -66z" />
    <glyph glyph-name="Ecaron" unicode="&#x11a;" horiz-adv-x="686" 
d="M412 757h-98l-138 110h103l84 -66l84 66h103zM615 0h-511v700h511v-82h-420v-225h410v-82h-410v-229h420v-82z" />
    <glyph glyph-name="ecaron" unicode="&#x11b;" horiz-adv-x="650" 
d="M531 691l-154 -150h-91l-155 150h104l97 -103l96 103h103zM602 250v-34h-464q3 -53 29 -90q48 -70 170 -70q137 0 177 89h88q-18 -73 -89.5 -118t-174.5 -45q-177 0 -248 104q-41 61 -41 150q0 88 44 153q73 105 236 105q131 0 202 -65t71 -179zM141 284h370
q-5 66 -51 101.5t-131 35.5q-114 -2 -163 -71q-19 -29 -25 -66z" />
    <glyph glyph-name="Gcircumflex" unicode="&#x11c;" horiz-adv-x="937" 
d="M397 757h-102l138 110h98l138 -110h-103l-84 66zM450 -19q-131 0 -233.5 60t-140.5 167q-23 65 -23 141q0 77 23 137q40 110 147.5 171.5t256.5 61.5q164 0 269.5 -73.5t118.5 -191.5h-94q-15 85 -93 134t-200 49q-118 0 -201 -47.5t-114 -133.5q-18 -48 -18 -107
q0 -63 18 -111q30 -83 110 -129t189 -46q122 0 200 58t92 155h-301v82h388v-358h-91l24 182h-14q-27 -94 -109.5 -147.5t-203.5 -53.5z" />
    <glyph glyph-name="gcircumflex" unicode="&#x11d;" horiz-adv-x="691" 
d="M247 541h-104l155 148h91l154 -148h-103l-96 101zM327 -192q-127 0 -196 49t-76 143h88q11 -118 184 -118q91 0 140.5 40t49.5 113v11l28 131h-14q-47 -151 -216 -151q-154 0 -220 96q-40 57 -40 138t40 138q66 96 220 96q169 0 216 -151h14l-28 133h87v-413
q0 -255 -277 -255zM333 99q113 0 159 65q28 41 28 96t-28 96q-46 65 -159 65q-114 0 -160 -65q-28 -41 -28 -96t28 -96q46 -65 160 -65z" />
    <glyph glyph-name="Gbreve" unicode="&#x11e;" horiz-adv-x="937" 
d="M482 752q-141 0 -170 110h81q2 -23 27 -38.5t62 -15.5q38 0 63 15.5t27 38.5h81q-29 -110 -171 -110zM450 -19q-131 0 -233.5 60t-140.5 167q-23 65 -23 141q0 77 23 137q40 110 147.5 171.5t256.5 61.5q164 0 269.5 -73.5t118.5 -191.5h-94q-15 85 -93 134t-200 49
q-118 0 -201 -47.5t-114 -133.5q-18 -48 -18 -107q0 -63 18 -111q30 -83 110 -129t189 -46q122 0 200 58t92 155h-301v82h388v-358h-91l24 182h-14q-27 -94 -109.5 -147.5t-203.5 -53.5z" />
    <glyph glyph-name="gbreve" unicode="&#x11f;" horiz-adv-x="691" 
d="M344 542q-80 0 -130.5 38t-50.5 111h73q0 -44 30.5 -67.5t77.5 -23.5t77 23.5t30 67.5h73q0 -74 -50 -111.5t-130 -37.5zM327 -192q-127 0 -196 49t-76 143h88q11 -118 184 -118q91 0 140.5 40t49.5 113v11l28 131h-14q-47 -151 -216 -151q-154 0 -220 96q-40 57 -40 138
t40 138q66 96 220 96q169 0 216 -151h14l-28 133h87v-413q0 -255 -277 -255zM333 99q113 0 159 65q28 41 28 96t-28 96q-46 65 -159 65q-114 0 -160 -65q-28 -41 -28 -96t28 -96q46 -65 160 -65z" />
    <glyph glyph-name="Gdotaccent" unicode="&#x120;" horiz-adv-x="937" 
d="M534 755h-102v105h102v-105zM450 -19q-131 0 -233.5 60t-140.5 167q-23 65 -23 141q0 77 23 137q40 110 147.5 171.5t256.5 61.5q164 0 269.5 -73.5t118.5 -191.5h-94q-15 85 -93 134t-200 49q-118 0 -201 -47.5t-114 -133.5q-18 -48 -18 -107q0 -63 18 -111
q30 -83 110 -129t189 -46q122 0 200 58t92 155h-301v82h388v-358h-91l24 182h-14q-27 -94 -109.5 -147.5t-203.5 -53.5z" />
    <glyph glyph-name="gdotaccent" unicode="&#x121;" horiz-adv-x="691" 
d="M394 562h-101v118h101v-118zM327 -192q-127 0 -196 49t-76 143h88q11 -118 184 -118q91 0 140.5 40t49.5 113v11l28 131h-14q-47 -151 -216 -151q-154 0 -220 96q-40 57 -40 138t40 138q66 96 220 96q169 0 216 -151h14l-28 133h87v-413q0 -255 -277 -255zM333 99
q113 0 159 65q28 41 28 96t-28 96q-46 65 -159 65q-114 0 -160 -65q-28 -41 -28 -96t28 -96q46 -65 160 -65z" />
    <glyph glyph-name="uni0122" unicode="&#x122;" horiz-adv-x="937" 
d="M450 -19q-131 0 -233.5 60t-140.5 167q-23 65 -23 141q0 77 23 137q40 110 147.5 171.5t256.5 61.5q164 0 269.5 -73.5t118.5 -191.5h-94q-15 85 -93 134t-200 49q-118 0 -201 -47.5t-114 -133.5q-18 -48 -18 -107q0 -63 18 -111q30 -83 110 -129t189 -46q122 0 200 58
t92 155h-301v82h388v-358h-91l24 182h-14q-27 -94 -109.5 -147.5t-203.5 -53.5zM418 -187v45q21 0 33.5 8t12.5 21h-44v74h95v-57q0 -43 -25.5 -67t-71.5 -24z" />
    <glyph glyph-name="uni0123" unicode="&#x123;" horiz-adv-x="691" 
d="M396 544h-107v57q0 53 28.5 81.5t80.5 28.5v-47q-44 0 -44 -42h42v-78zM327 -192q-127 0 -196 49t-76 143h88q11 -118 184 -118q91 0 140.5 40t49.5 113v11l28 131h-14q-47 -151 -216 -151q-154 0 -220 96q-40 57 -40 138t40 138q66 96 220 96q169 0 216 -151h14l-28 133
h87v-413q0 -255 -277 -255zM333 99q113 0 159 65q28 41 28 96t-28 96q-46 65 -159 65q-114 0 -160 -65q-28 -41 -28 -96t28 -96q46 -65 160 -65z" />
    <glyph glyph-name="Hcircumflex" unicode="&#x124;" horiz-adv-x="875" 
d="M521 757l-84 66l-85 -66h-102l138 110h98l138 -110h-103zM680 393v307h91v-700h-91v311h-485v-311h-91v700h91v-307h485z" />
    <glyph glyph-name="hcircumflex" unicode="&#x125;" horiz-adv-x="692" 
d="M57 757h-102l138 110h98l138 -110h-103l-84 66zM180 0h-86v700h86v-224l-21 -144h14q46 162 218 162q108 0 163.5 -55.5t55.5 -163.5v-275h-87v268q0 148 -156 148q-87 0 -137 -49.5t-50 -133.5v-233z" />
    <glyph glyph-name="Hbar" unicode="&#x126;" horiz-adv-x="875" 
d="M771 586h33v-79h-33v-507h-91v311h-485v-311h-91v507h-33v79h33v114h91v-114h485v114h91v-114zM195 393h485v114h-485v-114z" />
    <glyph glyph-name="hbar" unicode="&#x127;" horiz-adv-x="692" 
d="M391 494q108 0 163.5 -55.5t55.5 -163.5v-275h-87v268q0 148 -156 148q-87 0 -137 -49.5t-50 -133.5v-233h-86v563h-66v58h66v79h86v-79h162v-58h-162v-87l-21 -144h14q46 162 218 162z" />
    <glyph glyph-name="Itilde" unicode="&#x128;" horiz-adv-x="299" 
d="M232 758q-35 0 -83.5 21.5t-79.5 21.5q-22 0 -38.5 -11t-17.5 -28h-61q0 53 34.5 77.5t80.5 24.5q35 0 83.5 -21.5t79.5 -21.5q22 0 38.5 10.5t17.5 28.5h61q0 -53 -35 -77.5t-80 -24.5zM195 0h-91v700h91v-700z" />
    <glyph glyph-name="itilde" unicode="&#x129;" horiz-adv-x="274" 
d="M219 573q-35 0 -83.5 21.5t-79.5 21.5q-22 0 -38.5 -11t-17.5 -28h-61q0 53 34.5 77.5t80.5 24.5q34 0 83 -21.5t81 -21.5q22 0 38 10.5t17 28.5h61q0 -53 -34.5 -77.5t-80.5 -24.5zM180 0h-86v476h86v-476z" />
    <glyph glyph-name="Imacron" unicode="&#x12a;" horiz-adv-x="299" 
d="M319 773h-340v64h340v-64zM195 0h-91v700h91v-700z" />
    <glyph glyph-name="imacron" unicode="&#x12b;" horiz-adv-x="274" 
d="M316 589h-358v61h358v-61zM180 0h-86v476h86v-476z" />
    <glyph glyph-name="Ibreve" unicode="&#x12c;" horiz-adv-x="299" 
d="M149 752q-141 0 -170 110h81q2 -23 27 -38.5t62 -15.5q38 0 63 15.5t27 38.5h81q-29 -110 -171 -110zM195 0h-91v700h91v-700z" />
    <glyph glyph-name="ibreve" unicode="&#x12d;" horiz-adv-x="274" 
d="M138 542q-80 0 -130.5 38t-50.5 111h73q0 -44 30.5 -67.5t77.5 -23.5t77 23.5t30 67.5h73q0 -74 -50 -111.5t-130 -37.5zM180 0h-86v476h86v-476z" />
    <glyph glyph-name="Iogonek" unicode="&#x12e;" horiz-adv-x="299" 
d="M195 0h-34q-41 -14 -59 -29.5t-18 -38.5q0 -54 104 -54v-70q-92 0 -136 30t-44 79q0 70 96 104v679h91v-700z" />
    <glyph glyph-name="iogonek" unicode="&#x12f;" horiz-adv-x="274" 
d="M87 562v118h101v-118h-101zM94 23v453h86v-476h-34q-41 -14 -59 -29.5t-18 -38.5q0 -54 104 -54v-70q-92 0 -136 30t-44 79q0 72 101 106z" />
    <glyph glyph-name="Idotaccent" unicode="&#x130;" horiz-adv-x="299" 
d="M201 755h-102v105h102v-105zM195 0h-91v700h91v-700z" />
    <glyph glyph-name="dotlessi" unicode="&#x131;" horiz-adv-x="274" 
d="M180 0h-86v476h86v-476z" />
    <glyph glyph-name="IJ" unicode="&#x132;" horiz-adv-x="971" 
d="M195 0h-91v700h91v-700zM609 -19q-270 0 -270 270v105h91v-105q0 -188 179 -188q90 0 133.5 47.5t43.5 147.5v442h90v-442q0 -135 -68.5 -206t-198.5 -71z" />
    <glyph glyph-name="ij" unicode="&#x133;" horiz-adv-x="577" 
d="M188 562h-101v118h101v-118zM491 562h-101v118h101v-118zM180 0h-86v476h86v-476zM308 -192q-154 0 -167 131v1h88q6 -59 80 -59q42 0 64.5 26t22.5 74v495h87v-479q0 -93 -44.5 -141t-130.5 -48z" />
    <glyph glyph-name="Jcircumflex" unicode="&#x134;" horiz-adv-x="671" 
d="M445 757h-102l138 110h98l138 -110h-103l-84 66zM310 -19q-270 0 -270 270v105h91v-105q0 -188 179 -188q90 0 133.5 47.5t43.5 147.5v442h90v-442q0 -135 -68.5 -206t-198.5 -71z" />
    <glyph glyph-name="jcircumflex" unicode="&#x135;" horiz-adv-x="303" 
d="M70 541h-104l155 148h91l154 -148h-103l-96 101zM34 -192q-153 0 -168 131v1h89q6 -59 80 -59q42 0 64.5 26t22.5 74v495h87v-479q0 -93 -44.5 -141t-130.5 -48z" />
    <glyph glyph-name="uni0136" unicode="&#x136;" horiz-adv-x="761" 
d="M620 700h123l-340 -321l335 -379h-128l-279 317l-136 -128v-189h-91v700h91v-361l-26 -56h14zM379 -113h-44v74h95v-57q0 -43 -25.5 -67t-71.5 -24v45q21 0 33.5 8t12.5 21z" />
    <glyph glyph-name="uni0137" unicode="&#x137;" horiz-adv-x="629" 
d="M495 476h119l-257 -214l252 -262h-122l-199 210l-108 -89v-121h-86v700h86v-440l-26 -51h14zM318 -113h-44v74h95v-57q0 -43 -25.5 -67t-71.5 -24v45q21 0 33.5 8t12.5 21z" />
    <glyph glyph-name="kgreenlandic" unicode="&#x138;" horiz-adv-x="630" 
d="M495 476h120l-262 -217l257 -259h-122l-203 207l-105 -86v-121h-86v476h86v-208l-21 -53h14z" />
    <glyph glyph-name="Lacute" unicode="&#x139;" horiz-adv-x="636" 
d="M190 755h-84l75 110h102zM611 0h-507v700h91v-618h416v-82z" />
    <glyph glyph-name="lacute" unicode="&#x13a;" horiz-adv-x="274" 
d="M179 755h-84l75 110h102zM180 0h-86v700h86v-700z" />
    <glyph glyph-name="uni013B" unicode="&#x13b;" horiz-adv-x="636" 
d="M611 0h-507v700h91v-618h416v-82zM314 -187v45q21 0 33.5 8t12.5 21h-44v74h95v-57q0 -43 -25.5 -67t-71.5 -24z" />
    <glyph glyph-name="uni013C" unicode="&#x13c;" horiz-adv-x="274" 
d="M180 0h-86v700h86v-700zM88 -187v45q21 0 33.5 8t12.5 21h-44v74h95v-57q0 -43 -25.5 -67t-71.5 -24z" />
    <glyph glyph-name="Lcaron" unicode="&#x13d;" horiz-adv-x="636" 
d="M611 0h-507v700h91v-618h416v-82zM377 536h-53l38 164h92z" />
    <glyph glyph-name="lcaron" unicode="&#x13e;" horiz-adv-x="274" 
d="M180 0h-86v700h86v-700zM278 536h-53l38 164h92z" />
    <glyph glyph-name="Ldot" unicode="&#x13f;" horiz-adv-x="636" 
d="M611 0h-507v700h91v-618h416v-82zM525 353h-118v123h118v-123z" />
    <glyph glyph-name="ldot" unicode="&#x140;" horiz-adv-x="336" 
d="M180 0h-86v700h86v-700zM364 353h-118v123h118v-123z" />
    <glyph glyph-name="Lslash" unicode="&#x141;" horiz-adv-x="636" 
d="M195 325v-243h416v-82h-507v272l-75 -44v80l75 44v348h91v-295l163 95v-80z" />
    <glyph glyph-name="lslash" unicode="&#x142;" horiz-adv-x="417" 
d="M251 428l88 52v-67l-88 -52v-361h-87v310l-85 -50v66l85 50v324h87v-272z" />
    <glyph glyph-name="Nacute" unicode="&#x143;" horiz-adv-x="875" 
d="M513 755h-84l75 110h102zM195 0h-91v700h138l400 -546l24 -92h14v638h91v-700h-138l-400 547l-24 91h-14v-638z" />
    <glyph glyph-name="nacute" unicode="&#x144;" horiz-adv-x="692" 
d="M407 541h-76l81 150h103zM180 0h-86v476h86l-21 -144h14q46 162 217 162q108 0 164 -56t56 -163v-275h-87v268q0 148 -156 148q-87 0 -137 -49.5t-50 -133.5v-233z" />
    <glyph glyph-name="uni0145" unicode="&#x145;" horiz-adv-x="875" 
d="M195 0h-91v700h138l400 -546l24 -92h14v638h91v-700h-138l-400 547l-24 91h-14v-638zM378 -187v45q21 0 33.5 8t12.5 21h-44v74h95v-57q0 -43 -25.5 -67t-71.5 -24z" />
    <glyph glyph-name="uni0146" unicode="&#x146;" horiz-adv-x="692" 
d="M180 0h-86v476h86l-21 -144h14q46 162 217 162q108 0 164 -56t56 -163v-275h-87v268q0 148 -156 148q-87 0 -137 -49.5t-50 -133.5v-233zM305 -187v45q21 0 33.5 8t12.5 21h-44v74h95v-57q0 -43 -25.5 -67t-71.5 -24z" />
    <glyph glyph-name="Ncaron" unicode="&#x147;" horiz-adv-x="875" 
d="M520 757h-98l-138 110h103l84 -66l84 66h103zM195 0h-91v700h138l400 -546l24 -92h14v638h91v-700h-138l-400 547l-24 91h-14v-638z" />
    <glyph glyph-name="ncaron" unicode="&#x148;" horiz-adv-x="692" 
d="M411 541h-91l-155 150h104l97 -103l96 103h103zM180 0h-86v476h86l-21 -144h14q46 162 217 162q108 0 164 -56t56 -163v-275h-87v268q0 148 -156 148q-87 0 -137 -49.5t-50 -133.5v-233z" />
    <glyph glyph-name="napostrophe" unicode="&#x149;" horiz-adv-x="896" 
d="M59 468v61q32 0 44 15.5t12 55.5h-56v115h116v-102q0 -145 -116 -145zM384 0h-86v476h86l-21 -144h14q46 162 217 162q108 0 164 -56t56 -163v-275h-87v268q0 148 -156 148q-87 0 -137 -49.5t-50 -133.5v-233z" />
    <glyph glyph-name="Eng" unicode="&#x14a;" horiz-adv-x="875" 
d="M680 62v638h91v-726q0 -86 -47 -125.5t-147 -39.5v75q103 0 103 84v32h-47l-400 547l-24 91h-14v-638h-91v700h138l400 -546l24 -92h14z" />
    <glyph glyph-name="eng" unicode="&#x14b;" horiz-adv-x="692" 
d="M390 494q108 0 164 -56t56 -163v-275h-1v-34q0 -73 -44 -114.5t-127 -41.5v68q85 0 85 89v301q0 148 -156 148q-87 0 -137 -49.5t-50 -133.5v-233h-86v476h86l-21 -144h14q46 162 217 162z" />
    <glyph glyph-name="Omacron" unicode="&#x14c;" horiz-adv-x="964" 
d="M653 773h-340v64h340v-64zM483 -19q-152 0 -259.5 62.5t-147.5 172.5q-23 60 -23 134t23 134q40 109 147.5 172t258.5 63t258.5 -63t147.5 -172q23 -60 23 -134t-23 -134q-39 -109 -146 -172t-259 -63zM482 63q119 0 202 48.5t114 134.5q18 48 18 104t-18 104
q-30 85 -113.5 134t-202.5 49t-202.5 -49t-113.5 -134q-18 -48 -18 -104t18 -104q31 -85 114.5 -134t201.5 -49z" />
    <glyph glyph-name="omacron" unicode="&#x14d;" horiz-adv-x="698" 
d="M528 589h-358v61h358v-61zM349 -18q-88 0 -155.5 29.5t-103.5 83.5q-41 61 -41 143q0 84 41 143q36 54 103.5 83.5t155.5 29.5t155.5 -29.5t103.5 -83.5q42 -61 42 -143t-42 -143q-36 -54 -103.5 -83.5t-155.5 -29.5zM349 57q128 0 181 77q30 44 30 104t-30 104
q-53 77 -181 77t-181 -77q-29 -43 -29 -104t29 -104q53 -77 181 -77z" />
    <glyph glyph-name="Obreve" unicode="&#x14e;" horiz-adv-x="964" 
d="M484 752q-141 0 -170 110h81q2 -23 27 -38.5t62 -15.5q38 0 63 15.5t27 38.5h81q-29 -110 -171 -110zM483 -19q-152 0 -259.5 62.5t-147.5 172.5q-23 60 -23 134t23 134q40 109 147.5 172t258.5 63t258.5 -63t147.5 -172q23 -60 23 -134t-23 -134q-39 -109 -146 -172
t-259 -63zM482 63q119 0 202 48.5t114 134.5q18 48 18 104t-18 104q-30 85 -113.5 134t-202.5 49t-202.5 -49t-113.5 -134q-18 -48 -18 -104t18 -104q31 -85 114.5 -134t201.5 -49z" />
    <glyph glyph-name="obreve" unicode="&#x14f;" horiz-adv-x="698" 
d="M350 542q-80 0 -130.5 38t-50.5 111h73q0 -44 30.5 -67.5t77.5 -23.5t77 23.5t30 67.5h73q0 -74 -50 -111.5t-130 -37.5zM349 -18q-88 0 -155.5 29.5t-103.5 83.5q-41 61 -41 143q0 84 41 143q36 54 103.5 83.5t155.5 29.5t155.5 -29.5t103.5 -83.5q42 -61 42 -143
t-42 -143q-36 -54 -103.5 -83.5t-155.5 -29.5zM349 57q128 0 181 77q30 44 30 104t-30 104q-53 77 -181 77t-181 -77q-29 -43 -29 -104t29 -104q53 -77 181 -77z" />
    <glyph glyph-name="Ohungarumlaut" unicode="&#x150;" horiz-adv-x="964" 
d="M423 755h-72l65 110h92zM597 755h-72l64 110h94zM483 -19q-152 0 -259.5 62.5t-147.5 172.5q-23 60 -23 134t23 134q40 109 147.5 172t258.5 63t258.5 -63t147.5 -172q23 -60 23 -134t-23 -134q-39 -109 -146 -172t-259 -63zM482 63q119 0 202 48.5t114 134.5
q18 48 18 104t-18 104q-30 85 -113.5 134t-202.5 49t-202.5 -49t-113.5 -134q-18 -48 -18 -104t18 -104q31 -85 114.5 -134t201.5 -49z" />
    <glyph glyph-name="ohungarumlaut" unicode="&#x151;" horiz-adv-x="698" 
d="M289 541h-67l76 145h97zM482 541h-67l75 145h97zM349 -18q-88 0 -155.5 29.5t-103.5 83.5q-41 61 -41 143q0 84 41 143q36 54 103.5 83.5t155.5 29.5t155.5 -29.5t103.5 -83.5q42 -61 42 -143t-42 -143q-36 -54 -103.5 -83.5t-155.5 -29.5zM349 57q128 0 181 77
q30 44 30 104t-30 104q-53 77 -181 77t-181 -77q-29 -43 -29 -104t29 -104q53 -77 181 -77z" />
    <glyph glyph-name="OE" unicode="&#x152;" horiz-adv-x="1084" 
d="M1013 700v-82h-379v-225h369v-82h-369v-229h379v-82h-588q-131 0 -222.5 56t-127.5 158q-22 64 -22 136q0 73 22 137q36 101 127 157t223 56h588zM416 82h128v536h-128q-93 0 -158 -43t-92 -118q-18 -48 -18 -107q0 -61 19 -109q27 -74 92 -116.5t157 -42.5z" />
    <glyph glyph-name="oe" unicode="&#x153;" horiz-adv-x="1112" 
d="M1064 250v-34h-439q3 -53 29 -90q23 -33 65 -51.5t92 -18.5q127 0 165 89h88q-17 -73 -85 -118t-166 -45q-162 0 -235 102q-36 -49 -100 -75.5t-141 -26.5q-81 0 -146 28.5t-101 81.5q-41 59 -41 146t41 146q36 53 101 81.5t146 28.5q78 0 142.5 -27.5t100.5 -77.5
q35 50 94.5 77.5t129.5 27.5q125 0 192.5 -65t67.5 -179zM628 284h345q-5 67 -47.5 102t-121.5 34q-104 0 -150 -66q-18 -27 -26 -70zM337 57q118 0 169 74q29 43 29 107t-29 107q-51 74 -169 74t-169 -74q-29 -41 -29 -107t29 -107q51 -74 169 -74z" />
    <glyph glyph-name="Racute" unicode="&#x154;" horiz-adv-x="734" 
d="M381 865h102l-93 -110h-84zM410 322v-14l25 -14l244 -294h-122l-254 315h-108v-315h-91v700h347q151 0 204 -90q24 -42 24 -102q0 -56 -23 -97q-52 -89 -215 -89h-31zM453 618h-258v-224h257q89 0 119 52q15 26 15 61q0 36 -14 58q-30 53 -119 53z" />
    <glyph glyph-name="racute" unicode="&#x155;" horiz-adv-x="576" 
d="M356 541h-76l81 150h103zM180 0h-86v476h86l-24 -150h15q38 168 190 168q88 0 133.5 -46.5t45.5 -131.5v-76h-90v51q0 64 -29 94t-93 30q-72 0 -110 -47t-38 -134v-234z" />
    <glyph glyph-name="uni0156" unicode="&#x156;" horiz-adv-x="734" 
d="M410 322v-14l25 -14l244 -294h-122l-254 315h-108v-315h-91v700h347q151 0 204 -90q24 -42 24 -102q0 -56 -23 -97q-52 -89 -215 -89h-31zM453 618h-258v-224h257q89 0 119 52q15 26 15 61q0 36 -14 58q-30 53 -119 53zM354 -113h-44v74h95v-57q0 -43 -25.5 -67
t-71.5 -24v45q21 0 33.5 8t12.5 21z" />
    <glyph glyph-name="uni0157" unicode="&#x157;" horiz-adv-x="576" 
d="M180 0h-86v476h86l-24 -150h15q38 168 190 168q88 0 133.5 -46.5t45.5 -131.5v-76h-90v51q0 64 -29 94t-93 30q-72 0 -110 -47t-38 -134v-234zM88 -187v45q21 0 33.5 8t12.5 21h-44v74h95v-57q0 -43 -25.5 -67t-71.5 -24z" />
    <glyph glyph-name="Rcaron" unicode="&#x158;" horiz-adv-x="734" 
d="M535 867l-138 -110h-98l-138 110h103l84 -66l84 66h103zM410 322v-14l25 -14l244 -294h-122l-254 315h-108v-315h-91v700h347q151 0 204 -90q24 -42 24 -102q0 -56 -23 -97q-52 -89 -215 -89h-31zM453 618h-258v-224h257q89 0 119 52q15 26 15 61q0 36 -14 58
q-30 53 -119 53z" />
    <glyph glyph-name="rcaron" unicode="&#x159;" horiz-adv-x="576" 
d="M361 541h-91l-155 150h104l97 -103l96 103h103zM180 0h-86v476h86l-24 -150h15q38 168 190 168q88 0 133.5 -46.5t45.5 -131.5v-76h-90v51q0 64 -29 94t-93 30q-72 0 -110 -47t-38 -134v-234z" />
    <glyph glyph-name="Sacute" unicode="&#x15a;" horiz-adv-x="755" 
d="M425 755h-84l75 110h102zM373 -19q-140 0 -223.5 62.5t-83.5 174.5v13h96v-8q0 -79 57.5 -120t157.5 -41q150 0 190 72q15 26 15 57q0 30 -11 49q-29 49 -134 63l-146 16q-147 17 -192 98q-22 37 -22 89q0 51 24 96q33 55 105.5 86t174.5 31q140 0 222 -61t82 -173v-13
h-96v9q0 78 -55.5 117.5t-156.5 39.5q-148 0 -191 -72q-14 -25 -14 -55q0 -25 12 -48q28 -49 136 -63l146 -16q145 -19 190 -98q21 -36 21 -91q0 -56 -24 -98q-32 -56 -105 -86t-175 -30z" />
    <glyph glyph-name="sacute" unicode="&#x15b;" horiz-adv-x="595" 
d="M338 541h-76l81 150h103zM294 -18q-109 0 -171.5 44.5t-62.5 122.5v4h87v-4q0 -47 39.5 -71.5t110.5 -24.5q90 0 123 31q17 17 17 43q0 29 -21 45t-73 23l-116 14q-160 21 -160 135q0 56 37 93q57 57 194 57q113 0 173.5 -44t60.5 -123v-4h-87v4q0 96 -150 96
q-90 0 -123 -31q-17 -17 -17 -43q0 -54 95 -66l116 -14q83 -12 121 -45.5t38 -91.5q0 -56 -37 -93q-57 -57 -194 -57z" />
    <glyph glyph-name="Scircumflex" unicode="&#x15c;" horiz-adv-x="755" 
d="M298 757h-102l138 110h98l138 -110h-103l-84 66zM373 -19q-140 0 -223.5 62.5t-83.5 174.5v13h96v-8q0 -79 57.5 -120t157.5 -41q150 0 190 72q15 26 15 57q0 30 -11 49q-29 49 -134 63l-146 16q-147 17 -192 98q-22 37 -22 89q0 51 24 96q33 55 105.5 86t174.5 31
q140 0 222 -61t82 -173v-13h-96v9q0 78 -55.5 117.5t-156.5 39.5q-148 0 -191 -72q-14 -25 -14 -55q0 -25 12 -48q28 -49 136 -63l146 -16q145 -19 190 -98q21 -36 21 -91q0 -56 -24 -98q-32 -56 -105 -86t-175 -30z" />
    <glyph glyph-name="scircumflex" unicode="&#x15d;" horiz-adv-x="595" 
d="M200 541h-104l155 148h91l154 -148h-103l-96 101zM294 -18q-109 0 -171.5 44.5t-62.5 122.5v4h87v-4q0 -47 39.5 -71.5t110.5 -24.5q90 0 123 31q17 17 17 43q0 29 -21 45t-73 23l-116 14q-160 21 -160 135q0 56 37 93q57 57 194 57q113 0 173.5 -44t60.5 -123v-4h-87v4
q0 96 -150 96q-90 0 -123 -31q-17 -17 -17 -43q0 -54 95 -66l116 -14q83 -12 121 -45.5t38 -91.5q0 -56 -37 -93q-57 -57 -194 -57z" />
    <glyph glyph-name="Scedilla" unicode="&#x15e;" horiz-adv-x="755" 
d="M685 472h-96v9q0 78 -55.5 117.5t-156.5 39.5q-148 0 -191 -72q-14 -25 -14 -55q0 -25 12 -48q28 -49 136 -63l146 -16q145 -19 190 -98q21 -36 21 -91q0 -56 -24 -98q-62 -108 -257 -116l-4 -14q66 -15 66 -70q0 -39 -33 -64t-91 -25q-55 0 -94.5 24.5t-43.5 77.5h65
q9 -49 71 -49q61 0 61 36q0 32 -48 32l-20 25l9 28q-124 9 -196 71t-72 165v13h96v-8q0 -79 57.5 -120t157.5 -41q150 0 190 72q15 26 15 57q0 30 -11 49q-29 49 -134 63l-146 16q-147 17 -192 98q-22 37 -22 89q0 51 24 96q33 55 105.5 86t174.5 31q140 0 222 -61t82 -173
v-13z" />
    <glyph glyph-name="scedilla" unicode="&#x15f;" horiz-adv-x="595" 
d="M532 323h-87v4q0 96 -150 96q-90 0 -123 -31q-17 -17 -17 -43q0 -54 95 -66l116 -14q83 -12 121 -45.5t38 -91.5q0 -56 -37 -93q-51 -51 -171 -57l-5 -15q66 -15 66 -70q0 -39 -33 -64t-91 -25q-55 0 -94.5 24.5t-43.5 77.5h65q9 -49 71 -49q61 0 61 36q0 32 -48 32
l-20 25l10 30q-92 8 -143.5 51t-51.5 114v4h87v-4q0 -47 39.5 -71.5t110.5 -24.5q90 0 123 31q17 17 17 43q0 29 -21 45t-73 23l-116 14q-160 21 -160 135q0 56 37 93q57 57 194 57q113 0 173.5 -44t60.5 -123v-4z" />
    <glyph glyph-name="Scaron" unicode="&#x160;" horiz-adv-x="755" 
d="M432 757h-98l-138 110h103l84 -66l84 66h103zM373 -19q-140 0 -223.5 62.5t-83.5 174.5v13h96v-8q0 -79 57.5 -120t157.5 -41q150 0 190 72q15 26 15 57q0 30 -11 49q-29 49 -134 63l-146 16q-147 17 -192 98q-22 37 -22 89q0 51 24 96q33 55 105.5 86t174.5 31
q140 0 222 -61t82 -173v-13h-96v9q0 78 -55.5 117.5t-156.5 39.5q-148 0 -191 -72q-14 -25 -14 -55q0 -25 12 -48q28 -49 136 -63l146 -16q145 -19 190 -98q21 -36 21 -91q0 -56 -24 -98q-32 -56 -105 -86t-175 -30z" />
    <glyph glyph-name="scaron" unicode="&#x161;" horiz-adv-x="595" 
d="M342 541h-91l-155 150h104l97 -103l96 103h103zM294 -18q-109 0 -171.5 44.5t-62.5 122.5v4h87v-4q0 -47 39.5 -71.5t110.5 -24.5q90 0 123 31q17 17 17 43q0 29 -21 45t-73 23l-116 14q-160 21 -160 135q0 56 37 93q57 57 194 57q113 0 173.5 -44t60.5 -123v-4h-87v4
q0 96 -150 96q-90 0 -123 -31q-17 -17 -17 -43q0 -54 95 -66l116 -14q83 -12 121 -45.5t38 -91.5q0 -56 -37 -93q-57 -57 -194 -57z" />
    <glyph glyph-name="uni0162" unicode="&#x162;" horiz-adv-x="689" 
d="M390 618v-618h-18l-10 -33q66 -15 66 -70q0 -39 -33 -64t-91 -25q-55 0 -94.5 24.5t-43.5 77.5h65q9 -49 71 -49q61 0 61 36q0 32 -48 32l-20 25l15 46h-11v618h-285v82h660v-82h-284z" />
    <glyph glyph-name="uni0163" unicode="&#x163;" horiz-adv-x="573" 
d="M528 476v-75h-304v-236q0 -52 27.5 -79.5t79.5 -27.5q58 0 84 29t26 90v58h87v-60q0 -87 -45.5 -137t-131.5 -54l-5 -17q66 -15 66 -70q0 -39 -33 -64t-91 -25q-55 0 -94.5 24.5t-43.5 77.5h65q9 -49 71 -49q61 0 61 36q0 32 -48 32l-20 25l10 31q-152 19 -152 179v237
h-117v75h117v97l87 41v-138h304z" />
    <glyph glyph-name="Tcaron" unicode="&#x164;" horiz-adv-x="689" 
d="M530 867l-138 -110h-98l-138 110h103l84 -66l84 66h103zM14 700h660v-82h-284v-618h-91v618h-285v82z" />
    <glyph glyph-name="tcaron" unicode="&#x165;" horiz-adv-x="573" 
d="M346 700h92l-77 -164h-53zM528 476v-75h-304v-236q0 -52 27.5 -79.5t79.5 -27.5q58 0 84 29t26 90v58h87v-60q0 -92 -50.5 -142t-145.5 -50q-195 0 -195 181v237h-117v75h117v97l87 41v-138h304z" />
    <glyph glyph-name="Tbar" unicode="&#x166;" horiz-adv-x="689" 
d="M674 700v-82h-284v-197h179v-79h-179v-342h-91v342h-180v79h180v197h-285v82h660z" />
    <glyph glyph-name="tbar" unicode="&#x167;" horiz-adv-x="573" 
d="M528 476v-75h-304v-75h304v-58h-304v-103q0 -52 27.5 -79.5t79.5 -27.5q58 0 84 29t26 90v48h87v-50q0 -92 -50.5 -142t-145.5 -50q-195 0 -195 181v104h-95v58h95v75h-117v75h117v97l87 41v-138h304z" />
    <glyph glyph-name="Utilde" unicode="&#x168;" horiz-adv-x="838" 
d="M501 758q-35 0 -83.5 21.5t-79.5 21.5q-22 0 -38.5 -11t-17.5 -28h-61q0 53 34.5 77.5t80.5 24.5q35 0 83.5 -21.5t79.5 -21.5q22 0 38.5 10.5t17.5 28.5h61q0 -53 -35 -77.5t-80 -24.5zM419 -19q-151 0 -238 80t-87 219v420h94v-418q0 -101 61.5 -159t169.5 -58
t169.5 58t61.5 159v418h94v-420q0 -139 -87 -219t-238 -80z" />
    <glyph glyph-name="utilde" unicode="&#x169;" horiz-adv-x="682" 
d="M417 573q-35 0 -83.5 21.5t-79.5 21.5q-22 0 -38.5 -11t-17.5 -28h-61q0 53 34.5 77.5t80.5 24.5q35 0 84 -21.5t80 -21.5q22 0 38 10.5t17 28.5h61q0 -53 -34.5 -77.5t-80.5 -24.5zM296 -18q-106 0 -160 55.5t-54 163.5v275h87v-268q0 -148 151 -148q84 0 132.5 49.5
t48.5 133.5v233h87v-476h-87l22 144h-14q-52 -162 -213 -162z" />
    <glyph glyph-name="Umacron" unicode="&#x16a;" horiz-adv-x="838" 
d="M589 773h-340v64h340v-64zM419 -19q-151 0 -238 80t-87 219v420h94v-418q0 -101 61.5 -159t169.5 -58t169.5 58t61.5 159v418h94v-420q0 -139 -87 -219t-238 -80z" />
    <glyph glyph-name="umacron" unicode="&#x16b;" horiz-adv-x="682" 
d="M514 589h-358v61h358v-61zM296 -18q-106 0 -160 55.5t-54 163.5v275h87v-268q0 -148 151 -148q84 0 132.5 49.5t48.5 133.5v233h87v-476h-87l22 144h-14q-52 -162 -213 -162z" />
    <glyph glyph-name="Ubreve" unicode="&#x16c;" horiz-adv-x="838" 
d="M419 752q-141 0 -170 110h81q2 -23 27 -38.5t62 -15.5q38 0 63 15.5t27 38.5h81q-29 -110 -171 -110zM419 -19q-151 0 -238 80t-87 219v420h94v-418q0 -101 61.5 -159t169.5 -58t169.5 58t61.5 159v418h94v-420q0 -139 -87 -219t-238 -80z" />
    <glyph glyph-name="ubreve" unicode="&#x16d;" horiz-adv-x="682" 
d="M336 542q-80 0 -130.5 38t-50.5 111h73q0 -44 30.5 -67.5t77.5 -23.5t77 23.5t30 67.5h73q0 -74 -50 -111.5t-130 -37.5zM296 -18q-106 0 -160 55.5t-54 163.5v275h87v-268q0 -148 151 -148q84 0 132.5 49.5t48.5 133.5v233h87v-476h-87l22 144h-14q-52 -162 -213 -162z
" />
    <glyph glyph-name="Uring" unicode="&#x16e;" horiz-adv-x="838" 
d="M419 750q-57 0 -92 30t-35 78t35 78.5t92 30.5t92 -30t35 -78t-35 -78.5t-92 -30.5zM419 804q31 0 49 15.5t18 38.5q0 24 -18 39.5t-49 15.5t-49 -15.5t-18 -38.5q0 -24 18 -39.5t49 -15.5zM419 -19q-151 0 -238 80t-87 219v420h94v-418q0 -101 61.5 -159t169.5 -58
t169.5 58t61.5 159v418h94v-420q0 -139 -87 -219t-238 -80z" />
    <glyph glyph-name="uring" unicode="&#x16f;" horiz-adv-x="682" 
d="M335 542q-56 0 -92.5 30.5t-36.5 80.5t36.5 80.5t92.5 30.5q57 0 93.5 -30.5t36.5 -80.5t-36.5 -80.5t-93.5 -30.5zM335 596q31 0 49.5 15.5t18.5 41.5t-18.5 42t-49.5 16t-49.5 -16t-18.5 -42t18.5 -41.5t49.5 -15.5zM296 -18q-106 0 -160 55.5t-54 163.5v275h87v-268
q0 -148 151 -148q84 0 132.5 49.5t48.5 133.5v233h87v-476h-87l22 144h-14q-52 -162 -213 -162z" />
    <glyph glyph-name="Uhungarumlaut" unicode="&#x170;" horiz-adv-x="838" 
d="M358 755h-72l65 110h92zM532 755h-72l64 110h94zM419 -19q-151 0 -238 80t-87 219v420h94v-418q0 -101 61.5 -159t169.5 -58t169.5 58t61.5 159v418h94v-420q0 -139 -87 -219t-238 -80z" />
    <glyph glyph-name="uhungarumlaut" unicode="&#x171;" horiz-adv-x="682" 
d="M275 541h-67l76 145h97zM468 541h-67l75 145h97zM296 -18q-106 0 -160 55.5t-54 163.5v275h87v-268q0 -148 151 -148q84 0 132.5 49.5t48.5 133.5v233h87v-476h-87l22 144h-14q-52 -162 -213 -162z" />
    <glyph glyph-name="Uogonek" unicode="&#x172;" horiz-adv-x="838" 
d="M650 282v418h94v-420q0 -120 -66.5 -197t-184.5 -96q-44 -22 -44 -55q0 -54 104 -54v-70q-92 0 -136 30t-44 79q0 37 27 64q-143 5 -224.5 85t-81.5 214v420h94v-418q0 -101 61.5 -159t169.5 -58t169.5 58t61.5 159z" />
    <glyph glyph-name="uogonek" unicode="&#x173;" horiz-adv-x="682" 
d="M588 0h-34q-41 -14 -59 -29.5t-18 -38.5q0 -54 104 -54v-70q-92 0 -136 30t-44 79q0 73 104 107l18 120h-14q-52 -162 -213 -162q-106 0 -160 55.5t-54 163.5v275h87v-268q0 -148 151 -148q84 0 132.5 49.5t48.5 133.5v233h87v-476z" />
    <glyph glyph-name="Wcircumflex" unicode="&#x174;" horiz-adv-x="1168" 
d="M499 757h-102l138 110h98l138 -110h-103l-84 66zM397 0h-145l-220 700h100l180 -585l8 -61h14l8 61l171 585h142l171 -585l8 -61h14l8 61l180 585h100l-221 -700h-144l-173 589l-7 50h-14l-8 -50z" />
    <glyph glyph-name="wcircumflex" unicode="&#x175;" horiz-adv-x="950" 
d="M378 541h-104l155 148h91l154 -148h-103l-96 101zM336 0h-134l-174 476h95l133 -383l6 -40h16l6 40l121 383h140l121 -383l6 -40h16l6 40l133 383h95l-174 -476h-134l-126 388l-5 35h-16l-5 -35z" />
    <glyph glyph-name="Ycircumflex" unicode="&#x176;" horiz-adv-x="740" 
d="M453 757l-84 66l-85 -66h-102l138 110h98l138 -110h-103zM612 700h113l-310 -443v-257h-91v257l-309 443h113l229 -333l6 -35h14l6 35z" />
    <glyph glyph-name="ycircumflex" unicode="&#x177;" horiz-adv-x="625" 
d="M410 541l-96 101l-97 -101h-104l155 148h91l154 -148h-103zM336 108l171 368h103l-258 -526q-35 -78 -75.5 -110t-106.5 -32q-73 0 -115 34t-42 95v12h91v-11q0 -28 17.5 -43t49.5 -15q31 0 52.5 16t39.5 54l44 95h-52l-237 431h103l198 -368h17z" />
    <glyph glyph-name="Ydieresis" unicode="&#x178;" horiz-adv-x="740" 
d="M209 860h102v-104h-102v104zM427 860h102v-104h-102v104zM612 700h113l-310 -443v-257h-91v257l-309 443h113l229 -333l6 -35h14l6 35z" />
    <glyph glyph-name="Zacute" unicode="&#x179;" horiz-adv-x="743" 
d="M407 755h-84l75 110h102zM681 0h-619v135l536 469v14h-536v82h619v-141l-531 -463v-14h531v-82z" />
    <glyph glyph-name="zacute" unicode="&#x17a;" horiz-adv-x="601" 
d="M341 541h-76l81 150h103zM541 0h-481v131l398 256v14h-398v75h480v-131l-400 -256v-14h401v-75z" />
    <glyph glyph-name="Zdotaccent" unicode="&#x17b;" horiz-adv-x="743" 
d="M416 755h-102v105h102v-105zM681 0h-619v135l536 469v14h-536v82h619v-141l-531 -463v-14h531v-82z" />
    <glyph glyph-name="zdotaccent" unicode="&#x17c;" horiz-adv-x="601" 
d="M351 562h-101v118h101v-118zM541 0h-481v131l398 256v14h-398v75h480v-131l-400 -256v-14h401v-75z" />
    <glyph glyph-name="Zcaron" unicode="&#x17d;" horiz-adv-x="743" 
d="M414 757h-98l-138 110h103l84 -66l84 66h103zM681 0h-619v135l536 469v14h-536v82h619v-141l-531 -463v-14h531v-82z" />
    <glyph glyph-name="zcaron" unicode="&#x17e;" horiz-adv-x="601" 
d="M346 541h-91l-155 150h104l97 -103l96 103h103zM541 0h-481v131l398 256v14h-398v75h480v-131l-400 -256v-14h401v-75z" />
    <glyph glyph-name="uni018F" unicode="&#x18f;" horiz-adv-x="912" 
d="M836 486q23 -59 23 -136q0 -80 -26 -148q-37 -104 -142.5 -162.5t-246.5 -58.5q-176 0 -278 90.5t-102 241.5v64h699q-3 42 -17 79q-31 86 -112 133.5t-192 47.5q-122 0 -202 -50t-94 -132h-93q11 116 117 190t272 74q143 0 248.5 -61.5t145.5 -171.5zM440 63
q111 0 192 44t111 125q13 33 17 65h-603q4 -109 80.5 -171.5t202.5 -62.5z" />
    <glyph glyph-name="florin" unicode="&#x192;" horiz-adv-x="564" 
d="M398 715q145 0 160 -129h-88q-9 56 -76 56q-84 0 -102 -100l-19 -114h157v-72h-169l-61 -360q-26 -144 -153 -144q-38 0 -68 15v73q29 -16 59 -16q64 0 80 85l58 347h-139v72h151l21 123q28 164 189 164z" />
    <glyph glyph-name="uni019D" unicode="&#x19d;" horiz-adv-x="875" 
d="M680 62v638h91v-700h-138l-400 547l-24 91h-14v-664q0 -86 -45.5 -125.5t-141.5 -39.5v75q96 0 96 84v732h138l400 -546l24 -92h14z" />
    <glyph glyph-name="Gcaron" unicode="&#x1e6;" horiz-adv-x="937" 
d="M531 757h-98l-138 110h103l84 -66l84 66h103zM450 -19q-131 0 -233.5 60t-140.5 167q-23 65 -23 141q0 77 23 137q40 110 147.5 171.5t256.5 61.5q164 0 269.5 -73.5t118.5 -191.5h-94q-15 85 -93 134t-200 49q-118 0 -201 -47.5t-114 -133.5q-18 -48 -18 -107
q0 -63 18 -111q30 -83 110 -129t189 -46q122 0 200 58t92 155h-301v82h388v-358h-91l24 182h-14q-27 -94 -109.5 -147.5t-203.5 -53.5z" />
    <glyph glyph-name="gcaron" unicode="&#x1e7;" horiz-adv-x="691" 
d="M389 541h-91l-155 150h104l97 -103l96 103h103zM327 -192q-127 0 -196 49t-76 143h88q11 -118 184 -118q91 0 140.5 40t49.5 113v11l28 131h-14q-47 -151 -216 -151q-154 0 -220 96q-40 57 -40 138t40 138q66 96 220 96q169 0 216 -151h14l-28 133h87v-413
q0 -255 -277 -255zM333 99q113 0 159 65q28 41 28 96t-28 96q-46 65 -159 65q-114 0 -160 -65q-28 -41 -28 -96t28 -96q46 -65 160 -65z" />
    <glyph glyph-name="uni01EA" unicode="&#x1ea;" horiz-adv-x="964" 
d="M888 484q23 -60 23 -134t-23 -134q-28 -77 -90.5 -132t-152.5 -81q-46 -15 -66 -30.5t-20 -40.5q0 -54 104 -54v-70q-92 0 -136 30t-44 79q0 37 28 65q-9 -1 -28 -1q-152 0 -259.5 62.5t-147.5 172.5q-23 60 -23 134t23 134q40 109 147.5 172t258.5 63t258.5 -63
t147.5 -172zM798 246q18 48 18 104t-18 104q-30 85 -113.5 134t-202.5 49t-202.5 -49t-113.5 -134q-18 -48 -18 -104t18 -104q31 -85 114.5 -134t201.5 -49q119 0 202 48.5t114 134.5z" />
    <glyph glyph-name="uni01EB" unicode="&#x1eb;" horiz-adv-x="698" 
d="M608 381q42 -61 42 -143t-42 -143q-51 -74 -154 -101q-32 -12 -47 -26.5t-15 -35.5q0 -54 104 -54v-70q-92 0 -136 30t-44 79q0 37 28 65q-179 2 -254 113q-41 61 -41 143q0 84 41 143q36 54 103.5 83.5t155.5 29.5t155.5 -29.5t103.5 -83.5zM530 134q30 44 30 104
t-30 104q-53 77 -181 77t-181 -77q-29 -43 -29 -104t29 -104q53 -77 181 -77t181 77z" />
    <glyph glyph-name="AEacute" unicode="&#x1fc;" horiz-adv-x="1022" 
d="M680 865h102l-93 -110h-84zM951 700v-82h-357v-226h347v-82h-347v-228h357v-82h-447v258h-223l-153 -258h-105l429 700h499zM474 583l-147 -247h177v302h-14z" />
    <glyph glyph-name="aeacute" unicode="&#x1fd;" horiz-adv-x="1045" 
d="M560 691h103l-108 -150h-76zM997 250v-34h-439q3 -53 29 -90q48 -70 157 -70q127 0 165 89h88q-18 -73 -86 -118t-166 -45q-78 0 -139.5 27t-95.5 77q-8 12 -11 18q-31 -59 -97 -90.5t-160 -31.5q-96 0 -141 47q-36 36 -36 93q0 59 35 93q42 44 145 50l221 10v11v20
q0 113 -160 113q-77 0 -119 -28t-44 -77v-3h-88v3q2 83 68 131.5t184 48.5q164 0 216 -91q35 44 92 67.5t121 23.5q125 0 193 -64.5t68 -179.5zM561 284h344q-9 137 -169 136q-103 0 -149 -66q-20 -27 -26 -70zM260 54q85 0 144.5 45t61.5 110l-211 -14q-59 -4 -83 -28
q-17 -16 -17 -44q0 -27 17 -44q25 -25 88 -25z" />
    <glyph glyph-name="Oslashacute" unicode="&#x1fe;" horiz-adv-x="964" 
d="M516 865h102l-93 -110h-84zM914 719l-112 -108q59 -53 86 -127q23 -60 23 -134t-23 -134q-39 -109 -146 -172t-259 -63q-156 0 -264 65l-68 -65h-104l113 109q-57 52 -84 126q-23 60 -23 134t23 134q40 109 147.5 172t258.5 63q154 0 262 -65l67 65h103zM166 246
q19 -52 59 -93l454 438q-81 46 -197 46q-119 0 -202.5 -49t-113.5 -134q-18 -48 -18 -104t18 -104zM798 246q18 48 18 104t-18 104q-20 56 -61 94l-453 -438q83 -47 198 -47q119 0 202 48.5t114 134.5z" />
    <glyph glyph-name="oslashacute" unicode="&#x1ff;" horiz-adv-x="698" 
d="M395 691h103l-108 -150h-76zM664 493l-84 -79q15 -14 28 -33q42 -61 42 -143t-42 -143q-36 -54 -103.5 -83.5t-155.5 -29.5q-107 0 -182 43l-42 -40h-90l82 77q-15 15 -27 33q-41 61 -41 143q0 84 41 143q36 54 103.5 83.5t155.5 29.5q106 0 181 -42l44 41h90zM168 134
q1 -1 11 -14l290 274q-50 25 -120 25q-128 0 -181 -77q-29 -43 -29 -104t29 -104zM530 134q30 44 30 104t-30 104q-4 7 -11 14l-291 -274q52 -25 121 -25q128 0 181 77z" />
    <glyph glyph-name="uni0218" unicode="&#x218;" horiz-adv-x="755" 
d="M373 -19q-140 0 -223.5 62.5t-83.5 174.5v13h96v-8q0 -79 57.5 -120t157.5 -41q150 0 190 72q15 26 15 57q0 30 -11 49q-29 49 -134 63l-146 16q-147 17 -192 98q-22 37 -22 89q0 51 24 96q33 55 105.5 86t174.5 31q140 0 222 -61t82 -173v-13h-96v9q0 78 -55.5 117.5
t-156.5 39.5q-148 0 -191 -72q-14 -25 -14 -55q0 -25 12 -48q28 -49 136 -63l146 -16q145 -19 190 -98q21 -36 21 -91q0 -56 -24 -98q-32 -56 -105 -86t-175 -30zM325 -187v45q21 0 33.5 8t12.5 21h-44v74h95v-57q0 -43 -25.5 -67t-71.5 -24z" />
    <glyph glyph-name="uni0219" unicode="&#x219;" horiz-adv-x="595" 
d="M294 -18q-109 0 -171.5 44.5t-62.5 122.5v4h87v-4q0 -47 39.5 -71.5t110.5 -24.5q90 0 123 31q17 17 17 43q0 29 -21 45t-73 23l-116 14q-160 21 -160 135q0 56 37 93q57 57 194 57q113 0 173.5 -44t60.5 -123v-4h-87v4q0 96 -150 96q-90 0 -123 -31q-17 -17 -17 -43
q0 -54 95 -66l116 -14q83 -12 121 -45.5t38 -91.5q0 -56 -37 -93q-57 -57 -194 -57zM245 -187v45q21 0 33.5 8t12.5 21h-44v74h95v-57q0 -43 -25.5 -67t-71.5 -24z" />
    <glyph glyph-name="uni021A" unicode="&#x21a;" horiz-adv-x="689" 
d="M14 618v82h660v-82h-284v-618h-91v618h-285zM341 -113h-44v74h95v-57q0 -43 -25.5 -67t-71.5 -24v45q21 0 33.5 8t12.5 21z" />
    <glyph glyph-name="uni021B" unicode="&#x21b;" horiz-adv-x="573" 
d="M528 476v-75h-304v-236q0 -52 27.5 -79.5t79.5 -27.5q58 0 84 29t26 90v58h87v-60q0 -92 -50.5 -142t-145.5 -50q-195 0 -195 181v237h-117v75h117v97l87 41v-138h304zM325 -113h-44v74h95v-57q0 -43 -25.5 -67t-71.5 -24v45q21 0 33.5 8t12.5 21z" />
    <glyph glyph-name="uni0232" unicode="&#x232;" horiz-adv-x="740" 
d="M199 837h340v-64h-340v64zM612 700h113l-310 -443v-257h-91v257l-309 443h113l229 -333l6 -35h14l6 35z" />
    <glyph glyph-name="uni0233" unicode="&#x233;" horiz-adv-x="625" 
d="M134 650h358v-61h-358v61zM336 108l171 368h103l-258 -526q-35 -78 -75.5 -110t-106.5 -32q-73 0 -115 34t-42 95v12h91v-11q0 -28 17.5 -43t49.5 -15q31 0 52.5 16t39.5 54l44 95h-52l-237 431h103l198 -368h17z" />
    <glyph glyph-name="uni0237" unicode="&#x237;" horiz-adv-x="303" 
d="M34 -192q-153 0 -168 131v1h89q6 -59 80 -59q42 0 64.5 26t22.5 74v495h87v-479q0 -93 -44.5 -141t-130.5 -48z" />
    <glyph glyph-name="uni0259" unicode="&#x259;" horiz-adv-x="651" 
d="M560 390q41 -61 41 -150q0 -88 -44 -153q-73 -105 -236 -105q-131 0 -202 65t-71 179v34h464q-3 53 -29 90q-48 70 -170 70q-137 0 -177 -89h-88q18 73 89.5 118t174.5 45q177 0 248 -104zM321 55q114 2 163 71q19 29 25 66h-370q5 -66 51 -101.5t131 -35.5z" />
    <glyph glyph-name="uni0272" unicode="&#x272;" horiz-adv-x="692" 
d="M390 494q108 0 164 -56t56 -163v-275h-87v268q0 148 -156 148q-87 0 -137 -49.5t-50 -133.5v-267q0 -73 -44 -114.5t-127 -41.5v68q85 0 85 89v509h86l-21 -144h14q46 162 217 162z" />
    <glyph glyph-name="uni02BC" unicode="&#x2bc;" horiz-adv-x="234" 
d="M59 462v63q31 0 43.5 16.5t12.5 58.5h-56v120h117v-107q0 -151 -117 -151z" />
    <glyph glyph-name="circumflex" unicode="&#x2c6;" horiz-adv-x="600" 
d="M242 541h-104l155 148h91l154 -148h-102l-97 101z" />
    <glyph glyph-name="caron" unicode="&#x2c7;" horiz-adv-x="600" 
d="M386 541h-91l-155 150h104l97 -103l96 103h103z" />
    <glyph glyph-name="breve" unicode="&#x2d8;" horiz-adv-x="600" 
d="M252 542q-79 0 -129.5 38t-50.5 111h73q0 -44 30.5 -67.5t76.5 -23.5q48 0 78 23t30 68h73q0 -74 -50.5 -111.5t-130.5 -37.5z" />
    <glyph glyph-name="dotaccent" unicode="&#x2d9;" horiz-adv-x="600" 
d="M88 562h-102v118h102v-118z" />
    <glyph glyph-name="ring" unicode="&#x2da;" horiz-adv-x="600" 
d="M302 542q-56 0 -92.5 30.5t-36.5 80.5t36.5 80.5t92.5 30.5t92.5 -30.5t36.5 -80.5t-36.5 -80.5t-92.5 -30.5zM302 596q31 0 49.5 15.5t18.5 41.5t-18.5 42t-49.5 16t-49.5 -16t-18.5 -42t18.5 -41.5t49.5 -15.5z" />
    <glyph glyph-name="ogonek" unicode="&#x2db;" horiz-adv-x="600" 
d="M378 -122v-70q-92 0 -136 30t-44 79q0 92 157 120l18 -30q-54 -16 -76.5 -32.5t-22.5 -42.5q0 -54 104 -54z" />
    <glyph glyph-name="tilde" unicode="&#x2dc;" horiz-adv-x="600" 
d="M365 573q-34 0 -83 21.5t-80 21.5q-22 0 -38.5 -11t-17.5 -28h-61q0 53 34.5 77.5t80.5 24.5q34 0 83 -21.5t81 -21.5q22 0 38 10.5t17 28.5h62q0 -53 -35 -77.5t-81 -24.5z" />
    <glyph glyph-name="hungarumlaut" unicode="&#x2dd;" horiz-adv-x="600" 
d="M179 541h-67l77 145h96zM372 541h-67l76 145h96z" />
    <glyph glyph-name="gravecomb" unicode="&#x300;" horiz-adv-x="0" 
d="M-50 541h-75l-109 150h104z" />
    <glyph glyph-name="acutecomb" unicode="&#x301;" horiz-adv-x="0" 
d="M-158 541h-76l81 150h103z" />
    <glyph glyph-name="uni0302" unicode="&#x302;" horiz-adv-x="0" 
d="M-346 541h-104l155 148h91l154 -148h-103l-96 101z" />
    <glyph glyph-name="tildecomb" unicode="&#x303;" horiz-adv-x="0" 
d="M-165 573q-35 0 -83.5 21.5t-79.5 21.5q-22 0 -38.5 -11t-17.5 -28h-61q0 53 34.5 77.5t80.5 24.5q34 0 83 -21.5t81 -21.5q22 0 38 10.5t17 28.5h61q0 -53 -34.5 -77.5t-80.5 -24.5z" />
    <glyph glyph-name="uni0304" unicode="&#x304;" horiz-adv-x="0" 
d="M-50 589h-358v61h358v-61z" />
    <glyph glyph-name="uni0306" unicode="&#x306;" horiz-adv-x="0" 
d="M-230 542q-80 0 -130.5 38t-50.5 111h73q0 -44 30.5 -67.5t77.5 -23.5t77 23.5t30 67.5h73q0 -74 -50 -111.5t-130 -37.5z" />
    <glyph glyph-name="uni0307" unicode="&#x307;" horiz-adv-x="0" 
d="M-50 562h-101v118h101v-118z" />
    <glyph glyph-name="uni0308" unicode="&#x308;" horiz-adv-x="0" 
d="M-261 563h-98v103h98v-103zM-50 563h-98v103h98v-103z" />
    <glyph glyph-name="uni030A" unicode="&#x30a;" horiz-adv-x="0" 
d="M-180 542q-56 0 -92.5 30.5t-36.5 80.5t36.5 80.5t92.5 30.5q57 0 93.5 -30.5t36.5 -80.5t-36.5 -80.5t-93.5 -30.5zM-180 596q31 0 49.5 15.5t18.5 41.5t-18.5 42t-49.5 16t-49.5 -16t-18.5 -42t18.5 -41.5t49.5 -15.5z" />
    <glyph glyph-name="uni030B" unicode="&#x30b;" horiz-adv-x="0" 
d="M-348 541h-67l76 145h97zM-155 541h-67l75 145h97z" />
    <glyph glyph-name="uni030C" unicode="&#x30c;" horiz-adv-x="0" 
d="M-204 541h-91l-155 150h104l97 -103l96 103h103z" />
    <glyph glyph-name="uni0312" unicode="&#x312;" horiz-adv-x="0" 
d="M-52 544h-107v57q0 53 28.5 81.5t80.5 28.5v-47q-44 0 -44 -42h42v-78z" />
    <glyph glyph-name="dotbelowcomb" unicode="&#x323;" horiz-adv-x="0" 
d="M-50 -180h-101v117h101v-117z" />
    <glyph glyph-name="uni0326" unicode="&#x326;" horiz-adv-x="0" 
d="M-147 -187v45q21 0 33.5 8t12.5 21h-44v74h95v-57q0 -43 -25.5 -67t-71.5 -24z" />
    <glyph glyph-name="uni0327" unicode="&#x327;" horiz-adv-x="0" 
d="M-174 -192q-55 0 -94.5 24.5t-43.5 77.5h65q9 -49 71 -49q61 0 61 36q0 32 -48 32l-20 25l15 46h62l-10 -33q66 -15 66 -70q0 -39 -33 -64t-91 -25z" />
    <glyph glyph-name="uni0328" unicode="&#x328;" horiz-adv-x="0" 
d="M-50 -122v-70q-92 0 -136 30t-44 79q0 92 157 120l18 -30q-54 -17 -76.5 -33t-22.5 -42q0 -54 104 -54z" />
    <glyph glyph-name="uni0394" unicode="&#x394;" horiz-adv-x="816" 
d="M341 700h135l317 -700h-770zM392 606l-231 -524h494l-231 524l-9 41h-14z" />
    <glyph glyph-name="uni03A9" unicode="&#x3a9;" horiz-adv-x="937" 
d="M884 398q0 -101 -79 -185t-215 -117v-13h294v-83h-371v129q139 32 207.5 103t68.5 163v1q0 105 -87.5 173t-233.5 68q-145 0 -232.5 -68t-87.5 -173v-1q0 -92 68.5 -163t207.5 -103v-129h-371v83h294v13q-136 33 -215 117t-79 185v1q0 140 113.5 230t301.5 90
q189 0 302.5 -90t113.5 -230v-1z" />
    <glyph glyph-name="uni03BC" unicode="&#x3bc;" horiz-adv-x="694" 
d="M513 243v233h87v-476h-87l22 144h-14q-52 -162 -213 -162q-96 0 -151 47l22 -209h-85v656h86v-268q0 -148 151 -148q84 0 133 49.5t49 133.5z" />
    <glyph glyph-name="pi" unicode="&#x3c0;" horiz-adv-x="683" 
d="M653 476v-72h-131v-264q0 -75 86 -75v-79q-172 0 -172 153v265h-211v-404h-87v404h-120v72h635z" />
    <glyph glyph-name="uni0E3F" unicode="&#xe3f;" horiz-adv-x="752" 
d="M526 357v-14q96 -11 135 -76q20 -35 20 -82q0 -53 -22 -90q-54 -95 -207 -95h-47v-80h-73v80h-228v700h228v80h73v-80h47q153 0 207 -95q22 -37 22 -90q0 -47 -20 -82q-39 -65 -135 -76zM446 618h-251v-229h251q97 0 128 55q14 25 14 59q0 37 -14 61q-32 54 -128 54z
M574 136q14 24 14 61q0 34 -14 59q-33 55 -128 55h-251v-229h251q95 0 128 54z" />
    <glyph glyph-name="Wgrave" unicode="&#x1e80;" horiz-adv-x="1168" 
d="M625 755h-84l-101 110h112zM397 0h-145l-220 700h100l180 -585l8 -61h14l8 61l171 585h142l171 -585l8 -61h14l8 61l180 585h100l-221 -700h-144l-173 589l-7 50h-14l-8 -50z" />
    <glyph glyph-name="wgrave" unicode="&#x1e81;" horiz-adv-x="950" 
d="M512 541h-75l-109 150h104zM336 0h-134l-174 476h95l133 -383l6 -40h16l6 40l121 383h140l121 -383l6 -40h16l6 40l133 383h95l-174 -476h-134l-126 388l-5 35h-16l-5 -35z" />
    <glyph glyph-name="Wacute" unicode="&#x1e82;" horiz-adv-x="1168" 
d="M626 755h-84l75 110h102zM397 0h-145l-220 700h100l180 -585l8 -61h14l8 61l171 585h142l171 -585l8 -61h14l8 61l180 585h100l-221 -700h-144l-173 589l-7 50h-14l-8 -50z" />
    <glyph glyph-name="wacute" unicode="&#x1e83;" horiz-adv-x="950" 
d="M516 541h-76l81 150h103zM336 0h-134l-174 476h95l133 -383l6 -40h16l6 40l121 383h140l121 -383l6 -40h16l6 40l133 383h95l-174 -476h-134l-126 388l-5 35h-16l-5 -35z" />
    <glyph glyph-name="Wdieresis" unicode="&#x1e84;" horiz-adv-x="1168" 
d="M526 756h-102v104h102v-104zM744 756h-102v104h102v-104zM397 0h-145l-220 700h100l180 -585l8 -61h14l8 61l171 585h142l171 -585l8 -61h14l8 61l180 585h100l-221 -700h-144l-173 589l-7 50h-14l-8 -50z" />
    <glyph glyph-name="wdieresis" unicode="&#x1e85;" horiz-adv-x="950" 
d="M418 563h-98v103h98v-103zM629 563h-98v103h98v-103zM336 0h-134l-174 476h95l133 -383l6 -40h16l6 40l121 383h140l121 -383l6 -40h16l6 40l133 383h95l-174 -476h-134l-126 388l-5 35h-16l-5 -35z" />
    <glyph glyph-name="uni1E9E" unicode="&#x1e9e;" horiz-adv-x="810" 
d="M195 0h-91v700h624v-140l-261 -171v-15h62q70 0 121 -25t76 -68q22 -39 22 -83q0 -55 -25 -99q-58 -99 -210 -99h-177v82h175q95 0 129 55q15 26 15 62q0 29 -13 52q-30 54 -131 54h-125v120l263 179v14h-454v-618z" />
    <glyph glyph-name="uni1EA0" unicode="&#x1ea0;" horiz-adv-x="816" 
d="M475 700l318 -700h-102l-111 250h-344l-111 -250h-102l319 700h133zM392 599l-119 -267h270l-119 267l-9 47h-14zM459 -180h-101v117h101v-117z" />
    <glyph glyph-name="uni1EA1" unicode="&#x1ea1;" horiz-adv-x="635" 
d="M308 494q122 0 183.5 -49t61.5 -141v-304h-88l22 138h-14q-19 -76 -79 -116t-151 -40q-97 0 -142 47q-36 36 -36 93q0 59 35 93q44 45 145 50l222 10v31q0 113 -161 113q-44 0 -77 -10t-48.5 -22t-25 -30.5t-10.5 -26t-2 -16.5v-3h-88v3q0 12 2 27t16 44.5t38.5 51.5
t75.5 39.5t121 17.5zM260 54q98 0 152 49.5t55 105.5l-212 -14q-59 -4 -83 -28q-17 -16 -17 -44q0 -27 17 -44q25 -25 88 -25zM385 -180h-101v117h101v-117z" />
    <glyph glyph-name="uni1EB8" unicode="&#x1eb8;" horiz-adv-x="686" 
d="M615 0h-511v700h511v-82h-420v-225h410v-82h-410v-229h420v-82zM430 -180h-101v117h101v-117z" />
    <glyph glyph-name="uni1EB9" unicode="&#x1eb9;" horiz-adv-x="650" 
d="M602 250v-34h-464q3 -53 29 -90q48 -70 170 -70q137 0 177 89h88q-18 -73 -89.5 -118t-174.5 -45q-177 0 -248 104q-41 61 -41 150q0 88 44 153q73 105 236 105q131 0 202 -65t71 -179zM141 284h370q-5 66 -51 101.5t-131 35.5q-114 -2 -163 -71q-19 -29 -25 -66z
M386 -180h-101v117h101v-117z" />
    <glyph glyph-name="uni1EBC" unicode="&#x1ebc;" horiz-adv-x="686" 
d="M446 758q-35 0 -83.5 21.5t-79.5 21.5q-22 0 -38.5 -11t-17.5 -28h-61q0 53 34.5 77.5t80.5 24.5q35 0 83.5 -21.5t79.5 -21.5q22 0 38.5 10.5t17.5 28.5h61q0 -53 -35 -77.5t-80 -24.5zM615 0h-511v700h511v-82h-420v-225h410v-82h-410v-229h420v-82z" />
    <glyph glyph-name="uni1EBD" unicode="&#x1ebd;" horiz-adv-x="650" 
d="M251 616q-22 0 -38.5 -11t-17.5 -28h-61q0 53 34.5 77.5t80.5 24.5q35 0 84 -21.5t80 -21.5q22 0 38 10.5t17 28.5h61q0 -53 -34.5 -77.5t-80.5 -24.5q-35 0 -83.5 21.5t-79.5 21.5zM602 250v-34h-464q3 -53 29 -90q48 -70 170 -70q137 0 177 89h88q-18 -73 -89.5 -118
t-174.5 -45q-177 0 -248 104q-41 61 -41 150q0 88 44 153q73 105 236 105q131 0 202 -65t71 -179zM141 284h370q-5 66 -51 101.5t-131 35.5q-114 -2 -163 -71q-19 -29 -25 -66z" />
    <glyph glyph-name="uni1ECA" unicode="&#x1eca;" horiz-adv-x="299" 
d="M195 0h-91v700h91v-700zM200 -180h-101v117h101v-117z" />
    <glyph glyph-name="uni1ECB" unicode="&#x1ecb;" horiz-adv-x="274" 
d="M188 562h-101v118h101v-118zM180 0h-86v476h86v-476zM188 -180h-101v117h101v-117z" />
    <glyph glyph-name="uni1ECC" unicode="&#x1ecc;" horiz-adv-x="964" 
d="M483 -19q-152 0 -259.5 62.5t-147.5 172.5q-23 60 -23 134t23 134q40 109 147.5 172t258.5 63t258.5 -63t147.5 -172q23 -60 23 -134t-23 -134q-39 -109 -146 -172t-259 -63zM482 63q119 0 202 48.5t114 134.5q18 48 18 104t-18 104q-30 85 -113.5 134t-202.5 49
t-202.5 -49t-113.5 -134q-18 -48 -18 -104t18 -104q31 -85 114.5 -134t201.5 -49zM534 -180h-101v117h101v-117z" />
    <glyph glyph-name="uni1ECD" unicode="&#x1ecd;" horiz-adv-x="698" 
d="M349 -18q-88 0 -155.5 29.5t-103.5 83.5q-41 61 -41 143q0 84 41 143q36 54 103.5 83.5t155.5 29.5t155.5 -29.5t103.5 -83.5q42 -61 42 -143t-42 -143q-36 -54 -103.5 -83.5t-155.5 -29.5zM349 57q128 0 181 77q30 44 30 104t-30 104q-53 77 -181 77t-181 -77
q-29 -43 -29 -104t29 -104q53 -77 181 -77zM399 -180h-101v117h101v-117z" />
    <glyph glyph-name="uni1EE4" unicode="&#x1ee4;" horiz-adv-x="838" 
d="M419 -19q-151 0 -238 80t-87 219v420h94v-418q0 -101 61.5 -159t169.5 -58t169.5 58t61.5 159v418h94v-420q0 -139 -87 -219t-238 -80zM469 -180h-101v117h101v-117z" />
    <glyph glyph-name="uni1EE5" unicode="&#x1ee5;" horiz-adv-x="682" 
d="M296 -18q-106 0 -160 55.5t-54 163.5v275h87v-268q0 -148 151 -148q84 0 132.5 49.5t48.5 133.5v233h87v-476h-87l22 144h-14q-52 -162 -213 -162zM417 -180h-101v117h101v-117z" />
    <glyph glyph-name="Ygrave" unicode="&#x1ef2;" horiz-adv-x="740" 
d="M337 865l73 -110h-84l-101 110h112zM612 700h113l-310 -443v-257h-91v257l-309 443h113l229 -333l6 -35h14l6 35z" />
    <glyph glyph-name="ygrave" unicode="&#x1ef3;" horiz-adv-x="625" 
d="M271 691l80 -150h-75l-109 150h104zM336 108l171 368h103l-258 -526q-35 -78 -75.5 -110t-106.5 -32q-73 0 -115 34t-42 95v12h91v-11q0 -28 17.5 -43t49.5 -15q31 0 52.5 16t39.5 54l44 95h-52l-237 431h103l198 -368h17z" />
    <glyph glyph-name="uni1EF8" unicode="&#x1ef8;" horiz-adv-x="740" 
d="M289 801q-22 0 -38.5 -11t-17.5 -28h-61q0 53 34.5 77.5t80.5 24.5q35 0 83.5 -21.5t79.5 -21.5q22 0 38.5 10.5t17.5 28.5h61q0 -53 -35 -77.5t-80 -24.5q-35 0 -83.5 21.5t-79.5 21.5zM612 700h113l-310 -443v-257h-91v257l-309 443h113l229 -333l6 -35h14l6 35z" />
    <glyph glyph-name="uni1EF9" unicode="&#x1ef9;" horiz-adv-x="625" 
d="M232 616q-22 0 -38.5 -11t-17.5 -28h-61q0 53 34.5 77.5t80.5 24.5q34 0 83 -21.5t81 -21.5q22 0 38 10.5t17 28.5h61q0 -53 -34.5 -77.5t-80.5 -24.5q-35 0 -83.5 21.5t-79.5 21.5zM336 108l171 368h103l-258 -526q-35 -78 -75.5 -110t-106.5 -32q-73 0 -115 34t-42 95
v12h91v-11q0 -28 17.5 -43t49.5 -15q31 0 52.5 16t39.5 54l44 95h-52l-237 431h103l198 -368h17z" />
    <glyph glyph-name="uni2000" unicode="&#x2000;" horiz-adv-x="600" 
 />
    <glyph glyph-name="uni2001" unicode="&#x2001;" horiz-adv-x="1200" 
 />
    <glyph glyph-name="uni2002" unicode="&#x2002;" horiz-adv-x="600" 
 />
    <glyph glyph-name="uni2003" unicode="&#x2003;" horiz-adv-x="1200" 
 />
    <glyph glyph-name="uni2004" unicode="&#x2004;" horiz-adv-x="400" 
 />
    <glyph glyph-name="uni2005" unicode="&#x2005;" horiz-adv-x="300" 
 />
    <glyph glyph-name="uni2006" unicode="&#x2006;" horiz-adv-x="200" 
 />
    <glyph glyph-name="uni2007" unicode="&#x2007;" 
 />
    <glyph glyph-name="uni2008" unicode="&#x2008;" horiz-adv-x="229" 
 />
    <glyph glyph-name="uni2009" unicode="&#x2009;" horiz-adv-x="150" 
 />
    <glyph glyph-name="uni200A" unicode="&#x200a;" horiz-adv-x="50" 
 />
    <glyph glyph-name="uni200B" unicode="&#x200b;" horiz-adv-x="0" 
 />
    <glyph glyph-name="uni200C" unicode="&#x200c;" horiz-adv-x="0" 
 />
    <glyph glyph-name="uni200D" unicode="&#x200d;" horiz-adv-x="0" 
 />
    <glyph glyph-name="endash" unicode="&#x2013;" horiz-adv-x="600" 
d="M600 256h-600v75h600v-75z" />
    <glyph glyph-name="emdash" unicode="&#x2014;" horiz-adv-x="1200" 
d="M1200 256h-1200v75h1200v-75z" />
    <glyph glyph-name="quoteleft" unicode="&#x2018;" horiz-adv-x="234" 
d="M176 718v-61q-31 0 -43.5 -15.5t-12.5 -55.5h56v-115h-117v102q0 145 117 145z" />
    <glyph glyph-name="quoteright" unicode="&#x2019;" horiz-adv-x="234" 
d="M59 468v61q32 0 44 15.5t12 55.5h-56v115h116v-102q0 -145 -116 -145z" />
    <glyph glyph-name="quotesinglbase" unicode="&#x201a;" horiz-adv-x="224" 
d="M54 -132v60q32 0 44 16t12 56h-56v114h116v-101q0 -145 -116 -145z" />
    <glyph glyph-name="quotedblleft" unicode="&#x201c;" horiz-adv-x="413" 
d="M176 718v-61q-32 0 -44 -15.5t-12 -56.5h56v-114h-117v102q0 145 117 145zM354 718v-61q-32 0 -44 -15.5t-12 -56.5h56v-114h-117v102q0 145 117 145z" />
    <glyph glyph-name="quotedblright" unicode="&#x201d;" horiz-adv-x="413" 
d="M59 468v61q32 0 44 15.5t12 55.5h-56v115h116v-102q0 -145 -116 -145zM237 468v61q32 0 44 15.5t12 55.5h-56v115h117v-102q0 -145 -117 -145z" />
    <glyph glyph-name="quotedblbase" unicode="&#x201e;" horiz-adv-x="403" 
d="M54 -132v60q32 0 44 16t12 56h-56v114h116v-101q0 -145 -116 -145zM232 -132v60q32 0 44 16t12 56h-56v114h117v-101q0 -145 -117 -145z" />
    <glyph glyph-name="dagger" unicode="&#x2020;" horiz-adv-x="662" 
d="M372 497h241v-74h-241v-533h-82v533h-241v74h241v221h82v-221z" />
    <glyph glyph-name="daggerdbl" unicode="&#x2021;" horiz-adv-x="653" 
d="M604 497v-74h-236v-236h236v-74h-236v-223h-82v223h-237v74h237v236h-237v74h237v221h82v-221h236z" />
    <glyph glyph-name="bullet" unicode="&#x2022;" horiz-adv-x="349" 
d="M265 168h-181v184h181v-184z" />
    <glyph glyph-name="ellipsis" unicode="&#x2026;" horiz-adv-x="735" 
d="M174 0h-120v123h120v-123zM427 0h-120v123h120v-123zM680 0h-120v123h120v-123z" />
    <glyph glyph-name="uni202F" unicode="&#x202f;" horiz-adv-x="150" 
 />
    <glyph glyph-name="perthousand" unicode="&#x2030;" horiz-adv-x="1211" 
d="M243 372q-87 0 -142.5 48.5t-55.5 121.5t55.5 121.5t142.5 48.5q88 0 143 -48t55 -122q0 -73 -55 -121.5t-143 -48.5zM161 -11h-88l660 722h86zM243 437q57 0 90.5 29t33.5 76t-33.5 76.5t-90.5 29.5t-90.5 -29.5t-33.5 -76.5t33.5 -76t90.5 -29zM645 -12q-85 0 -139 48
t-54 122q0 73 54 121.5t139 48.5q100 0 158 -72h8q59 72 158 72q85 0 139 -48.5t54 -121.5q0 -74 -53.5 -122t-139.5 -48q-95 0 -158 71h-8q-61 -71 -158 -71zM650 52q57 0 91 29.5t34 76.5t-34 76.5t-91 29.5t-90.5 -29.5t-33.5 -76.5t33.5 -76.5t90.5 -29.5zM964 52
q57 0 91 29.5t34 76.5t-34 76.5t-91 29.5t-90.5 -29.5t-33.5 -76.5t33.5 -76.5t90.5 -29.5z" />
    <glyph glyph-name="minute" unicode="&#x2032;" horiz-adv-x="305" 
d="M136 472h-77l81 237h106z" />
    <glyph glyph-name="second" unicode="&#x2033;" horiz-adv-x="486" 
d="M136 472h-77l81 237h106zM317 472h-76l80 237h106z" />
    <glyph glyph-name="guilsinglleft" unicode="&#x2039;" horiz-adv-x="366" 
d="M281 54h-80v47q0 56 -30.5 88t-85.5 32h-13v88h13q55 0 85.5 32t30.5 88v47h80v-47q0 -75 -32 -114t-102 -43v-14q70 -5 102 -44t32 -113v-47z" />
    <glyph glyph-name="guilsinglright" unicode="&#x203a;" horiz-adv-x="366" 
d="M84 476h80v-47q0 -56 31 -88t86 -32h13v-88h-13q-55 0 -86 -32t-31 -88v-47h-80v47q0 150 135 157v14q-70 5 -102.5 44t-32.5 113v47z" />
    <glyph glyph-name="fraction" unicode="&#x2044;" horiz-adv-x="170" 
d="M-205 -11h-87l667 722h87z" />
    <glyph glyph-name="uni2070" unicode="&#x2070;" horiz-adv-x="564" 
d="M282 287q-162 0 -209 134q-19 55 -19 124t19 124q47 134 209 134q161 0 209 -135q19 -54 19 -123t-19 -123q-47 -135 -209 -135zM282 354q101 0 133 88q15 40 15 103q0 61 -14 103q-31 88 -134 88t-133 -88q-15 -43 -15 -103q0 -66 15 -103q31 -88 133 -88z" />
    <glyph glyph-name="uni2074" unicode="&#x2074;" horiz-adv-x="517" 
d="M382 539h111v-67h-111v-172h-75v172h-268v105l230 213h113v-251zM98 550v-11h209v191h-11z" />
    <glyph glyph-name="uni2075" unicode="&#x2075;" horiz-adv-x="494" 
d="M249 287q-86 0 -140 41t-56 105h77q2 -34 34.5 -57.5t84.5 -23.5q67 0 99 32q25 27 25 67q0 41 -24 67q-30 30 -92 30q-76 0 -103 -48h-87v290h384v-68h-313v-175h11q40 63 132 63q85 0 129 -46q41 -41 41 -112q0 -67 -41 -110q-55 -55 -161 -55z" />
    <glyph glyph-name="uni2076" unicode="&#x2076;" horiz-adv-x="521" 
d="M268 287q-152 0 -197 123q-17 49 -17 110q0 86 22 149q48 134 206 134q87 0 139 -42.5t53 -110.5h-77q-1 40 -32.5 64t-85.5 24q-151 0 -151 -215h11q42 87 155 87q91 0 139 -50q41 -41 41 -108q0 -66 -43 -109q-54 -56 -163 -56zM269 351q72 0 104 34q25 25 25 64
t-25 64q-34 34 -104 34q-72 0 -104 -34q-25 -25 -25 -64q0 -37 25 -64q32 -34 104 -34z" />
    <glyph glyph-name="uni2077" unicode="&#x2077;" horiz-adv-x="467" 
d="M185 300h-91l272 411v11h-340v68h406v-106z" />
    <glyph glyph-name="uni2078" unicode="&#x2078;" horiz-adv-x="507" 
d="M254 287q-119 0 -169 52q-35 37 -35 87q0 46 30 76q30 32 94 38v11q-62 5 -95 38q-29 31 -29 75q0 50 35 87q52 52 169 52q116 0 168 -52q34 -36 34 -87q0 -47 -29 -75q-32 -33 -94 -38v-11q61 -5 94 -38q29 -29 29 -76q0 -51 -34 -87q-52 -52 -168 -52zM254 579
q78 0 107 29q19 19 19 49q0 31 -20 51q-29 31 -106 31q-76 0 -107 -31q-20 -20 -20 -51q0 -30 19 -49q29 -29 108 -29zM254 351q77 0 106 31q20 20 20 51t-19 50q-29 29 -107 29q-79 0 -108 -29q-19 -21 -19 -50q0 -31 20 -51q31 -31 107 -31z" />
    <glyph glyph-name="uni2079" unicode="&#x2079;" horiz-adv-x="521" 
d="M239 287q-86 0 -138.5 42.5t-53.5 110.5h77q1 -39 33 -63.5t85 -24.5q151 0 151 215h-11q-40 -87 -155 -87q-90 0 -139 49q-41 44 -41 109q0 66 43 109q56 56 163 56q153 0 197 -124q17 -44 17 -109q0 -89 -21 -149q-48 -134 -207 -134zM252 543q73 0 105 34q24 26 24 64
t-24 64q-34 34 -105 34q-70 0 -104 -34q-24 -24 -24 -64q0 -38 24 -64q32 -34 104 -34z" />
    <glyph glyph-name="uni207A" unicode="&#x207a;" horiz-adv-x="549" 
d="M302 556h176v-54h-176v-156h-55v156h-176v54h176v155h55v-155z" />
    <glyph glyph-name="uni207B" unicode="&#x207b;" horiz-adv-x="549" 
d="M478 502h-407v54h407v-54z" />
    <glyph glyph-name="uni207C" unicode="&#x207c;" horiz-adv-x="549" 
d="M478 585h-407v54h407v-54zM478 419h-407v54h407v-54z" />
    <glyph glyph-name="uni207D" unicode="&#x207d;" horiz-adv-x="325" 
d="M309 254v-58q-107 32 -170 125.5t-63 216.5t63 217t170 126v-58q-79 -35 -123 -111t-44 -174t44 -174.5t123 -109.5z" />
    <glyph glyph-name="uni207E" unicode="&#x207e;" horiz-adv-x="325" 
d="M16 823v58q106 -31 169.5 -125t63.5 -217q0 -124 -63.5 -218t-169.5 -125v58q78 35 122 111t44 174t-44 174.5t-122 109.5z" />
    <glyph glyph-name="uni2080" unicode="&#x2080;" horiz-adv-x="564" 
d="M282 -103q-162 0 -209 134q-19 55 -19 124t19 124q47 134 209 134q161 0 209 -135q19 -54 19 -123t-19 -123q-47 -135 -209 -135zM282 -36q101 0 133 88q15 40 15 103q0 61 -14 103q-31 88 -134 88t-133 -88q-15 -43 -15 -103q0 -66 15 -103q31 -88 133 -88z" />
    <glyph glyph-name="uni2081" unicode="&#x2081;" horiz-adv-x="403" 
d="M321 -90h-76v417h-11q-9 -68 -45 -98.5t-102 -30.5h-53v80h51q63 0 97.5 32.5t34.5 89.5h104v-490z" />
    <glyph glyph-name="uni2082" unicode="&#x2082;" horiz-adv-x="487" 
d="M439 -90h-380v111l200 116q55 33 78.5 61t23.5 62q0 36 -21 57q-27 29 -95 29q-60 0 -92.5 -28t-34.5 -81v-12h-77v13q1 82 55 128.5t149 46.5q107 0 157 -52q37 -39 37 -97q0 -55 -31 -95t-104 -84l-174 -97v-11h309v-67z" />
    <glyph glyph-name="uni2083" unicode="&#x2083;" horiz-adv-x="497" 
d="M246 -103q-94 0 -149 43t-56 118v7h77v-6q1 -47 35 -72t93 -25q72 0 101 31q20 20 20 50t-18 49q-32 30 -106 30h-30v68h30q79 0 106 29q18 18 18 48t-20 50q-29 31 -101 31q-59 0 -93 -26.5t-35 -76.5h-77q1 80 55.5 124t149.5 44q114 0 164 -52q35 -35 35 -87
q0 -46 -29 -75q-33 -33 -96 -38v-11q63 -5 95 -38q30 -30 30 -76q0 -52 -35 -87q-50 -52 -164 -52z" />
    <glyph glyph-name="uni2084" unicode="&#x2084;" horiz-adv-x="517" 
d="M382 149h111v-67h-111v-172h-75v172h-268v105l230 213h113v-251zM98 160v-11h209v191h-11z" />
    <glyph glyph-name="uni2085" unicode="&#x2085;" horiz-adv-x="494" 
d="M249 -103q-86 0 -140 41t-56 105h77q2 -34 34.5 -57.5t84.5 -23.5q67 0 99 32q25 27 25 67q0 41 -24 67q-30 30 -92 30q-76 0 -103 -48h-87v290h384v-68h-313v-175h11q40 63 132 63q85 0 129 -46q41 -41 41 -112q0 -67 -41 -110q-55 -55 -161 -55z" />
    <glyph glyph-name="uni2086" unicode="&#x2086;" horiz-adv-x="521" 
d="M268 -103q-152 0 -197 123q-17 49 -17 110q0 86 22 149q48 134 206 134q87 0 139 -42.5t53 -110.5h-77q-1 40 -32.5 64t-85.5 24q-151 0 -151 -215h11q42 87 155 87q91 0 139 -50q41 -41 41 -108q0 -66 -43 -109q-54 -56 -163 -56zM269 -39q72 0 104 34q25 25 25 64
t-25 64q-34 34 -104 34q-72 0 -104 -34q-25 -25 -25 -64q0 -37 25 -64q32 -34 104 -34z" />
    <glyph glyph-name="uni2087" unicode="&#x2087;" horiz-adv-x="467" 
d="M185 -90h-91l272 411v11h-340v68h406v-106z" />
    <glyph glyph-name="uni2088" unicode="&#x2088;" horiz-adv-x="507" 
d="M254 -103q-119 0 -169 52q-35 37 -35 87q0 46 30 76q30 32 94 38v11q-62 5 -95 38q-29 31 -29 75q0 50 35 87q52 52 169 52q116 0 168 -52q34 -36 34 -87q0 -47 -29 -75q-32 -33 -94 -38v-11q61 -5 94 -38q29 -29 29 -76q0 -51 -34 -87q-52 -52 -168 -52zM254 189
q78 0 107 29q19 19 19 49q0 31 -20 51q-29 31 -106 31q-76 0 -107 -31q-20 -20 -20 -51q0 -30 19 -49q29 -29 108 -29zM254 -39q77 0 106 31q20 20 20 51t-19 50q-29 29 -107 29q-79 0 -108 -29q-19 -21 -19 -50q0 -31 20 -51q31 -31 107 -31z" />
    <glyph glyph-name="uni2089" unicode="&#x2089;" horiz-adv-x="521" 
d="M239 -103q-86 0 -138.5 42.5t-53.5 110.5h77q1 -39 33 -63.5t85 -24.5q151 0 151 215h-11q-40 -87 -155 -87q-90 0 -139 49q-41 44 -41 109q0 66 43 109q56 56 163 56q153 0 197 -124q17 -44 17 -109q0 -89 -21 -149q-48 -134 -207 -134zM252 153q73 0 105 34
q24 26 24 64t-24 64q-34 34 -105 34q-70 0 -104 -34q-24 -24 -24 -64q0 -38 24 -64q32 -34 104 -34z" />
    <glyph glyph-name="uni208A" unicode="&#x208a;" horiz-adv-x="551" 
d="M303 166h176v-54h-176v-156h-56v156h-175v54h175v155h56v-155z" />
    <glyph glyph-name="uni208B" unicode="&#x208b;" horiz-adv-x="551" 
d="M479 112h-407v54h407v-54z" />
    <glyph glyph-name="uni208C" unicode="&#x208c;" horiz-adv-x="551" 
d="M479 195h-407v54h407v-54zM479 29h-407v54h407v-54z" />
    <glyph glyph-name="uni208D" unicode="&#x208d;" horiz-adv-x="325" 
d="M309 -129v-58q-107 32 -170 125.5t-63 216.5t63 217t170 126v-58q-79 -35 -123 -111t-44 -174t44 -174.5t123 -109.5z" />
    <glyph glyph-name="uni208E" unicode="&#x208e;" horiz-adv-x="325" 
d="M16 440v58q106 -31 169.5 -125t63.5 -217q0 -124 -63.5 -217.5t-169.5 -125.5v58q78 34 122 110.5t44 174.5t-44 174.5t-122 109.5z" />
    <glyph glyph-name="uni20A9" unicode="&#x20a9;" horiz-adv-x="1171" 
d="M1038 700h99l-80 -255h74v-63h-94l-21 -68h115v-64h-135l-79 -250h-145l-73 250h-227l-73 -250h-145l-79 250h-136v64h116l-22 68h-94v63h75l-81 255h100l78 -255h229l74 255h143l74 -255h229zM578 639l-7 -50l-42 -144h113l-42 144l-8 50h-14zM422 382h-191l21 -68h150z
M511 382l-20 -68h189l-20 68h-149zM769 314h150l21 68h-191zM336 54l8 61l39 135h-112l42 -135l9 -61h14zM849 54l9 61l42 135h-112l39 -135l8 -61h14z" />
    <glyph glyph-name="Euro" unicode="&#x20ac;" horiz-adv-x="743" 
d="M478 61q115 0 194 52l41 -71q-96 -59 -232 -59q-144 0 -244.5 62t-138.5 170q-4 9 -5 16h-77v70h63q-3 24 -3 51q0 14 2 42h-62v70h75q1 4 3.5 11t3.5 10q38 108 138.5 170t244.5 62q136 0 232 -59l-41 -71q-79 52 -194 52q-110 0 -186 -47t-106 -128h419l-41 -70h-395
q-2 -28 -2 -42q0 -27 3 -51h347l-40 -70h-289q31 -79 106.5 -124.5t183.5 -45.5z" />
    <glyph glyph-name="uni20AE" unicode="&#x20ae;" horiz-adv-x="689" 
d="M674 700v-82h-284v-120l202 52v-71l-202 -52v-63l202 52v-71l-202 -52v-293h-91v270l-208 -54v71l208 54v63l-208 -53v70l208 54v143h-285v82h660z" />
    <glyph glyph-name="uni20B4" unicode="&#x20b4;" horiz-adv-x="751" 
d="M720 391h-122q-45 -27 -131 -56l-67 -19h320v-51h-469q-75 -37 -75 -98v-1q0 -104 188 -104q225 0 225 158v8h95v-13q0 -112 -83 -173t-233 -61q-132 0 -209.5 49t-77.5 142v1q0 53 27 92h-76v51h129q48 33 132 59l57 16h-318v50h474q40 18 58 38t18 51v1q0 107 -186 107
q-110 0 -170 -41.5t-60 -117.5v-11h-95v14q0 114 84 175.5t237 61.5q134 0 209.5 -48t75.5 -143v-1q0 -51 -24 -86h67v-50z" />
    <glyph glyph-name="uni20B8" unicode="&#x20b8;" horiz-adv-x="666" 
d="M652 627h-638v73h638v-73zM383 0h-100v493h-269v73h638v-73h-269v-493z" />
    <glyph glyph-name="uni20B9" unicode="&#x20b9;" horiz-adv-x="700" 
d="M104 700h547v-70h-112q44 -36 53 -91h59v-70h-59q-14 -68 -72.5 -111t-159.5 -43h-153v-14l46 -19l350 -282h-130l-369 306v75h256q58 0 95 23.5t48 64.5h-399v70h398q-11 40 -49.5 63.5t-97.5 23.5h-251v74z" />
    <glyph glyph-name="uni20BA" unicode="&#x20ba;" horiz-adv-x="679" 
d="M546 343h98q0 -149 -100 -246t-282 -97h-122v294l-91 -24v71l91 24v64l-91 -24v70l91 24v201h97v-175l312 82v-71l-312 -82v-64l312 82v-71l-312 -82v-238h30q135 0 207 72t72 190z" />
    <glyph glyph-name="uni20BD" unicode="&#x20bd;" horiz-adv-x="700" 
d="M641 604q25 -44 25 -104t-25 -104q-56 -97 -200 -97h-259v-58h356v-53h-356v-188h-91v188h-67v53h67v58h-67v82h67v319h350q144 0 200 -96zM557 436q16 28 16 64q0 35 -16 63q-31 55 -120 55h-255v-237h255q88 0 120 55z" />
    <glyph glyph-name="uni20BF" unicode="&#x20bf;" horiz-adv-x="752" 
d="M526 357v-14q96 -11 135 -76q20 -35 20 -82q0 -53 -22 -90q-50 -89 -191 -95v-80h-73v80h-91v-80h-73v80h-127v700h127v80h73v-80h91v80h73v-80q141 -6 191 -95q22 -37 22 -90q0 -47 -20 -82q-39 -65 -135 -76zM446 618h-251v-229h251q97 0 128 55q14 25 14 59
q0 37 -14 61q-32 54 -128 54zM574 136q14 24 14 61q0 34 -14 59q-33 55 -128 55h-251v-229h251q95 0 128 54z" />
    <glyph glyph-name="uni2100" unicode="&#x2100;" horiz-adv-x="953" 
d="M359 468h-11q-13 -54 -56 -83t-106 -29q-68 0 -101 33q-25 25 -25 65q0 41 25 66q31 32 99 36l154 8v6v12q0 76 -102 76q-52 0 -78.5 -19t-28.5 -52h-76q2 61 50 96t135 35q176 0 176 -138v-12v-199h-74zM111 -11l667 722h86l-666 -722h-87zM139 459q0 -21 11 -32
q17 -17 58 -17q56 0 93 29.5t37 74.5v5l-136 -9q-38 -5 -52 -19q-11 -11 -11 -32zM700 47q51 0 82 19.5t37 54.5h74q-5 -64 -57 -101t-136 -37q-126 0 -177 76q-30 41 -30 104q0 61 30 105q53 77 180 77q86 0 139.5 -37t57.5 -101h-75q-6 35 -37.5 54.5t-84.5 19.5
q-82 0 -113 -47q-19 -28 -19 -71q0 -42 18 -69q32 -47 111 -47z" />
    <glyph glyph-name="uni2105" unicode="&#x2105;" horiz-adv-x="953" 
d="M259 357q-124 0 -176 75q-30 42 -30 105q0 61 30 105q52 76 180 76q86 0 139.5 -36.5t57.5 -101.5h-75q-6 35 -38 55t-84 20q-81 0 -113 -47q-20 -29 -20 -71q0 -41 19 -69q32 -47 111 -47q105 0 118 74h75q-5 -65 -57 -101.5t-137 -36.5zM177 -11h-88l667 722h87z
M687 -17q-64 0 -111.5 21.5t-72.5 58.5q-29 43 -29 101t29 101q56 80 184 80t184 -81q29 -44 29 -100q0 -57 -29 -100q-54 -81 -184 -81zM687 47q84 0 117 50q19 28 19 67q0 41 -19 67q-34 50 -117 50t-117 -49q-19 -30 -19 -68q0 -40 19 -68q33 -49 117 -49z" />
    <glyph glyph-name="uni2113" unicode="&#x2113;" horiz-adv-x="479" 
d="M275 52q49 0 71 33t22 103h74q0 -97 -38 -151.5t-129 -54.5q-84 0 -122 44t-38 113v145q-45 -7 -101 -7v70q47 0 101 7v184q0 92 49 136t123 44t116.5 -43.5t42.5 -110.5q0 -85 -67.5 -158t-187.5 -107v-158q0 -40 20.5 -64.5t63.5 -24.5zM191 544v-173q85 27 131.5 77
t46.5 110q0 43 -22 66.5t-62 23.5q-94 0 -94 -104z" />
    <glyph glyph-name="uni2116" unicode="&#x2116;" horiz-adv-x="1446" 
d="M195 0h-91v700h138l400 -546l24 -92h14v638h91v-700h-138l-400 547l-24 91h-14v-638zM1127 176q-117 0 -190 65t-73 167q0 101 73 165t190 64t190 -64t73 -165q0 -102 -73 -167t-190 -65zM1127 250q81 0 127.5 42.5t46.5 115.5q0 71 -46.5 113t-127.5 42t-127.5 -42
t-46.5 -113q0 -72 46.5 -115t127.5 -43zM1397 0h-532v78h532v-78z" />
    <glyph glyph-name="uni2117" unicode="&#x2117;" horiz-adv-x="1036" 
d="M518 -78q-209 0 -337 118.5t-128 308.5v1q0 191 128 309.5t337 118.5t337 -118.5t128 -309.5v-1q0 -190 -128 -308.5t-337 -118.5zM518 -18q179 0 288.5 101.5t109.5 265.5v1q0 165 -109.5 266.5t-288.5 101.5t-288.5 -101.5t-109.5 -266.5v-1q0 -164 109.5 -265.5
t288.5 -101.5zM425 156h-69v388h223q69 0 110 -32.5t41 -87.5t-40.5 -88t-109.5 -33h-155v-147zM425 483v-119h153q36 0 56.5 16t20.5 44t-20.5 43.5t-55.5 15.5h-154z" />
    <glyph glyph-name="trademark" unicode="&#x2122;" horiz-adv-x="1177" 
d="M217 638h-197v62h468v-62h-197v-398h-74v398zM608 240h-69v460h116l169 -433l168 433h117v-460h-69v408l-159 -408h-115l-158 408v-408z" />
    <glyph glyph-name="uni2126" unicode="&#x2126;" horiz-adv-x="937" 
d="M884 398q0 -101 -79 -185t-215 -117v-13h294v-83h-371v129q139 32 207.5 103t68.5 163v1q0 105 -87.5 173t-233.5 68q-145 0 -232.5 -68t-87.5 -173v-1q0 -92 68.5 -163t207.5 -103v-129h-371v83h294v13q-136 33 -215 117t-79 185v1q0 140 113.5 230t301.5 90
q189 0 302.5 -90t113.5 -230v-1z" />
    <glyph glyph-name="estimated" unicode="&#x212e;" horiz-adv-x="858" 
d="M429 0q-172 0 -280.5 97t-108.5 257q0 159 109 257.5t280 98.5q174 0 277.5 -95t111.5 -270h-619q-8 0 -11.5 -3t-3.5 -15v-174q0 -34 73 -79.5t172 -45.5q71 0 136.5 31.5t109.5 81.5h72q-70 -78 -140 -109.5t-178 -31.5zM199 367h457q11 0 14 3.5t3 12.5v171
q0 42 -81.5 86.5t-163.5 44.5q-94 0 -169 -47t-75 -77v-185q0 -9 15 -9z" />
    <glyph glyph-name="uni2153" unicode="&#x2153;" horiz-adv-x="922" 
d="M126 -11h-87l667 722h87zM271 300h-66v314h-15q-12 -57 -45 -82.5t-92 -25.5h-35v70h35q68 0 98.5 29.5t30.5 94.5h89v-400zM711 -11q-78 0 -124.5 36t-46.5 102h67q0 -39 28 -60.5t76 -21.5t72.5 18t24.5 47v1q0 30 -23.5 46t-64.5 16h-35v56h35q41 0 64.5 16.5
t23.5 44.5v1q0 29 -24.5 47.5t-72.5 18.5t-76 -21.5t-28 -60.5h-67q0 66 46.5 102t124.5 36q77 0 121 -32.5t44 -83.5v-1q0 -34 -24 -58.5t-67 -29.5v-14q43 -7 67 -31t24 -57v-1q0 -51 -44 -83.5t-121 -32.5z" />
    <glyph glyph-name="uni2154" unicode="&#x2154;" horiz-adv-x="1013" 
d="M368 300h-325v97l174 93q46 25 64.5 46.5t18.5 48.5v1q0 32 -25 50.5t-70 18.5q-48 0 -76.5 -24t-28.5 -64h-69q0 65 46.5 105t126.5 40q77 0 121 -34.5t44 -90.5v-1q0 -44 -25.5 -76t-90.5 -66l-137 -71v-15h252v-58zM217 -11h-87l667 722h87zM802 -11q-78 0 -124.5 36
t-46.5 102h67q0 -39 28 -60.5t76 -21.5t72.5 18t24.5 47v1q0 30 -23.5 46t-64.5 16h-35v56h35q41 0 64.5 16.5t23.5 44.5v1q0 29 -24.5 47.5t-72.5 18.5t-76 -21.5t-28 -60.5h-67q0 66 46.5 102t124.5 36q77 0 121 -32.5t44 -83.5v-1q0 -34 -24 -58.5t-67 -29.5v-14
q43 -7 67 -31t24 -57v-1q0 -51 -44 -83.5t-121 -32.5z" />
    <glyph glyph-name="oneeighth" unicode="&#x215b;" horiz-adv-x="932" 
d="M126 -11h-87l667 722h87zM271 300h-66v314h-15q-12 -57 -45 -82.5t-92 -25.5h-35v70h35q68 0 98.5 29.5t30.5 94.5h89v-400zM717 -12q-80 0 -125.5 31t-45.5 80v1q0 35 24 60.5t66 32.5v14q-42 5 -66 31t-24 60v1q0 51 45.5 82t125.5 31t125 -31t45 -82v-1q0 -34 -24 -60
t-66 -31v-14q43 -7 66.5 -32.5t23.5 -60.5v-1q0 -49 -45 -80t-125 -31zM717 227q47 0 74.5 17.5t27.5 47.5v1q0 30 -25.5 48t-76.5 18t-77 -18t-26 -48v-1q0 -30 28 -47.5t75 -17.5zM717 41q51 0 76.5 18t25.5 47v1q0 31 -27 48.5t-75 17.5t-75.5 -17.5t-27.5 -48.5v-1
q0 -29 26 -47t77 -18z" />
    <glyph glyph-name="threeeighths" unicode="&#x215c;" horiz-adv-x="1022" 
d="M210 288q-78 0 -124.5 36t-46.5 102h67q0 -39 28 -60.5t76 -21.5t72.5 18t24.5 47v1q0 30 -23.5 46t-64.5 16h-35v56h35q41 0 64.5 16.5t23.5 44.5v1q0 29 -24.5 47.5t-72.5 18.5t-76 -21.5t-28 -60.5h-67q0 66 46.5 102t124.5 36q77 0 121 -32.5t44 -83.5v-1
q0 -34 -24 -58.5t-67 -29.5v-14q43 -7 67 -31t24 -57v-1q0 -51 -44 -83.5t-121 -32.5zM216 -11h-87l667 722h87zM807 -12q-80 0 -125.5 31t-45.5 80v1q0 35 24 60.5t66 32.5v14q-42 5 -66 31t-24 60v1q0 51 45.5 82t125.5 31t125 -31t45 -82v-1q0 -34 -24 -60t-66 -31v-14
q43 -7 66.5 -32.5t23.5 -60.5v-1q0 -49 -45 -80t-125 -31zM807 227q47 0 74.5 17.5t27.5 47.5v1q0 30 -25.5 48t-76.5 18t-77 -18t-26 -48v-1q0 -30 28 -47.5t75 -17.5zM807 41q51 0 76.5 18t25.5 47v1q0 31 -27 48.5t-75 17.5t-75.5 -17.5t-27.5 -48.5v-1q0 -29 26 -47
t77 -18z" />
    <glyph glyph-name="fiveeighths" unicode="&#x215d;" horiz-adv-x="1030" 
d="M225 -11h-87l667 722h87zM219 288q-75 0 -119 33t-49 89h68q3 -31 29.5 -48.5t71.5 -17.5q48 0 73.5 21t25.5 58v1q0 38 -25 59t-73 21q-62 0 -85 -44h-72v240h320v-59h-260v-137h14q38 49 111 49q62 0 100.5 -36t38.5 -92v-1q0 -59 -46.5 -97.5t-122.5 -38.5zM815 -12
q-80 0 -125.5 31t-45.5 80v1q0 35 24 60.5t66 32.5v14q-42 5 -66 31t-24 60v1q0 51 45.5 82t125.5 31t125 -31t45 -82v-1q0 -34 -24 -60t-66 -31v-14q43 -7 66.5 -32.5t23.5 -60.5v-1q0 -49 -45 -80t-125 -31zM815 227q47 0 74.5 17.5t27.5 47.5v1q0 30 -25.5 48t-76.5 18
t-77 -18t-26 -48v-1q0 -30 28 -47.5t75 -17.5zM815 41q51 0 76.5 18t25.5 47v1q0 31 -27 48.5t-75 17.5t-75.5 -17.5t-27.5 -48.5v-1q0 -29 26 -47t77 -18z" />
    <glyph glyph-name="seveneighths" unicode="&#x215e;" horiz-adv-x="908" 
d="M103 -11h-87l667 722h87zM153 300h-77l211 326v15h-264v59h325v-90zM693 -12q-80 0 -125.5 31t-45.5 80v1q0 35 24 60.5t66 32.5v14q-42 5 -66 31t-24 60v1q0 51 45.5 82t125.5 31t125 -31t45 -82v-1q0 -34 -24 -60t-66 -31v-14q43 -7 66.5 -32.5t23.5 -60.5v-1
q0 -49 -45 -80t-125 -31zM693 227q47 0 74.5 17.5t27.5 47.5v1q0 30 -25.5 48t-76.5 18t-77 -18t-26 -48v-1q0 -30 28 -47.5t75 -17.5zM693 41q51 0 76.5 18t25.5 47v1q0 31 -27 48.5t-75 17.5t-75.5 -17.5t-27.5 -48.5v-1q0 -29 26 -47t77 -18z" />
    <glyph glyph-name="arrowleft" unicode="&#x2190;" horiz-adv-x="939" 
d="M370 -23h-78v59q0 118 -66.5 181t-177.5 64v85q110 0 177 63t67 181v59h77v-59q0 -196 -157 -237v-14h680v-72h-680v-14q158 -42 158 -237v-59z" />
    <glyph glyph-name="arrowup" unicode="&#x2191;" horiz-adv-x="838" 
d="M455 -12h-72v561h-14q-46 -159 -257 -159h-66v77h66q128 0 196 67t68 178h86q0 -111 68 -178t197 -67h65v-77h-65q-213 0 -258 159h-14v-561z" />
    <glyph glyph-name="arrowright" unicode="&#x2192;" horiz-adv-x="940" 
d="M647 -23h-76v59q0 195 156 237v14h-679v72h679v14q-156 40 -156 237v58h76v-58q0 -118 67.5 -181t177.5 -63v-85q-111 -1 -178 -64t-67 -181v-59z" />
    <glyph glyph-name="arrowdown" unicode="&#x2193;" horiz-adv-x="839" 
d="M462 -12h-86q0 111 -68 178t-196 67h-66v77h66q210 0 257 -159h14v561h72v-561h14q45 159 258 159h65v-77h-65q-129 0 -197 -67t-68 -178z" />
    <glyph glyph-name="arrowboth" unicode="&#x2194;" horiz-adv-x="1227" 
d="M371 -22h-78v58q0 118 -66.5 181t-177.5 64v85q110 0 177 63t67 181v58h77v-58q0 -195 -156 -237v-14h800v14q-155 42 -155 237v58h76v-58q0 -118 67 -181t178 -63v-85q-111 -1 -178 -63.5t-67 -181.5v-59h-76v59q0 196 155 237v14h-800v-14q157 -42 157 -237v-58z" />
    <glyph glyph-name="arrowupdn" unicode="&#x2195;" horiz-adv-x="839" 
d="M462 -106h-86q0 111 -68 178t-196 67h-66v77h66q212 0 257 -160h14v586h-14q-45 -159 -257 -159h-66v76h66q128 0 196 67t68 178h86q0 -111 68 -178t197 -67h65v-76h-65q-213 0 -258 159h-14v-586h14q46 160 258 160h64v-77h-64q-129 0 -197 -67t-68 -178z" />
    <glyph glyph-name="uni2196" unicode="&#x2196;" horiz-adv-x="881" 
d="M832 -8l-51 -51l-557 557l-9 -9q80 -148 -70 -295l-46 -46l-54 54l46 46q61 61 81.5 126.5t2 124t-69.5 109.5l60 61q51 -51 110 -69.5t124.5 2t126.5 81.5l46 46l54 -54l-46 -46q-149 -149 -295 -70l-10 -10z" />
    <glyph glyph-name="uni2197" unicode="&#x2197;" horiz-adv-x="880" 
d="M656 500l-557 -557l-51 51l557 557l-10 10q-147 -80 -295 70l-46 46l54 54l46 -47q61 -61 126.5 -81t124.5 -1.5t110 69.5l60 -61q-51 -51 -69.5 -109.5t2 -124t81.5 -126.5l46 -46l-54 -54l-46 45q-148 148 -69 295z" />
    <glyph glyph-name="uni2198" unicode="&#x2198;" horiz-adv-x="882" 
d="M355 3l-46 -45l-54 54l46 46q147 150 295 69l9 10l-558 558l51 52l558 -559l11 10q-80 146 69 294l46 46l54 -53l-46 -46q-61 -61 -81.5 -126.5t-2.5 -124.5t69 -110l-60 -60q-51 51 -109.5 69t-123.5 -2.5t-127 -81.5z" />
    <glyph glyph-name="uni2199" unicode="&#x2199;" horiz-adv-x="882" 
d="M625 12l-54 -54l-46 45q-62 61 -127 81.5t-123.5 2.5t-109.5 -69l-61 60q51 51 69.5 110t-2 124.5t-81.5 126.5l-46 46l54 53l46 -46q150 -148 70 -294l10 -10l558 559l51 -52l-558 -558l9 -10q148 80 296 -69z" />
    <glyph glyph-name="uni21A9" unicode="&#x21a9;" horiz-adv-x="979" 
d="M375 -18h-78v78q0 106 -65 162.5t-172 56.5v89q107 0 172 56t65 162v79h78v-79q0 -180 -150 -212v-15h458q74 0 117 36t43 101q0 70 -42.5 106.5t-117.5 36.5h-196v72h197q107 0 171 -56t64 -159q0 -99 -64 -154t-171 -55h-459v-14q150 -32 150 -213v-78z" />
    <glyph glyph-name="uni21AA" unicode="&#x21aa;" horiz-adv-x="979" 
d="M678 -19h-78v79q0 180 150 212v14h-459q-107 0 -171 55.5t-64 154.5q0 103 64 159t171 56h197v-72h-196q-75 0 -117 -36.5t-42 -106.5q0 -66 42.5 -101.5t116.5 -35.5h458v14q-150 32 -150 213v78h78v-78q0 -107 65 -163t173 -56v-88q-107 0 -172.5 -56.5t-65.5 -162.5
v-79z" />
    <glyph glyph-name="uni21B0" unicode="&#x21b0;" horiz-adv-x="768" 
d="M223 374v-15h485v-435h-72v363h-413v-14q151 -32 151 -213v-83h-78v83q0 107 -65 163t-173 56v88q108 0 173 56.5t65 163.5v82h78v-82q0 -181 -151 -213z" />
    <glyph glyph-name="uni21B1" unicode="&#x21b1;" horiz-adv-x="769" 
d="M471 665v-78q0 -107 65 -163t173 -56v-88q-107 0 -172.5 -56.5t-65.5 -163.5v-78h-77v78q0 181 150 213v14h-412v-363h-72v436h484v14q-150 32 -150 213v78h77z" />
    <glyph glyph-name="uni21B2" unicode="&#x21b2;" horiz-adv-x="772" 
d="M712 724v-436h-485v-14q151 -32 151 -213v-78h-78v78q0 107 -65 163t-173 56v88q107 0 172.5 56.5t65.5 163.5v78h78v-78q0 -181 -151 -213v-14h412v363h73z" />
    <glyph glyph-name="uni21B3" unicode="&#x21b3;" horiz-adv-x="771" 
d="M475 670v-83q0 -107 65 -163t173 -56v-88q-107 0 -172.5 -56.5t-65.5 -163.5v-82h-78v82q0 183 151 213v15h-485v435h73v-363h412v14q-151 32 -151 213v83h78z" />
    <glyph glyph-name="uni21B4" unicode="&#x21b4;" horiz-adv-x="940" 
d="M867 219h42v-77h-42q-94 0 -144 -58.5t-50 -156.5h-87q0 98 -50.5 156.5t-144.5 58.5h-41v77h41q156 0 188 -129h14v538h-554v72h626v-610h14q33 129 188 129z" />
    <glyph glyph-name="uni21C5" unicode="&#x21c5;" horiz-adv-x="961" 
d="M337 -53h-86q0 93 -53 149t-153 56h-31v78h31q170 0 199 -118h14v621h73v-621h13q35 118 199 118h31v-78h-31q-100 0 -153 -56t-53 -149zM703 -54h-72v621h-14q-35 -117 -199 -117h-31v77h31q100 0 153 56.5t53 149.5h86q0 -93 53 -149.5t153 -56.5h31v-77h-31
q-166 0 -199 117h-14v-621z" />
    <glyph glyph-name="uni21C6" unicode="&#x21c6;" horiz-adv-x="1031" 
d="M328 258h-77v20q0 87 -54.5 134t-144.5 47v85q90 0 144.5 47t54.5 135v19h77v-20q0 -143 -111 -174v-14h709v-71h-709v-13q111 -32 111 -175v-20zM780 -76h-77v21q0 142 111 173v15h-709v70h709v14q-111 31 -111 174v21h77v-21q0 -87 54.5 -134t144.5 -47v-85
q-90 0 -144.5 -46.5t-54.5 -134.5v-20z" />
    <glyph glyph-name="partialdiff" unicode="&#x2202;" horiz-adv-x="689" 
d="M319 -17q-126 0 -198 62t-72 167q0 109 73 173.5t199 64.5q75 0 130.5 -28.5t83.5 -77.5h14q-1 146 -59.5 222t-166.5 76q-69 0 -119.5 -29.5t-69.5 -79.5l-85 10q20 80 94.5 127t180.5 47q152 0 232 -97t80 -274q0 -174 -82.5 -268.5t-234.5 -94.5zM322 58
q102 0 162.5 63.5t60.5 163.5q-63 90 -195 90q-99 0 -154.5 -44t-55.5 -118q0 -69 49.5 -112t132.5 -43z" />
    <glyph glyph-name="emptyset" unicode="&#x2205;" horiz-adv-x="1036" 
d="M944 700l-68 -61q107 -116 107 -289v-1q0 -190 -128 -308.5t-337 -118.5q-197 0 -322 105l-76 -68l-39 43l73 66q-101 112 -101 281v1q0 191 128 309.5t337 118.5q191 0 316 -100l70 63zM120 349q0 -141 83 -238l582 524q-105 83 -267 83q-179 0 -288.5 -101.5
t-109.5 -266.5v-1zM916 349v1q0 146 -88 245l-584 -524q108 -89 274 -89q179 0 288.5 101.5t109.5 265.5z" />
    <glyph glyph-name="uni2206" unicode="&#x2206;" horiz-adv-x="816" 
d="M341 700h135l317 -700h-770zM392 606l-231 -524h494l-231 524l-9 41h-14z" />
    <glyph glyph-name="product" unicode="&#x220f;" horiz-adv-x="823" 
d="M719 700v-700h-88v621h-439v-621h-88v700h615z" />
    <glyph glyph-name="summation" unicode="&#x2211;" horiz-adv-x="710" 
d="M648 0h-586v125l287 219v14l-287 217v125h586v-79h-497v-14l339 -257l-339 -257v-14h497v-79z" />
    <glyph glyph-name="minus" unicode="&#x2212;" horiz-adv-x="759" 
d="M684 259h-609v79h609v-79z" />
    <glyph glyph-name="radical" unicode="&#x221a;" horiz-adv-x="647" 
d="M351 0h-133l-202 530h93l172 -463h8l265 794h225v-74h-160z" />
    <glyph glyph-name="infinity" unicode="&#x221e;" horiz-adv-x="913" 
d="M657 474q77 0 129 -51t52 -127t-52 -127t-129 -51q-105 0 -200 118q-97 -118 -200 -118q-78 0 -130 51t-52 127t52 127t130 51q104 0 200 -119q94 119 200 119zM258 191q45 0 81 28.5t73 76.5q-23 30 -41.5 49.5t-49.5 37.5t-63 18q-47 0 -76.5 -29.5t-29.5 -75.5
t29.5 -75.5t76.5 -29.5zM655 191q47 0 76.5 29.5t29.5 75.5t-29.5 75.5t-76.5 29.5q-31 0 -62 -18t-49 -37t-43 -50q25 -31 43 -50t49 -37t62 -18z" />
    <glyph glyph-name="integral" unicode="&#x222b;" horiz-adv-x="470" 
d="M80 -192q-40 0 -76 16v73q31 -16 67 -16q63 0 75 76l98 626q10 61 45.5 98.5t100.5 37.5q43 0 76 -15v-74q-32 17 -67 17q-62 0 -75 -77l-99 -625q-9 -61 -44.5 -99t-100.5 -38z" />
    <glyph glyph-name="approxequal" unicode="&#x2248;" horiz-adv-x="809" 
d="M115 346l-40 69q72 58 189 58q73 0 166 -28t135 -28q84 0 130 39l39 -71q-71 -48 -176 -48q-50 0 -140.5 28t-160.5 28q-84 0 -142 -47zM115 131l-40 70q73 57 189 57q73 0 166 -28t135 -28q81 0 130 39l39 -70q-70 -49 -176 -49q-50 0 -140.5 28t-160.5 28
q-84 0 -142 -47z" />
    <glyph glyph-name="notequal" unicode="&#x2260;" horiz-adv-x="771" 
d="M638 587l51 -47l-96 -90h95v-79h-179l-153 -144h332v-79h-416l-140 -132l-50 47l90 85h-93v79h177l153 144h-330v79h414z" />
    <glyph glyph-name="lessequal" unicode="&#x2264;" horiz-adv-x="834" 
d="M163 356l582 -148v-89l-653 172v129l653 172v-89zM75 0v79h684v-79h-684z" />
    <glyph glyph-name="greaterequal" unicode="&#x2265;" horiz-adv-x="834" 
d="M88 592l653 -172v-129l-653 -172v89l583 148l-583 147v89zM75 0v79h684v-79h-684z" />
    <glyph glyph-name="uni2460" unicode="&#x2460;" horiz-adv-x="1036" 
d="M518 -78q-209 0 -337 118.5t-128 308.5v1q0 191 128 309.5t337 118.5t337 -118.5t128 -309.5v-1q0 -190 -128 -308.5t-337 -118.5zM518 -18q179 0 288.5 101.5t109.5 265.5v1q0 165 -109.5 266.5t-288.5 101.5t-288.5 -101.5t-109.5 -266.5v-1q0 -164 109.5 -265.5
t288.5 -101.5zM584 150h-66v314h-15q-12 -57 -45 -82.5t-92 -25.5h-35v70h35q68 0 98.5 29.5t30.5 94.5h89v-400z" />
    <glyph glyph-name="uni2461" unicode="&#x2461;" horiz-adv-x="1036" 
d="M518 -78q-209 0 -337 118.5t-128 308.5v1q0 191 128 309.5t337 118.5t337 -118.5t128 -309.5v-1q0 -190 -128 -308.5t-337 -118.5zM518 -18q179 0 288.5 101.5t109.5 265.5v1q0 165 -109.5 266.5t-288.5 101.5t-288.5 -101.5t-109.5 -266.5v-1q0 -164 109.5 -265.5
t288.5 -101.5zM686 150h-325v97l174 93q46 25 64.5 46.5t18.5 48.5v1q0 32 -25 50.5t-70 18.5q-48 0 -76.5 -24t-28.5 -64h-69q0 65 46.5 105t126.5 40q77 0 121 -34.5t44 -90.5v-1q0 -44 -25.5 -76t-90.5 -66l-137 -71v-15h252v-58z" />
    <glyph glyph-name="uni2462" unicode="&#x2462;" horiz-adv-x="1036" 
d="M518 -78q-209 0 -337 118.5t-128 308.5v1q0 191 128 309.5t337 118.5t337 -118.5t128 -309.5v-1q0 -190 -128 -308.5t-337 -118.5zM518 -18q179 0 288.5 101.5t109.5 265.5v1q0 165 -109.5 266.5t-288.5 101.5t-288.5 -101.5t-109.5 -266.5v-1q0 -164 109.5 -265.5
t288.5 -101.5zM521 138q-78 0 -124.5 36t-46.5 102h67q0 -39 28 -60.5t76 -21.5t72.5 18t24.5 47v1q0 30 -23.5 46t-64.5 16h-35v56h35q41 0 64.5 16.5t23.5 44.5v1q0 29 -24.5 47.5t-72.5 18.5t-76 -21.5t-28 -60.5h-67q0 66 46.5 102t124.5 36q77 0 121 -32.5t44 -83.5v-1
q0 -34 -24 -58.5t-67 -29.5v-14q43 -7 67 -31t24 -57v-1q0 -51 -44 -83.5t-121 -32.5z" />
    <glyph glyph-name="uni2463" unicode="&#x2463;" horiz-adv-x="1036" 
d="M518 -78q-209 0 -337 118.5t-128 308.5v1q0 191 128 309.5t337 118.5t337 -118.5t128 -309.5v-1q0 -190 -128 -308.5t-337 -118.5zM518 -18q179 0 288.5 101.5t109.5 265.5v1q0 165 -109.5 266.5t-288.5 101.5t-288.5 -101.5t-109.5 -266.5v-1q0 -164 109.5 -265.5
t288.5 -101.5zM607 150h-68v141h-222v88l196 171h94v-203h92v-56h-92v-141zM374 361v-14h165v147h-14z" />
    <glyph glyph-name="uni2464" unicode="&#x2464;" horiz-adv-x="1036" 
d="M518 -78q-209 0 -337 118.5t-128 308.5v1q0 191 128 309.5t337 118.5t337 -118.5t128 -309.5v-1q0 -190 -128 -308.5t-337 -118.5zM518 -18q179 0 288.5 101.5t109.5 265.5v1q0 165 -109.5 266.5t-288.5 101.5t-288.5 -101.5t-109.5 -266.5v-1q0 -164 109.5 -265.5
t288.5 -101.5zM516 138q-75 0 -119 33t-49 89h68q3 -31 29.5 -48.5t71.5 -17.5q48 0 73.5 21t25.5 58v1q0 38 -25 59t-73 21q-62 0 -85 -44h-72v240h320v-59h-260v-137h14q38 49 111 49q62 0 100.5 -36t38.5 -92v-1q0 -59 -46.5 -97.5t-122.5 -38.5z" />
    <glyph glyph-name="uni2465" unicode="&#x2465;" horiz-adv-x="1036" 
d="M518 -78q-209 0 -337 118.5t-128 308.5v1q0 191 128 309.5t337 118.5t337 -118.5t128 -309.5v-1q0 -190 -128 -308.5t-337 -118.5zM518 -18q179 0 288.5 101.5t109.5 265.5v1q0 165 -109.5 266.5t-288.5 101.5t-288.5 -101.5t-109.5 -266.5v-1q0 -164 109.5 -265.5
t288.5 -101.5zM512 138q-83 0 -128 48t-45 142v1q0 233 187 233q67 0 109.5 -32t50.5 -85h-66q-14 61 -93 61q-120 0 -120 -156h15q40 53 117 53q64 0 105.5 -36t41.5 -93v-1q0 -60 -47.5 -97.5t-126.5 -37.5zM515 191q47 0 74.5 21.5t27.5 57.5v1q0 36 -27.5 58t-74.5 22
q-48 0 -75.5 -22t-27.5 -58v-1q0 -35 28.5 -57t74.5 -22z" />
    <glyph glyph-name="uni2466" unicode="&#x2466;" horiz-adv-x="1036" 
d="M518 -78q-209 0 -337 118.5t-128 308.5v1q0 191 128 309.5t337 118.5t337 -118.5t128 -309.5v-1q0 -190 -128 -308.5t-337 -118.5zM518 -18q179 0 288.5 101.5t109.5 265.5v1q0 165 -109.5 266.5t-288.5 101.5t-288.5 -101.5t-109.5 -266.5v-1q0 -164 109.5 -265.5
t288.5 -101.5zM487 150h-77l211 326v15h-264v59h325v-90z" />
    <glyph glyph-name="uni2467" unicode="&#x2467;" horiz-adv-x="1036" 
d="M518 -78q-209 0 -337 118.5t-128 308.5v1q0 191 128 309.5t337 118.5t337 -118.5t128 -309.5v-1q0 -190 -128 -308.5t-337 -118.5zM518 -18q179 0 288.5 101.5t109.5 265.5v1q0 165 -109.5 266.5t-288.5 101.5t-288.5 -101.5t-109.5 -266.5v-1q0 -164 109.5 -265.5
t288.5 -101.5zM518 138q-80 0 -125.5 31t-45.5 80v1q0 35 24 60.5t66 32.5v14q-42 5 -66 31t-24 60v1q0 51 45.5 82t125.5 31t125 -31t45 -82v-1q0 -34 -24 -60t-66 -31v-14q43 -7 66.5 -32.5t23.5 -60.5v-1q0 -49 -45 -80t-125 -31zM518 377q47 0 74.5 17.5t27.5 47.5v1
q0 30 -25.5 48t-76.5 18t-77 -18t-26 -48v-1q0 -30 28 -47.5t75 -17.5zM518 191q51 0 76.5 18t25.5 47v1q0 31 -27 48.5t-75 17.5t-75.5 -17.5t-27.5 -48.5v-1q0 -29 26 -47t77 -18z" />
    <glyph glyph-name="uni2468" unicode="&#x2468;" horiz-adv-x="1036" 
d="M518 -78q-209 0 -337 118.5t-128 308.5v1q0 191 128 309.5t337 118.5t337 -118.5t128 -309.5v-1q0 -190 -128 -308.5t-337 -118.5zM518 -18q179 0 288.5 101.5t109.5 265.5v1q0 165 -109.5 266.5t-288.5 101.5t-288.5 -101.5t-109.5 -266.5v-1q0 -164 109.5 -265.5
t288.5 -101.5zM511 138q-67 0 -109.5 32t-50.5 85h65q15 -61 94 -61q119 0 119 156h-15q-40 -53 -116 -53q-65 0 -106 36t-41 93v1q0 60 47 97.5t126 37.5q83 0 128 -48t45 -142v-1q0 -233 -186 -233zM521 349q48 0 75.5 22t27.5 58v1q0 35 -28.5 57t-74.5 22
q-47 0 -74.5 -21.5t-27.5 -57.5v-1q0 -36 27.5 -58t74.5 -22z" />
    <glyph glyph-name="uni24EA" unicode="&#x24ea;" horiz-adv-x="1036" 
d="M518 -78q-209 0 -337 118.5t-128 308.5v1q0 191 128 309.5t337 118.5t337 -118.5t128 -309.5v-1q0 -190 -128 -308.5t-337 -118.5zM518 -18q179 0 288.5 101.5t109.5 265.5v1q0 165 -109.5 266.5t-288.5 101.5t-288.5 -101.5t-109.5 -266.5v-1q0 -164 109.5 -265.5
t288.5 -101.5zM518 138q-92 0 -143.5 55.5t-51.5 155.5v1q0 99 52 155.5t143 56.5t143 -56.5t52 -155.5v-1q0 -100 -51.5 -155.5t-143.5 -55.5zM518 201q59 0 92 39t33 109v1q0 70 -33 109.5t-92 39.5q-58 0 -91 -39.5t-33 -109.5v-1q0 -70 33 -109t91 -39z" />
    <glyph glyph-name="uni24FF" unicode="&#x24ff;" horiz-adv-x="1036" 
d="M518 -78q209 0 337 118.5t128 308.5v1q0 191 -128 309.5t-337 118.5t-337 -118.5t-128 -309.5v-1q0 -190 128 -308.5t337 -118.5zM518 138q-92 0 -143.5 55.5t-51.5 155.5v1q0 99 52 155.5t143 56.5t143 -56.5t52 -155.5v-1q0 -100 -51.5 -155.5t-143.5 -55.5zM518 201
q59 0 92 39t33 109v1q0 70 -33 109.5t-92 39.5q-58 0 -91 -39.5t-33 -109.5v-1q0 -70 33 -109t91 -39z" />
    <glyph glyph-name="uni25B6" unicode="&#x25b6;" horiz-adv-x="1036" 
d="M518 -78q-209 0 -337 118.5t-128 308.5v1q0 191 128 309.5t337 118.5t337 -118.5t128 -309.5v-1q0 -190 -128 -308.5t-337 -118.5zM518 -18q179 0 288.5 101.5t109.5 265.5v1q0 165 -109.5 266.5t-288.5 101.5t-288.5 -101.5t-109.5 -266.5v-1q0 -164 109.5 -265.5
t288.5 -101.5zM789 350l-432 -204v408z" />
    <glyph glyph-name="triagrt" unicode="&#x25ba;" horiz-adv-x="1036" 
d="M789 350l-432 -204v408z" />
    <glyph glyph-name="lozenge" unicode="&#x25ca;" horiz-adv-x="660" 
d="M400 0h-139l-226 350l226 350h139l226 -350zM136 350l188 -295h13l186 295l-186 295h-13z" />
    <glyph glyph-name="circle" unicode="&#x25cb;" horiz-adv-x="1036" 
d="M518 -78q-209 0 -337 118.5t-128 308.5v1q0 191 128 309.5t337 118.5t337 -118.5t128 -309.5v-1q0 -190 -128 -308.5t-337 -118.5zM518 -18q179 0 288.5 101.5t109.5 265.5v1q0 165 -109.5 266.5t-288.5 101.5t-288.5 -101.5t-109.5 -266.5v-1q0 -164 109.5 -265.5
t288.5 -101.5z" />
    <glyph glyph-name="uni25CF" unicode="&#x25cf;" horiz-adv-x="1036" 
d="M518 -78q209 0 337 118.5t128 308.5v1q0 191 -128 309.5t-337 118.5t-337 -118.5t-128 -309.5v-1q0 -190 128 -308.5t337 -118.5z" />
    <glyph glyph-name="uni2776" unicode="&#x2776;" horiz-adv-x="1036" 
d="M518 -78q209 0 337 118.5t128 308.5v1q0 191 -128 309.5t-337 118.5t-337 -118.5t-128 -309.5v-1q0 -190 128 -308.5t337 -118.5zM584 150h-66v314h-15q-12 -57 -45 -82.5t-92 -25.5h-35v70h35q68 0 98.5 29.5t30.5 94.5h89v-400z" />
    <glyph glyph-name="uni2777" unicode="&#x2777;" horiz-adv-x="1036" 
d="M518 -78q209 0 337 118.5t128 308.5v1q0 191 -128 309.5t-337 118.5t-337 -118.5t-128 -309.5v-1q0 -190 128 -308.5t337 -118.5zM686 150h-325v97l174 93q46 25 64.5 46.5t18.5 48.5v1q0 32 -25 50.5t-70 18.5q-48 0 -76.5 -24t-28.5 -64h-69q0 65 46.5 105t126.5 40
q77 0 121 -34.5t44 -90.5v-1q0 -44 -25.5 -76t-90.5 -66l-137 -71v-15h252v-58z" />
    <glyph glyph-name="uni2778" unicode="&#x2778;" horiz-adv-x="1036" 
d="M518 -78q209 0 337 118.5t128 308.5v1q0 191 -128 309.5t-337 118.5t-337 -118.5t-128 -309.5v-1q0 -190 128 -308.5t337 -118.5zM521 138q-78 0 -124.5 36t-46.5 102h67q0 -39 28 -60.5t76 -21.5t72.5 18t24.5 47v1q0 30 -23.5 46t-64.5 16h-35v56h35q41 0 64.5 16.5
t23.5 44.5v1q0 29 -24.5 47.5t-72.5 18.5t-76 -21.5t-28 -60.5h-67q0 66 46.5 102t124.5 36q77 0 121 -32.5t44 -83.5v-1q0 -34 -24 -58.5t-67 -29.5v-14q43 -7 67 -31t24 -57v-1q0 -51 -44 -83.5t-121 -32.5z" />
    <glyph glyph-name="uni2779" unicode="&#x2779;" horiz-adv-x="1036" 
d="M518 -78q209 0 337 118.5t128 308.5v1q0 191 -128 309.5t-337 118.5t-337 -118.5t-128 -309.5v-1q0 -190 128 -308.5t337 -118.5zM607 150h-68v141h-222v88l196 171h94v-203h92v-56h-92v-141zM374 361v-14h165v147h-14z" />
    <glyph glyph-name="uni277A" unicode="&#x277a;" horiz-adv-x="1036" 
d="M518 -78q209 0 337 118.5t128 308.5v1q0 191 -128 309.5t-337 118.5t-337 -118.5t-128 -309.5v-1q0 -190 128 -308.5t337 -118.5zM516 138q-75 0 -119 33t-49 89h68q3 -31 29.5 -48.5t71.5 -17.5q48 0 73.5 21t25.5 58v1q0 38 -25 59t-73 21q-62 0 -85 -44h-72v240h320
v-59h-260v-137h14q38 49 111 49q62 0 100.5 -36t38.5 -92v-1q0 -59 -46.5 -97.5t-122.5 -38.5z" />
    <glyph glyph-name="uni277B" unicode="&#x277b;" horiz-adv-x="1036" 
d="M518 -78q209 0 337 118.5t128 308.5v1q0 191 -128 309.5t-337 118.5t-337 -118.5t-128 -309.5v-1q0 -190 128 -308.5t337 -118.5zM512 138q-83 0 -128 48t-45 142v1q0 233 187 233q67 0 109.5 -32t50.5 -85h-66q-14 61 -93 61q-120 0 -120 -156h15q40 53 117 53
q64 0 105.5 -36t41.5 -93v-1q0 -60 -47.5 -97.5t-126.5 -37.5zM515 191q47 0 74.5 21.5t27.5 57.5v1q0 36 -27.5 58t-74.5 22q-48 0 -75.5 -22t-27.5 -58v-1q0 -35 28.5 -57t74.5 -22z" />
    <glyph glyph-name="uni277C" unicode="&#x277c;" horiz-adv-x="1036" 
d="M518 -78q209 0 337 118.5t128 308.5v1q0 191 -128 309.5t-337 118.5t-337 -118.5t-128 -309.5v-1q0 -190 128 -308.5t337 -118.5zM487 150h-77l211 326v15h-264v59h325v-90z" />
    <glyph glyph-name="uni277D" unicode="&#x277d;" horiz-adv-x="1036" 
d="M518 -78q209 0 337 118.5t128 308.5v1q0 191 -128 309.5t-337 118.5t-337 -118.5t-128 -309.5v-1q0 -190 128 -308.5t337 -118.5zM518 138q-80 0 -125.5 31t-45.5 80v1q0 35 24 60.5t66 32.5v14q-42 5 -66 31t-24 60v1q0 51 45.5 82t125.5 31t125 -31t45 -82v-1
q0 -34 -24 -60t-66 -31v-14q43 -7 66.5 -32.5t23.5 -60.5v-1q0 -49 -45 -80t-125 -31zM518 377q47 0 74.5 17.5t27.5 47.5v1q0 30 -25.5 48t-76.5 18t-77 -18t-26 -48v-1q0 -30 28 -47.5t75 -17.5zM518 191q51 0 76.5 18t25.5 47v1q0 31 -27 48.5t-75 17.5t-75.5 -17.5
t-27.5 -48.5v-1q0 -29 26 -47t77 -18z" />
    <glyph glyph-name="uni277E" unicode="&#x277e;" horiz-adv-x="1036" 
d="M518 -78q209 0 337 118.5t128 308.5v1q0 191 -128 309.5t-337 118.5t-337 -118.5t-128 -309.5v-1q0 -190 128 -308.5t337 -118.5zM511 138q-67 0 -109.5 32t-50.5 85h65q15 -61 94 -61q119 0 119 156h-15q-40 -53 -116 -53q-65 0 -106 36t-41 93v1q0 60 47 97.5t126 37.5
q83 0 128 -48t45 -142v-1q0 -233 -186 -233zM521 349q48 0 75.5 22t27.5 58v1q0 35 -28.5 57t-74.5 22q-47 0 -74.5 -21.5t-27.5 -57.5v-1q0 -36 27.5 -58t74.5 -22z" />
    <glyph glyph-name="uni27F3" unicode="&#x27f3;" horiz-adv-x="1109" 
d="M480 -44q-192 0 -310.5 109t-118.5 281v1q0 173 118.5 282t310.5 109q186 0 301 -109t117 -280v-1h14q31 104 160 104h27v-77h-27q-81 0 -125 -52t-44 -138h-83q0 86 -43.5 138t-124.5 52h-27v77h27q129 0 160 -104h14v1q-2 142 -97.5 231.5t-248.5 89.5q-159 0 -257 -90
t-98 -232v-1q0 -143 98 -233.5t257 -90.5q156 0 253 103l44 -49q-115 -121 -297 -121z" />
    <glyph glyph-name="uni2B10" unicode="&#x2b10;" horiz-adv-x="940" 
d="M901 700v-72h-554v-538h14q32 129 187 129h42v-77h-42q-93 0 -143.5 -59t-50.5 -156h-87q0 98 -50 156.5t-144 58.5h-42v77h42q155 0 188 -129h14v610h626z" />
    <glyph glyph-name="uniF8FF" unicode="&#xf8ff;" horiz-adv-x="705" 
d="M367 524q233 -70 233 -238q0 -113 -104 -169q-25 -13 -66 -13l-52 2q-274 0 -274 151q0 41 11 85t30 68q24 61 54 83q11 9 34 15q17 3 31 12q28 13 49 13q6 0 22 -2l3 31q9 73 10 76l10 -2q-4 -18 -10 -75l-3 -31q14 -4 22 -6zM491 126q99 50 99 160q0 161 -226 228
l-21 6q-11 -97 -30 -108l-5 9q14 8 25 100q-14 2 -20 2q-19 0 -45 -12q-14 -7 -32 -13q-21 -5 -31 -13q-23 -18 -42 -59q10 5 19 5v-10q-14 0 -27 -13q-1 -4 -3.5 -11t-3.5 -9l-6 2q-28 -50 -28 -133q0 -141 264 -141q6 0 28 -1t24 -1q37 0 61 12z" />
    <glyph glyph-name="fi" unicode="&#xfb01;" horiz-adv-x="695" 
d="M224 509v-33h377v-476h-87v404h-290v-404h-87v401h-117v75h117v33q0 95 63.5 152t174.5 57q104 0 163 -44t63 -127h-89q-4 97 -137 97q-71 0 -111 -35.5t-40 -99.5z" />
    <glyph glyph-name="fl" unicode="&#xfb02;" horiz-adv-x="777" 
d="M338 718q93 0 142.5 -41.5t49.5 -120.5v-8h-87v7q0 43 -27.5 66.5t-77.5 23.5q-55 0 -84.5 -28.5t-29.5 -79.5v-61h247v-75h-247v-401h-87v401h-117v75h117v60q0 83 54.5 132.5t146.5 49.5zM596 0v700h86v-700h-86z" />
    <glyph glyph-name="u1F503" unicode="&#x1f503;" horiz-adv-x="1223" 
d="M1016 185h-84q0 86 -43 138t-125 52h-26v77h26q129 0 160 -104h14v1q-2 142 -95.5 231.5t-243.5 89.5q-152 0 -247 -105l-44 49q113 124 291 124q183 0 296.5 -109t115.5 -280v-1h13q31 104 160 104h27v-77h-27q-80 0 -124 -52t-44 -138zM624 -44q-183 0 -296.5 108.5
t-115.5 280.5v1h-14q-29 -104 -160 -104h-26v76h26q81 0 125 52t44 139h83q0 -87 43.5 -139t125.5 -52h26v-76h-26q-131 0 -161 104h-14v-1q2 -142 96 -232t244 -90q152 0 247 105l43 -49q-112 -123 -290 -123z" />
    <glyph glyph-name="u1F517" unicode="&#x1f517;" horiz-adv-x="1015" 
d="M565 163q-76 0 -124 41.5t-65 109.5l66 47q4 -52 39 -87.5t86 -35.5q41 0 74 27l201 148q63 39 63 108q0 58 -37 95t-94 37q-45 0 -88 -29l-138 -108q-53 22 -104 19l195 147q64 47 138 47q91 0 151 -58t60 -147q0 -110 -103 -171l-193 -145q-56 -45 -127 -45zM238 -75
q-91 0 -150.5 58t-59.5 147q0 113 101 170l195 146q56 45 127 45q74 0 123.5 -42t65.5 -109l-65 -47q-5 52 -40.5 87.5t-85.5 35.5q-42 0 -75 -27l-202 -149q-62 -36 -62 -107q0 -58 37 -95t94 -37q45 0 88 29l138 108q53 -22 104 -19l-195 -147q-64 -47 -138 -47z" />
    <glyph glyph-name="uni004A0301" horiz-adv-x="671" 
d="M572 755h-84l75 110h102zM310 -19q-270 0 -270 270v105h91v-105q0 -188 179 -188q90 0 133.5 47.5t43.5 147.5v442h90v-442q0 -135 -68.5 -206t-198.5 -71z" />
    <glyph glyph-name="uni006A0301" horiz-adv-x="303" 
d="M208 541h-76l81 150h103zM34 -192q-153 0 -168 131v1h89q6 -59 80 -59q42 0 64.5 26t22.5 74v495h87v-479q0 -93 -44.5 -141t-130.5 -48z" />
    <glyph glyph-name="zero.zero" 
d="M679 531q27 -75 27 -181t-27 -181q-68 -187 -294 -187q-227 0 -294 187q-27 75 -27 181t27 181q67 187 294 187t294 -187zM178 503q-22 -64 -22 -153q0 -93 22 -153q12 -32 26 -50l313 456q-53 36 -132 36q-159 0 -207 -136zM591 197q22 60 22 153t-22 153q-10 28 -25 50
l-313 -456q52 -36 132 -36q158 0 206 136z" />
    <glyph glyph-name="zero.tf" 
d="M379 -18q-226 0 -294 187q-27 79 -27 181t27 181q68 187 294 187q228 0 295 -187q27 -79 27 -181t-27 -181q-68 -187 -295 -187zM379 61q157 0 207 136q22 60 22 153t-22 153q-48 136 -207 136q-158 0 -206 -136q-22 -60 -22 -153t22 -153q50 -136 206 -136z" />
    <glyph glyph-name="one.tf" 
d="M710 0h-585v82h278v538h-15q-13 -195 -212 -195h-51v92h61q85 0 132 48t47 135h124v-618h221v-82z" />
    <glyph glyph-name="two.tf" 
d="M668 0h-537v146l298 171q80 47 113.5 89t33.5 95q0 58 -35 93q-47 45 -144 45q-93 0 -144 -43t-53 -122v-25h-91v25q2 112 78.5 178t209.5 66q142 0 214 -72q57 -57 57 -146q0 -76 -41 -131t-137 -111l-282 -162v-14h460v-82z" />
    <glyph glyph-name="three.tf" 
d="M381 -18q-135 0 -212 61.5t-79 170.5v10h91v-10q1 -74 53.5 -113.5t146.5 -39.5q108 0 155 47q31 31 31 76q0 47 -29 76q-45 45 -162 45h-39v91h39q118 0 162 44q29 29 29 76q0 45 -31 76q-47 47 -155 47q-94 0 -146.5 -40t-53.5 -113v-10h-91v10q2 109 79 170.5
t212 61.5q153 0 228 -73q49 -49 49 -125q0 -67 -43 -110q-47 -49 -138 -53v-14q91 -4 138 -53q43 -43 43 -110q0 -76 -49 -125q-75 -73 -228 -73z" />
    <glyph glyph-name="four.tf" 
d="M560 327h158v-79h-158v-248h-87v248h-402v136l348 316h141v-373zM142 341v-14h331v306h-14z" />
    <glyph glyph-name="five.tf" 
d="M392 -18q-124 0 -199.5 57.5t-78.5 149.5v3h91v-2q3 -56 54 -93t133 -37q105 0 152 49q40 38 40 106q0 67 -38 105q-46 46 -140 46q-117 0 -159 -73h-112v407h541v-82h-457v-266h14q56 91 195 91q121 0 186 -65q62 -62 62 -164q0 -94 -62 -156q-74 -76 -222 -76z" />
    <glyph glyph-name="six.tf" 
d="M390 -18q-213 0 -275 169q-25 69 -25 168q0 126 30 212q68 187 289 187q123 0 196 -58.5t75 -156.5v-4h-91v4q-2 62 -49.5 99t-131.5 37q-229 0 -229 -320h14q60 124 222 124q132 0 205 -73q60 -60 60 -151q0 -95 -64 -159q-78 -78 -226 -78zM391 60q108 0 158 52
q39 39 39 101q0 60 -39 101q-51 51 -158 51t-158 -51q-40 -40 -40 -101q0 -63 40 -101q50 -52 158 -52z" />
    <glyph glyph-name="seven.tf" 
d="M320 0h-109l390 604v14h-494v82h568v-137z" />
    <glyph glyph-name="eight.tf" 
d="M385 -18q-160 0 -235 73q-49 49 -49 125q0 67 43 110q47 48 134 53v14q-87 5 -134 53q-43 43 -43 110q0 76 49 125q75 73 235 73t235 -73q49 -49 49 -125q0 -67 -43 -110q-47 -48 -134 -53v-14q87 -5 134 -53q43 -43 43 -110q0 -76 -49 -125q-75 -73 -235 -73zM385 396
q120 0 164 44q29 29 29 76q0 45 -31 76q-47 47 -162 47t-162 -47q-31 -31 -31 -76q0 -47 29 -76q44 -44 164 -44zM385 61q115 0 162 47q31 31 31 76q0 47 -29 76q-45 45 -164 45t-164 -45q-29 -29 -29 -76q0 -45 31 -76q47 -47 162 -47z" />
    <glyph glyph-name="nine.tf" 
d="M370 718q214 0 274 -169q26 -72 26 -168q0 -127 -30 -212q-68 -187 -289 -187q-123 0 -196 59t-75 156v4h90v-4q2 -62 50 -99t132 -37q229 0 229 320h-14q-60 -124 -222 -124q-132 0 -205 73q-60 60 -60 151q0 95 64 159q78 78 226 78zM369 640q-108 0 -158 -52
q-40 -40 -40 -101q0 -59 40 -101q51 -51 158 -51t158 51q40 42 40 101q0 61 -40 101q-50 52 -158 52z" />
    <glyph glyph-name="zero.tf.zero" 
d="M674 531q27 -79 27 -181t-27 -181q-68 -187 -295 -187q-226 0 -294 187q-27 79 -27 181t27 181q68 187 294 187q228 0 295 -187zM173 503q-22 -60 -22 -153t22 -153q12 -32 26 -50l313 456q-52 36 -133 36q-158 0 -206 -136zM586 197q22 60 22 153t-22 153q-10 28 -25 50
l-314 -456q54 -36 132 -36q157 0 207 136z" />
    <glyph glyph-name="dollar.tf" 
d="M687 470h-93v8q0 76 -53.5 114t-151.5 38q-145 0 -186 -70q-13 -22 -13 -53q0 -27 11 -46q28 -48 132 -62l142 -15q141 -19 184 -95q21 -37 21 -88q0 -54 -24 -96q-57 -99 -229 -111v-101h-79v101q-121 8 -191 68t-70 161v13h93v-8q0 -76 55.5 -116t152.5 -40
q145 0 185 70q15 24 15 55q0 28 -12 47q-27 48 -129 61l-142 16q-143 18 -187 95q-21 36 -21 86q0 52 24 93q56 100 226 112v92h80v-91q121 -8 190.5 -66.5t69.5 -159.5v-12z" />
    <glyph glyph-name="cent.tf" 
d="M391 64q75 0 119.5 29t55.5 82h84q-7 -75 -64 -123t-152 -58v-60h-76v59q-142 9 -205 100q-40 58 -40 143t41 145q62 89 204 101v61h76v-62q100 -8 160 -57t65 -124h-84q-10 53 -56.5 82.5t-122.5 29.5q-120 0 -167 -68q-30 -44 -30 -108q0 -62 29 -105q47 -67 163 -67z
" />
    <glyph glyph-name="sterling.tf" 
d="M625 192l73 -30q-17 -83 -70 -122.5t-150 -39.5h-388v120q76 0 116.5 31.5t40.5 91.5q0 36 -16 70h-141v74h97q-44 71 -44 132q0 90 69.5 144.5t191.5 54.5q126 0 197.5 -63.5t71.5 -171.5h-90q0 73 -46.5 114.5t-131.5 41.5t-127.5 -33t-42.5 -93q0 -22 8.5 -46
t16.5 -38t26 -42h269v-74h-230q14 -34 14 -73q0 -60 -39 -99t-113 -49v-14h292q65 0 97.5 25.5t48.5 88.5z" />
    <glyph glyph-name="florin.tf" 
d="M547 715q78 0 124.5 -33t56.5 -96l-88 -1q-14 57 -96 57q-52 0 -81.5 -28t-41.5 -93l-16 -93h215v-72h-227l-59 -350q-13 -70 -59 -112t-126 -42q-49 0 -94 19v73q43 -20 86 -20q93 0 111 95l56 337h-198v72h210l18 106q32 181 209 181z" />
    <glyph glyph-name="yen.tf" 
d="M616 700h109l-245 -369h165v-69h-211l-3 -5v-84h214v-69h-214v-104h-91v104h-214v69h214v84l-3 5h-211v69h165l-245 369h109l218 -337l6 -30h13l6 30z" />
    <glyph glyph-name="Euro.tf" 
d="M499 61q105 0 173 52l42 -71q-92 -59 -215 -59q-133 0 -222 54t-126 157l-12 37h-74v70h62q-2 32 -2 51q0 14 2 42h-62v70h73q7 27 13 42q37 103 126 157t222 54q123 0 215 -59l-42 -71q-68 52 -173 52q-101 0 -168 -41.5t-94 -118.5q-1 -2 -2.5 -7t-2.5 -8h386l-41 -70
h-359q-2 -28 -2 -42q0 -27 3 -51h311l-41 -70h-255l3 -10q27 -77 94 -118.5t168 -41.5z" />
    <glyph glyph-name="percent.tf" 
d="M229 434q-76 0 -122.5 40t-46.5 100t47 100t122 40t121 -40t46 -100t-46 -100t-121 -40zM148 -10h-71l545 720h70zM229 492q48 0 74.5 22.5t26.5 59.5q0 36 -26.5 58.5t-74.5 22.5t-75 -22.5t-27 -58.5q0 -37 27 -59.5t75 -22.5zM542 -14q-76 0 -122.5 39.5t-46.5 99.5
q0 61 47 101t122 40t121.5 -40t46.5 -101q0 -60 -46.5 -99.5t-121.5 -39.5zM542 44q48 0 74.5 22t26.5 59t-26.5 59.5t-74.5 22.5q-47 0 -74 -22.5t-27 -59.5t27 -59t74 -22z" />
    <glyph glyph-name="perthousand.tf" 
d="M220 434q-76 0 -122.5 40t-46.5 100t47 100t122 40t121 -40t46 -100t-46 -100t-121 -40zM220 492q48 0 75 22.5t27 59.5q0 36 -27 58.5t-75 22.5t-75 -22.5t-27 -58.5q0 -37 27.5 -59.5t74.5 -22.5zM641 472l-585 -226v59l585 226v-59zM291 -14q-73 0 -118.5 39.5
t-45.5 99.5q0 61 45.5 101t118.5 40q86 0 139 -58q50 58 139 58q71 0 117 -40t46 -101q0 -60 -45 -99.5t-118 -39.5q-88 0 -139 56q-53 -56 -139 -56zM295 44q49 0 75.5 22t26.5 59q0 36 -27 59t-75 23q-47 0 -74.5 -23t-27.5 -59q0 -37 27.5 -59t74.5 -22zM565 44
q49 0 75.5 22t26.5 59q0 36 -27 59t-75 23q-47 0 -74.5 -23t-27.5 -59q0 -37 27.5 -59t74.5 -22z" />
    <glyph glyph-name="Adieresis.ss01" horiz-adv-x="816" 
d="M299 747q-26 0 -42 15.5t-16 40.5t16 40.5t42 15.5q25 0 41 -15.5t16 -40.5t-16 -40.5t-41 -15.5zM519 747q-26 0 -42.5 15.5t-16.5 40.5t16.5 40.5t42.5 15.5q25 0 40.5 -15.5t15.5 -40.5t-15.5 -40.5t-40.5 -15.5zM793 0h-102l-111 250h-344l-111 -250h-102l319 700
h133zM392 599l-119 -267h270l-119 267l-9 47h-14z" />
    <glyph glyph-name="uni1EA0.ss01" horiz-adv-x="816" 
d="M475 700l318 -700h-102l-111 250h-344l-111 -250h-102l319 700h133zM392 599l-119 -267h270l-119 267l-9 47h-14zM410 -61q27 0 44.5 -17t17.5 -45q0 -27 -17.5 -44.5t-44.5 -17.5q-28 0 -46 17.5t-18 44.5q0 28 18 45t46 17z" />
    <glyph glyph-name="Cdotaccent.ss01" horiz-adv-x="915" 
d="M478 752q-26 0 -42.5 15.5t-16.5 39.5q0 25 16.5 41t42.5 16q25 0 40.5 -16t15.5 -41q0 -24 -15.5 -39.5t-40.5 -15.5zM470 -19q-142 0 -248 62t-146 171q-23 59 -23 136t23 136q40 110 146.5 171.5t253.5 61.5q163 0 267.5 -74.5t115.5 -194.5h-93q-15 85 -92.5 136
t-197.5 51q-114 0 -196.5 -47.5t-113.5 -133.5q-18 -48 -18 -106t18 -106q31 -85 113.5 -133t194.5 -48q116 0 189 50t92 137h93q-18 -121 -117.5 -195t-260.5 -74z" />
    <glyph glyph-name="Edieresis.ss01" horiz-adv-x="686" 
d="M254 747q-26 0 -42 15.5t-16 40.5t16 40.5t42 15.5q25 0 41 -15.5t16 -40.5t-16 -40.5t-41 -15.5zM474 747q-26 0 -42.5 15.5t-16.5 40.5t16.5 40.5t42.5 15.5q25 0 40.5 -15.5t15.5 -40.5t-15.5 -40.5t-40.5 -15.5zM615 0h-511v700h511v-82h-420v-225h410v-82h-410v-229
h420v-82z" />
    <glyph glyph-name="Edotaccent.ss01" horiz-adv-x="686" 
d="M365 752q-26 0 -42.5 15.5t-16.5 39.5q0 25 16.5 41t42.5 16q25 0 40.5 -16t15.5 -41q0 -24 -15.5 -39.5t-40.5 -15.5zM615 0h-511v700h511v-82h-420v-225h410v-82h-410v-229h420v-82z" />
    <glyph glyph-name="uni1EB8.ss01" horiz-adv-x="686" 
d="M615 0h-511v700h511v-82h-420v-225h410v-82h-410v-229h420v-82zM380 -185q-28 0 -46 17.5t-18 44.5q0 28 18 45t46 17q27 0 44.5 -17t17.5 -45q0 -27 -17.5 -44.5t-44.5 -17.5z" />
    <glyph glyph-name="uni0122.ss01" horiz-adv-x="937" 
d="M450 -19q-131 0 -233.5 60t-140.5 167q-23 65 -23 141q0 77 23 137q40 110 147.5 171.5t256.5 61.5q164 0 269.5 -73.5t118.5 -191.5h-94q-15 85 -93 134t-200 49q-118 0 -201 -47.5t-114 -133.5q-18 -48 -18 -107q0 -63 18 -111q30 -83 110 -129t189 -46q122 0 200 58
t92 155h-301v82h388v-358h-91l24 182h-14q-27 -94 -109.5 -147.5t-203.5 -53.5zM415 -187v43q24 0 33 5.5t11 19.5q-49 2 -49 41q0 17 15 29t39 12q56 0 56 -60q0 -40 -26 -65t-79 -25z" />
    <glyph glyph-name="Gdotaccent.ss01" horiz-adv-x="937" 
d="M484 752q-26 0 -42.5 15.5t-16.5 39.5q0 25 16.5 41t42.5 16q25 0 40.5 -16t15.5 -41q0 -24 -15.5 -39.5t-40.5 -15.5zM450 -19q-131 0 -233.5 60t-140.5 167q-23 65 -23 141q0 77 23 137q40 110 147.5 171.5t256.5 61.5q164 0 269.5 -73.5t118.5 -191.5h-94
q-15 85 -93 134t-200 49q-118 0 -201 -47.5t-114 -133.5q-18 -48 -18 -107q0 -63 18 -111q30 -83 110 -129t189 -46q122 0 200 58t92 155h-301v82h388v-358h-91l24 182h-14q-27 -94 -109.5 -147.5t-203.5 -53.5z" />
    <glyph glyph-name="Idieresis.ss01" horiz-adv-x="299" 
d="M40 747q-26 0 -42 15.5t-16 40.5t16 40.5t42 15.5q25 0 41 -15.5t16 -40.5t-16 -40.5t-41 -15.5zM260 747q-26 0 -42.5 15.5t-16.5 40.5t16.5 40.5t42.5 15.5q25 0 40.5 -15.5t15.5 -40.5t-15.5 -40.5t-40.5 -15.5zM195 0h-91v700h91v-700z" />
    <glyph glyph-name="Idotaccent.ss01" horiz-adv-x="299" 
d="M151 752q-26 0 -42.5 15.5t-16.5 39.5q0 25 16.5 41t42.5 16q25 0 40.5 -16t15.5 -41q0 -24 -15.5 -39.5t-40.5 -15.5zM195 0h-91v700h91v-700z" />
    <glyph glyph-name="uni1ECA.ss01" horiz-adv-x="299" 
d="M195 0h-91v700h91v-700zM151 -185q-28 0 -46 17.5t-18 44.5q0 28 18 45t46 17q27 0 44.5 -17t17.5 -45q0 -27 -17.5 -44.5t-44.5 -17.5z" />
    <glyph glyph-name="uni0136.ss01" horiz-adv-x="761" 
d="M620 700h123l-340 -321l335 -379h-128l-279 317l-136 -128v-189h-91v700h91v-361l-26 -56h14zM380 -37q56 0 56 -60q0 -40 -26 -65t-79 -25v43q24 0 33 5.5t11 19.5q-49 2 -49 41q0 17 15 29t39 12z" />
    <glyph glyph-name="uni013B.ss01" horiz-adv-x="636" 
d="M611 0h-507v700h91v-618h416v-82zM312 -187v43q24 0 33 5.5t11 19.5q-49 2 -49 41q0 17 15 29t39 12q56 0 56 -60q0 -40 -26 -65t-79 -25z" />
    <glyph glyph-name="Ldot.ss01" horiz-adv-x="636" 
d="M611 0h-507v700h91v-618h416v-82zM466 355q-30 0 -49.5 18.5t-19.5 46.5t19.5 46.5t49.5 18.5t49 -18.5t19 -46.5t-19 -46.5t-49 -18.5z" />
    <glyph glyph-name="uni0145.ss01" horiz-adv-x="875" 
d="M195 0h-91v700h138l400 -546l24 -92h14v638h91v-700h-138l-400 547l-24 91h-14v-638zM376 -187v43q24 0 33 5.5t11 19.5q-49 2 -49 41q0 17 15 29t39 12q56 0 56 -60q0 -40 -26 -65t-79 -25z" />
    <glyph glyph-name="Odieresis.ss01" horiz-adv-x="964" 
d="M374 747q-26 0 -42 15.5t-16 40.5t16 40.5t42 15.5q25 0 41 -15.5t16 -40.5t-16 -40.5t-41 -15.5zM594 747q-26 0 -42.5 15.5t-16.5 40.5t16.5 40.5t42.5 15.5q25 0 40.5 -15.5t15.5 -40.5t-15.5 -40.5t-40.5 -15.5zM483 -19q-152 0 -259.5 62.5t-147.5 172.5
q-23 60 -23 134t23 134q40 109 147.5 172t258.5 63t258.5 -63t147.5 -172q23 -60 23 -134t-23 -134q-39 -109 -146 -172t-259 -63zM482 63q119 0 202 48.5t114 134.5q18 48 18 104t-18 104q-30 85 -113.5 134t-202.5 49t-202.5 -49t-113.5 -134q-18 -48 -18 -104t18 -104
q31 -85 114.5 -134t201.5 -49z" />
    <glyph glyph-name="uni1ECC.ss01" horiz-adv-x="964" 
d="M483 -19q-152 0 -259.5 62.5t-147.5 172.5q-23 60 -23 134t23 134q40 109 147.5 172t258.5 63t258.5 -63t147.5 -172q23 -60 23 -134t-23 -134q-39 -109 -146 -172t-259 -63zM482 63q119 0 202 48.5t114 134.5q18 48 18 104t-18 104q-30 85 -113.5 134t-202.5 49
t-202.5 -49t-113.5 -134q-18 -48 -18 -104t18 -104q31 -85 114.5 -134t201.5 -49zM485 -185q-28 0 -46 17.5t-18 44.5q0 28 18 45t46 17q27 0 44.5 -17t17.5 -45q0 -27 -17.5 -44.5t-44.5 -17.5z" />
    <glyph glyph-name="uni0156.ss01" horiz-adv-x="734" 
d="M410 322v-14l25 -14l244 -294h-122l-254 315h-108v-315h-91v700h347q151 0 204 -90q24 -42 24 -102q0 -56 -23 -97q-52 -89 -215 -89h-31zM453 618h-258v-224h257q89 0 119 52q15 26 15 61q0 36 -14 58q-30 53 -119 53zM355 -37q56 0 56 -60q0 -40 -26 -65t-79 -25v43
q24 0 33 5.5t11 19.5q-49 2 -49 41q0 17 15 29t39 12z" />
    <glyph glyph-name="uni0218.ss01" horiz-adv-x="755" 
d="M373 -19q-140 0 -223.5 62.5t-83.5 174.5v13h96v-8q0 -79 57.5 -120t157.5 -41q150 0 190 72q15 26 15 57q0 30 -11 49q-29 49 -134 63l-146 16q-147 17 -192 98q-22 37 -22 89q0 51 24 96q33 55 105.5 86t174.5 31q140 0 222 -61t82 -173v-13h-96v9q0 78 -55.5 117.5
t-156.5 39.5q-148 0 -191 -72q-14 -25 -14 -55q0 -25 12 -48q28 -49 136 -63l146 -16q145 -19 190 -98q21 -36 21 -91q0 -56 -24 -98q-32 -56 -105 -86t-175 -30zM323 -187v43q24 0 33 5.5t11 19.5q-49 2 -49 41q0 17 15 29t39 12q56 0 56 -60q0 -40 -26 -65t-79 -25z" />
    <glyph glyph-name="uni021A.ss01" horiz-adv-x="689" 
d="M14 618v82h660v-82h-284v-618h-91v618h-285zM342 -37q56 0 56 -60q0 -40 -26 -65t-79 -25v43q24 0 33 5.5t11 19.5q-49 2 -49 41q0 17 15 29t39 12z" />
    <glyph glyph-name="Udieresis.ss01" horiz-adv-x="838" 
d="M309 747q-26 0 -42 15.5t-16 40.5t16 40.5t42 15.5q25 0 41 -15.5t16 -40.5t-16 -40.5t-41 -15.5zM529 747q-26 0 -42.5 15.5t-16.5 40.5t16.5 40.5t42.5 15.5q25 0 40.5 -15.5t15.5 -40.5t-15.5 -40.5t-40.5 -15.5zM419 -19q-151 0 -238 80t-87 219v420h94v-418
q0 -101 61.5 -159t169.5 -58t169.5 58t61.5 159v418h94v-420q0 -139 -87 -219t-238 -80z" />
    <glyph glyph-name="uni1EE4.ss01" horiz-adv-x="838" 
d="M419 -19q-151 0 -238 80t-87 219v420h94v-418q0 -101 61.5 -159t169.5 -58t169.5 58t61.5 159v418h94v-420q0 -139 -87 -219t-238 -80zM420 -185q-28 0 -46 17.5t-18 44.5q0 28 18 45t46 17q27 0 44.5 -17t17.5 -45q0 -27 -17.5 -44.5t-44.5 -17.5z" />
    <glyph glyph-name="Wdieresis.ss01" horiz-adv-x="1168" 
d="M474 747q-26 0 -42 15.5t-16 40.5t16 40.5t42 15.5q25 0 41 -15.5t16 -40.5t-16 -40.5t-41 -15.5zM694 747q-26 0 -42.5 15.5t-16.5 40.5t16.5 40.5t42.5 15.5q25 0 40.5 -15.5t15.5 -40.5t-15.5 -40.5t-40.5 -15.5zM397 0h-145l-220 700h100l180 -585l8 -61h14l8 61
l171 585h142l171 -585l8 -61h14l8 61l180 585h100l-221 -700h-144l-173 589l-7 50h-14l-8 -50z" />
    <glyph glyph-name="Ydieresis.ss01" horiz-adv-x="740" 
d="M260 747q-26 0 -42 15.5t-16 40.5t16 40.5t42 15.5q25 0 41 -15.5t16 -40.5t-16 -40.5t-41 -15.5zM480 747q-26 0 -42.5 15.5t-16.5 40.5t16.5 40.5t42.5 15.5q25 0 40.5 -15.5t15.5 -40.5t-15.5 -40.5t-40.5 -15.5zM612 700h113l-310 -443v-257h-91v257l-309 443h113
l229 -333l6 -35h14l6 35z" />
    <glyph glyph-name="Zdotaccent.ss01" horiz-adv-x="743" 
d="M366 752q-26 0 -42.5 15.5t-16.5 39.5q0 25 16.5 41t42.5 16q25 0 40.5 -16t15.5 -41q0 -24 -15.5 -39.5t-40.5 -15.5zM681 0h-619v135l536 469v14h-536v82h619v-141l-531 -463v-14h531v-82z" />
    <glyph glyph-name="i.loclTRK" horiz-adv-x="274" 
d="M188 562h-101v118h101v-118zM180 0h-86v476h86v-476z" />
    <glyph glyph-name="adieresis.ss01" horiz-adv-x="635" 
d="M209 564q-27 0 -43 15.5t-16 40.5q0 26 16 41.5t43 15.5q25 0 41 -16t16 -41q0 -24 -16 -40t-41 -16zM421 564q-26 0 -42.5 15.5t-16.5 40.5t16.5 41t42.5 16q25 0 41 -15.5t16 -41.5q0 -24 -16 -40t-41 -16zM308 494q122 0 183.5 -49t61.5 -141v-304h-88l22 138h-14
q-19 -76 -79 -116t-151 -40q-97 0 -142 47q-36 36 -36 93q0 59 35 93q44 45 145 50l222 10v31q0 113 -161 113q-44 0 -77 -10t-48.5 -22t-25 -30.5t-10.5 -26t-2 -16.5v-3h-88v3q0 12 2 27t16 44.5t38.5 51.5t75.5 39.5t121 17.5zM260 54q98 0 152 49.5t55 105.5l-212 -14
q-59 -4 -83 -28q-17 -16 -17 -44q0 -27 17 -44q25 -25 88 -25z" />
    <glyph glyph-name="uni1EA1.ss01" horiz-adv-x="635" 
d="M308 494q122 0 183.5 -49t61.5 -141v-304h-88l22 138h-14q-19 -76 -79 -116t-151 -40q-97 0 -142 47q-36 36 -36 93q0 59 35 93q44 45 145 50l222 10v31q0 113 -161 113q-44 0 -77 -10t-48.5 -22t-25 -30.5t-10.5 -26t-2 -16.5v-3h-88v3q0 12 2 27t16 44.5t38.5 51.5
t75.5 39.5t121 17.5zM260 54q98 0 152 49.5t55 105.5l-212 -14q-59 -4 -83 -28q-17 -16 -17 -44q0 -27 17 -44q25 -25 88 -25zM336 -61q27 0 44.5 -17t17.5 -45q0 -27 -17.5 -44.5t-44.5 -17.5q-28 0 -46 17.5t-18 44.5q0 28 18 45t46 17z" />
    <glyph glyph-name="cdotaccent.ss01" horiz-adv-x="664" 
d="M343 560q-28 0 -46 17t-18 45q0 27 18 44.5t46 17.5q27 0 44.5 -17.5t17.5 -44.5q0 -28 -17.5 -45t-44.5 -17zM336 -18q-173 0 -246 106q-41 59 -41 148q0 90 42 151q74 107 252 107q120 0 194 -52.5t80 -138.5h-87q-11 55 -59 85.5t-128 30.5q-124 0 -174 -71
q-30 -42 -30 -111q0 -66 29 -110q49 -70 170 -70q78 0 124.5 30t57.5 86h87q-8 -87 -80.5 -139t-190.5 -52z" />
    <glyph glyph-name="edieresis.ss01" horiz-adv-x="650" 
d="M227 564q-27 0 -43 15.5t-16 40.5q0 26 16 41.5t43 15.5q25 0 41 -16t16 -41q0 -24 -16 -40t-41 -16zM439 564q-26 0 -42.5 15.5t-16.5 40.5t16.5 41t42.5 16q25 0 41 -15.5t16 -41.5q0 -24 -16 -40t-41 -16zM602 250v-34h-464q3 -53 29 -90q48 -70 170 -70q137 0 177 89
h88q-18 -73 -89.5 -118t-174.5 -45q-177 0 -248 104q-41 61 -41 150q0 88 44 153q73 105 236 105q131 0 202 -65t71 -179zM141 284h370q-5 66 -51 101.5t-131 35.5q-114 -2 -163 -71q-19 -29 -25 -66z" />
    <glyph glyph-name="edotaccent.ss01" horiz-adv-x="650" 
d="M333 560q-28 0 -46 17t-18 45q0 27 18 44.5t46 17.5q27 0 44.5 -17.5t17.5 -44.5q0 -28 -17.5 -45t-44.5 -17zM602 250v-34h-464q3 -53 29 -90q48 -70 170 -70q137 0 177 89h88q-18 -73 -89.5 -118t-174.5 -45q-177 0 -248 104q-41 61 -41 150q0 88 44 153
q73 105 236 105q131 0 202 -65t71 -179zM141 284h370q-5 66 -51 101.5t-131 35.5q-114 -2 -163 -71q-19 -29 -25 -66z" />
    <glyph glyph-name="uni1EB9.ss01" horiz-adv-x="650" 
d="M602 250v-34h-464q3 -53 29 -90q48 -70 170 -70q137 0 177 89h88q-18 -73 -89.5 -118t-174.5 -45q-177 0 -248 104q-41 61 -41 150q0 88 44 153q73 105 236 105q131 0 202 -65t71 -179zM141 284h370q-5 66 -51 101.5t-131 35.5q-114 -2 -163 -71q-19 -29 -25 -66z
M337 -61q27 0 44.5 -17t17.5 -45q0 -27 -17.5 -44.5t-44.5 -17.5q-28 0 -46 17.5t-18 44.5q0 28 18 45t46 17z" />
    <glyph glyph-name="uni0123.ss01" horiz-adv-x="691" 
d="M345 551q-61 0 -61 69q0 46 30 76t87 30v-50q-26 0 -36 -6t-12 -22q22 0 36.5 -13t14.5 -33q0 -21 -16 -36t-43 -15zM327 -192q-127 0 -196 49t-76 143h88q11 -118 184 -118q91 0 140.5 40t49.5 113v11l28 131h-14q-47 -151 -216 -151q-154 0 -220 96q-40 57 -40 138
t40 138q66 96 220 96q169 0 216 -151h14l-28 133h87v-413q0 -255 -277 -255zM333 99q113 0 159 65q28 41 28 96t-28 96q-46 65 -159 65q-114 0 -160 -65q-28 -41 -28 -96t28 -96q46 -65 160 -65z" />
    <glyph glyph-name="gdotaccent.ss01" horiz-adv-x="691" 
d="M345 560q-28 0 -46 17t-18 45q0 27 18 44.5t46 17.5q27 0 44.5 -17.5t17.5 -44.5q0 -28 -17.5 -45t-44.5 -17zM327 -192q-127 0 -196 49t-76 143h88q11 -118 184 -118q91 0 140.5 40t49.5 113v11l28 131h-14q-47 -151 -216 -151q-154 0 -220 96q-40 57 -40 138t40 138
q66 96 220 96q169 0 216 -151h14l-28 133h87v-413q0 -255 -277 -255zM333 99q113 0 159 65q28 41 28 96t-28 96q-46 65 -159 65q-114 0 -160 -65q-28 -41 -28 -96t28 -96q46 -65 160 -65z" />
    <glyph glyph-name="i.ss01" horiz-adv-x="274" 
d="M138 560q-28 0 -46 17t-18 45q0 27 18 44.5t46 17.5q27 0 44.5 -17.5t17.5 -44.5q0 -28 -17.5 -45t-44.5 -17zM180 0h-86v476h86v-476z" />
    <glyph glyph-name="idieresis.ss01" horiz-adv-x="274" 
d="M33 564q-27 0 -43 15.5t-16 40.5q0 26 16 41.5t43 15.5q25 0 41 -16t16 -41q0 -24 -16 -40t-41 -16zM245 564q-26 0 -42.5 15.5t-16.5 40.5t16.5 41t42.5 16q25 0 41 -15.5t16 -41.5q0 -24 -16 -40t-41 -16zM180 0h-86v476h86v-476z" />
    <glyph glyph-name="i.loclTRK.ss01" horiz-adv-x="274" 
d="M138 560q-28 0 -46 17t-18 45q0 27 18 44.5t46 17.5q27 0 44.5 -17.5t17.5 -44.5q0 -28 -17.5 -45t-44.5 -17zM180 0h-86v476h86v-476z" />
    <glyph glyph-name="uni1ECB.ss01" horiz-adv-x="274" 
d="M138 560q-28 0 -46 17t-18 45q0 27 18 44.5t46 17.5q27 0 44.5 -17.5t17.5 -44.5q0 -28 -17.5 -45t-44.5 -17zM180 0h-86v476h86v-476zM138 -185q-28 0 -46 17.5t-18 44.5q0 28 18 45t46 17q27 0 44.5 -17t17.5 -45q0 -27 -17.5 -44.5t-44.5 -17.5z" />
    <glyph glyph-name="ij.ss01" horiz-adv-x="577" 
d="M138 560q-28 0 -46 17t-18 45q0 27 18 44.5t46 17.5q27 0 44.5 -17.5t17.5 -44.5q0 -28 -17.5 -45t-44.5 -17zM441 559q-27 0 -45 17.5t-18 45.5q0 27 18 44.5t45 17.5q28 0 45.5 -17.5t17.5 -44.5q0 -28 -17.5 -45.5t-45.5 -17.5zM180 0h-86v476h86v-476zM308 -192
q-154 0 -167 131v1h88q6 -59 80 -59q42 0 64.5 26t22.5 74v495h87v-479q0 -93 -44.5 -141t-130.5 -48z" />
    <glyph glyph-name="iogonek.ss01" horiz-adv-x="274" 
d="M138 684q27 0 44.5 -17.5t17.5 -44.5q0 -28 -17.5 -45t-44.5 -17q-28 0 -46 17t-18 45q0 27 18 44.5t46 17.5zM94 23v453h86v-476h-34q-41 -14 -59 -29.5t-18 -38.5q0 -54 104 -54v-70q-92 0 -136 30t-44 79q0 72 101 106z" />
    <glyph glyph-name="j.ss01" horiz-adv-x="303" 
d="M168 560q-28 0 -46 17t-18 45q0 27 18 44.5t46 17.5q27 0 44.5 -17.5t17.5 -44.5q0 -28 -17.5 -45t-44.5 -17zM34 -192q-153 0 -168 131v1h89q6 -59 80 -59q42 0 64.5 26t22.5 74v495h87v-479q0 -93 -44.5 -141t-130.5 -48z" />
    <glyph glyph-name="uni0137.ss01" horiz-adv-x="629" 
d="M495 476h119l-257 -214l252 -262h-122l-199 210l-108 -89v-121h-86v700h86v-440l-26 -51h14zM319 -37q56 0 56 -60q0 -40 -26 -65t-79 -25v43q24 0 33 5.5t11 19.5q-49 2 -49 41q0 17 15 29t39 12z" />
    <glyph glyph-name="uni013C.ss01" horiz-adv-x="274" 
d="M180 0h-86v700h86v-700zM86 -187v43q24 0 33 5.5t11 19.5q-49 2 -49 41q0 17 15 29t39 12q56 0 56 -60q0 -40 -26 -65t-79 -25z" />
    <glyph glyph-name="ldot.ss01" horiz-adv-x="336" 
d="M180 0h-86v700h86v-700zM305 357q-30 0 -49.5 18.5t-19.5 46.5t19.5 46.5t49.5 18.5t49.5 -18.5t19.5 -46.5q0 -27 -19.5 -46t-49.5 -19z" />
    <glyph glyph-name="napostrophe.ss01" horiz-adv-x="891" 
d="M111 716q73 0 73 -92q0 -69 -33 -113.5t-94 -45.5v56q59 5 63 74q-33 -7 -53.5 10t-20.5 50q0 27 17 44t48 17zM589 494q108 0 164 -56t56 -163v-275h-87v268q0 148 -156 148q-87 0 -137 -49.5t-50 -133.5v-233h-86v476h86l-21 -144h14q46 162 217 162z" />
    <glyph glyph-name="uni0146.ss01" horiz-adv-x="692" 
d="M180 0h-86v476h86l-21 -144h14q46 162 217 162q108 0 164 -56t56 -163v-275h-87v268q0 148 -156 148q-87 0 -137 -49.5t-50 -133.5v-233zM303 -187v43q24 0 33 5.5t11 19.5q-49 2 -49 41q0 17 15 29t39 12q56 0 56 -60q0 -40 -26 -65t-79 -25z" />
    <glyph glyph-name="odieresis.ss01" horiz-adv-x="698" 
d="M244 564q-27 0 -43 15.5t-16 40.5q0 26 16 41.5t43 15.5q25 0 41 -16t16 -41q0 -24 -16 -40t-41 -16zM456 564q-26 0 -42.5 15.5t-16.5 40.5t16.5 41t42.5 16t41.5 -15.5t15.5 -41.5q0 -24 -16 -40t-41 -16zM349 -18q-88 0 -155.5 29.5t-103.5 83.5q-41 61 -41 143
q0 84 41 143q36 54 103.5 83.5t155.5 29.5t155.5 -29.5t103.5 -83.5q42 -61 42 -143t-42 -143q-36 -54 -103.5 -83.5t-155.5 -29.5zM349 57q128 0 181 77q30 44 30 104t-30 104q-53 77 -181 77t-181 -77q-29 -43 -29 -104t29 -104q53 -77 181 -77z" />
    <glyph glyph-name="uni1ECD.ss01" horiz-adv-x="698" 
d="M349 -18q-88 0 -155.5 29.5t-103.5 83.5q-41 61 -41 143q0 84 41 143q36 54 103.5 83.5t155.5 29.5t155.5 -29.5t103.5 -83.5q42 -61 42 -143t-42 -143q-36 -54 -103.5 -83.5t-155.5 -29.5zM349 57q128 0 181 77q30 44 30 104t-30 104q-53 77 -181 77t-181 -77
q-29 -43 -29 -104t29 -104q53 -77 181 -77zM350 -185q-28 0 -46 17.5t-18 44.5q0 28 18 45t46 17q27 0 44.5 -17t17.5 -45q0 -27 -17.5 -44.5t-44.5 -17.5z" />
    <glyph glyph-name="uni0157.ss01" horiz-adv-x="576" 
d="M180 0h-86v476h86l-24 -150h15q38 168 190 168q88 0 133.5 -46.5t45.5 -131.5v-76h-90v51q0 64 -29 94t-93 30q-72 0 -110 -47t-38 -134v-234zM86 -187v43q24 0 33 5.5t11 19.5q-49 2 -49 41q0 17 15 29t39 12q56 0 56 -60q0 -40 -26 -65t-79 -25z" />
    <glyph glyph-name="uni0219.ss01" horiz-adv-x="595" 
d="M294 -18q-109 0 -171.5 44.5t-62.5 122.5v4h87v-4q0 -47 39.5 -71.5t110.5 -24.5q90 0 123 31q17 17 17 43q0 29 -21 45t-73 23l-116 14q-160 21 -160 135q0 56 37 93q57 57 194 57q113 0 173.5 -44t60.5 -123v-4h-87v4q0 96 -150 96q-90 0 -123 -31q-17 -17 -17 -43
q0 -54 95 -66l116 -14q83 -12 121 -45.5t38 -91.5q0 -56 -37 -93q-57 -57 -194 -57zM243 -187v43q24 0 33 5.5t11 19.5q-49 2 -49 41q0 17 15 29t39 12q56 0 56 -60q0 -40 -26 -65t-79 -25z" />
    <glyph glyph-name="uni021B.ss01" horiz-adv-x="573" 
d="M528 476v-75h-304v-236q0 -52 27.5 -79.5t79.5 -27.5q58 0 84 29t26 90v58h87v-60q0 -92 -50.5 -142t-145.5 -50q-195 0 -195 181v237h-117v75h117v97l87 41v-138h304zM326 -37q56 0 56 -60q0 -40 -26 -65t-79 -25v43q24 0 33 5.5t11 19.5q-49 2 -49 41q0 17 15 29t39 12
z" />
    <glyph glyph-name="udieresis.ss01" horiz-adv-x="682" 
d="M231 564q-27 0 -43 15.5t-16 40.5q0 26 16 41.5t43 15.5q25 0 41 -16t16 -41q0 -24 -16 -40t-41 -16zM443 564q-26 0 -42.5 15.5t-16.5 40.5t16.5 41t42.5 16q25 0 41 -15.5t16 -41.5q0 -24 -16 -40t-41 -16zM296 -18q-106 0 -160 55.5t-54 163.5v275h87v-268
q0 -148 151 -148q84 0 132.5 49.5t48.5 133.5v233h87v-476h-87l22 144h-14q-52 -162 -213 -162z" />
    <glyph glyph-name="uni1EE5.ss01" horiz-adv-x="682" 
d="M296 -18q-106 0 -160 55.5t-54 163.5v275h87v-268q0 -148 151 -148q84 0 132.5 49.5t48.5 133.5v233h87v-476h-87l22 144h-14q-52 -162 -213 -162zM367 -185q-28 0 -46 17.5t-18 44.5q0 28 18 45t46 17q27 0 44.5 -17t17.5 -45q0 -27 -17.5 -44.5t-44.5 -17.5z" />
    <glyph glyph-name="wdieresis.ss01" horiz-adv-x="950" 
d="M371 564q-27 0 -43 15.5t-16 40.5q0 26 16 41.5t43 15.5q25 0 41 -16t16 -41q0 -24 -16 -40t-41 -16zM583 564q-26 0 -42.5 15.5t-16.5 40.5t16.5 41t42.5 16q25 0 41 -15.5t16 -41.5q0 -24 -16 -40t-41 -16zM336 0h-134l-174 476h95l133 -383l6 -40h16l6 40l121 383h140
l121 -383l6 -40h16l6 40l133 383h95l-174 -476h-134l-126 388l-5 35h-16l-5 -35z" />
    <glyph glyph-name="ydieresis.ss01" horiz-adv-x="625" 
d="M209 564q-27 0 -43 15.5t-16 40.5q0 26 16 41.5t43 15.5q25 0 41 -16t16 -41q0 -24 -16 -40t-41 -16zM421 564q-26 0 -42.5 15.5t-16.5 40.5t16.5 41t42.5 16q25 0 41 -15.5t16 -41.5q0 -24 -16 -40t-41 -16zM336 108l171 368h103l-258 -526q-35 -78 -75.5 -110
t-106.5 -32q-73 0 -115 34t-42 95v12h91v-11q0 -28 17.5 -43t49.5 -15q31 0 52.5 16t39.5 54l44 95h-52l-237 431h103l198 -368h17z" />
    <glyph glyph-name="zdotaccent.ss01" horiz-adv-x="601" 
d="M301 560q-28 0 -46 17t-18 45q0 27 18 44.5t46 17.5q27 0 44.5 -17.5t17.5 -44.5q0 -28 -17.5 -45t-44.5 -17zM541 0h-481v131l398 256v14h-398v75h480v-131l-400 -256v-14h401v-75z" />
    <glyph glyph-name="a.ss02" horiz-adv-x="734" 
d="M326 -18q-161 0 -231 103q-43 61 -43 153t43 153q70 103 231 103q184 0 235 -153h14l-21 135h87v-476h-87l21 135h-14q-51 -153 -235 -153zM349 57q127 0 176 72q31 43 31 109t-31 109q-49 72 -176 72t-176 -72q-31 -43 -31 -109t31 -109q49 -72 176 -72z" />
    <glyph glyph-name="aacute.ss02" horiz-adv-x="734" 
d="M406 541h-75l80 150h104zM326 -18q-161 0 -231 103q-43 61 -43 153t43 153q70 103 231 103q184 0 235 -153h14l-21 135h87v-476h-87l21 135h-14q-51 -153 -235 -153zM349 57q127 0 176 72q31 43 31 109t-31 109q-49 72 -176 72t-176 -72q-31 -43 -31 -109t31 -109
q49 -72 176 -72z" />
    <glyph glyph-name="abreve.ss02" horiz-adv-x="734" 
d="M368 542q-80 0 -130.5 38t-50.5 111h73q0 -44 30.5 -67.5t77.5 -23.5t77 23.5t30 67.5h73q0 -74 -50 -111.5t-130 -37.5zM326 -18q-161 0 -231 103q-43 61 -43 153t43 153q70 103 231 103q184 0 235 -153h14l-21 135h87v-476h-87l21 135h-14q-51 -153 -235 -153zM349 57
q127 0 176 72q31 43 31 109t-31 109q-49 72 -176 72t-176 -72q-31 -43 -31 -109t31 -109q49 -72 176 -72z" />
    <glyph glyph-name="acircumflex.ss02" horiz-adv-x="734" 
d="M270 541h-104l155 148h91l154 -148h-103l-96 101zM326 -18q-161 0 -231 103q-43 61 -43 153t43 153q70 103 231 103q184 0 235 -153h14l-21 135h87v-476h-87l21 135h-14q-51 -153 -235 -153zM349 57q127 0 176 72q31 43 31 109t-31 109q-49 72 -176 72t-176 -72
q-31 -43 -31 -109t31 -109q49 -72 176 -72z" />
    <glyph glyph-name="adieresis.ss02" horiz-adv-x="734" 
d="M310 563h-98v103h98v-103zM521 563h-98v103h98v-103zM326 -18q-161 0 -231 103q-43 61 -43 153t43 153q70 103 231 103q184 0 235 -153h14l-21 135h87v-476h-87l21 135h-14q-51 -153 -235 -153zM349 57q127 0 176 72q31 43 31 109t-31 109q-49 72 -176 72t-176 -72
q-31 -43 -31 -109t31 -109q49 -72 176 -72z" />
    <glyph glyph-name="agrave.ss02" horiz-adv-x="734" 
d="M404 541h-75l-109 150h104zM326 -18q-161 0 -231 103q-43 61 -43 153t43 153q70 103 231 103q184 0 235 -153h14l-21 135h87v-476h-87l21 135h-14q-51 -153 -235 -153zM349 57q127 0 176 72q31 43 31 109t-31 109q-49 72 -176 72t-176 -72q-31 -43 -31 -109t31 -109
q49 -72 176 -72z" />
    <glyph glyph-name="amacron.ss02" horiz-adv-x="734" 
d="M546 589h-358v61h358v-61zM326 -18q-161 0 -231 103q-43 61 -43 153t43 153q70 103 231 103q184 0 235 -153h14l-21 135h87v-476h-87l21 135h-14q-51 -153 -235 -153zM349 57q127 0 176 72q31 43 31 109t-31 109q-49 72 -176 72t-176 -72q-31 -43 -31 -109t31 -109
q49 -72 176 -72z" />
    <glyph glyph-name="aogonek.ss02" horiz-adv-x="734" 
d="M641 0h-35q-41 -14 -59 -29.5t-18 -38.5q0 -54 104 -54v-70q-92 0 -136 30t-44 79q0 75 105 107l17 111h-14q-51 -153 -235 -153q-161 0 -231 103q-43 61 -43 153t43 153q70 103 231 103q184 0 235 -153h14l-21 135h87v-476zM525 129q31 43 31 109t-31 109
q-49 72 -176 72t-176 -72q-31 -43 -31 -109t31 -109q49 -72 176 -72t176 72z" />
    <glyph glyph-name="aring.ss02" horiz-adv-x="734" 
d="M367 542q-56 0 -92.5 30.5t-36.5 80.5t36.5 80.5t92.5 30.5q57 0 93.5 -30.5t36.5 -80.5t-36.5 -80.5t-93.5 -30.5zM367 596q31 0 49.5 15.5t18.5 41.5t-18.5 42t-49.5 16t-49.5 -16t-18.5 -42t18.5 -41.5t49.5 -15.5zM326 -18q-161 0 -231 103q-43 61 -43 153t43 153
q70 103 231 103q184 0 235 -153h14l-21 135h87v-476h-87l21 135h-14q-51 -153 -235 -153zM349 57q127 0 176 72q31 43 31 109t-31 109q-49 72 -176 72t-176 -72q-31 -43 -31 -109t31 -109q49 -72 176 -72z" />
    <glyph glyph-name="atilde.ss02" horiz-adv-x="734" 
d="M449 573q-35 0 -83.5 21.5t-79.5 21.5q-22 0 -38.5 -11t-17.5 -28h-61q0 53 34.5 77.5t80.5 24.5q34 0 83 -21.5t81 -21.5q22 0 38 10.5t17 28.5h61q0 -53 -34.5 -77.5t-80.5 -24.5zM326 -18q-161 0 -231 103q-43 61 -43 153t43 153q70 103 231 103q184 0 235 -153h14
l-21 135h87v-476h-87l21 135h-14q-51 -153 -235 -153zM349 57q127 0 176 72q31 43 31 109t-31 109q-49 72 -176 72t-176 -72q-31 -43 -31 -109t31 -109q49 -72 176 -72z" />
    <glyph glyph-name="adieresis.ss01.ss02" horiz-adv-x="734" 
d="M262 564q-27 0 -43 15.5t-16 40.5q0 26 16 41.5t43 15.5q25 0 41 -16t16 -41q0 -24 -16 -40t-41 -16zM474 564q-26 0 -42.5 15.5t-16.5 40.5t16.5 41t42.5 16t41.5 -15.5t15.5 -41.5q0 -24 -16 -40t-41 -16zM326 -18q-161 0 -231 103q-43 61 -43 153t43 153
q70 103 231 103q184 0 235 -153h14l-21 135h87v-476h-87l21 135h-14q-51 -153 -235 -153zM349 57q127 0 176 72q31 43 31 109t-31 109q-49 72 -176 72t-176 -72q-31 -43 -31 -109t31 -109q49 -72 176 -72z" />
    <glyph glyph-name="uni1EA1.ss01.ss02" horiz-adv-x="734" 
d="M326 -18q-161 0 -231 103q-43 61 -43 153t43 153q70 103 231 103q184 0 235 -153h14l-21 135h87v-476h-87l21 135h-14q-51 -153 -235 -153zM349 57q127 0 176 72q31 43 31 109t-31 109q-49 72 -176 72t-176 -72q-31 -43 -31 -109t31 -109q49 -72 176 -72zM368 -185
q-28 0 -46 17.5t-18 44.5q0 28 18 45t46 17q27 0 44.5 -17t17.5 -45q0 -27 -17.5 -44.5t-44.5 -17.5z" />
    <glyph glyph-name="f.ss03" horiz-adv-x="453" 
d="M487 548h-87v7q0 43 -27.5 66.5t-77.5 23.5q-55 0 -85 -28.5t-30 -79.5v-61h248v-75h-248v-401h-86v536q0 83 54.5 132.5t146.5 49.5t142 -42t50 -120v-8z" />
    <glyph glyph-name="uni021B.ss01.ss03" horiz-adv-x="517" 
d="M472 476v-75h-303v-236q0 -52 27.5 -79.5t79.5 -27.5q57 0 83 29t26 90v58h87v-60q0 -92 -50 -142t-145 -50q-195 0 -195 181v409l87 41v-138h303zM267 -37q56 0 56 -60q0 -40 -26 -65t-79 -25v43q24 0 33 5.5t11 19.5q-49 2 -49 41q0 17 15 29t39 12z" />
    <glyph glyph-name="t.ss03" horiz-adv-x="517" 
d="M472 476v-75h-303v-236q0 -52 27.5 -79.5t79.5 -27.5q57 0 83 29t26 90v58h87v-60q0 -92 -50 -142t-145 -50q-195 0 -195 181v409l87 41v-138h303z" />
    <glyph glyph-name="tbar.ss03" horiz-adv-x="517" 
d="M472 476v-75h-303v-75h301v-58h-301v-103q0 -52 27.5 -79.5t79.5 -27.5q57 0 83 29t26 90v48h87v-50q0 -92 -50 -142t-145 -50q-195 0 -195 181v409l87 41v-138h303z" />
    <glyph glyph-name="tcaron.ss03" horiz-adv-x="517" 
d="M291 700h92l-77 -164h-53zM472 476v-75h-303v-236q0 -52 27.5 -79.5t79.5 -27.5q57 0 83 29t26 90v58h87v-60q0 -92 -50 -142t-145 -50q-195 0 -195 181v409l87 41v-138h303z" />
    <glyph glyph-name="uni0163.ss03" horiz-adv-x="517" 
d="M472 476v-75h-303v-236q0 -52 27.5 -79.5t79.5 -27.5q57 0 83 29t26 90v58h87v-60q0 -88 -45.5 -138t-133.5 -54l-5 -16q66 -15 66 -70q0 -39 -33 -64t-91 -25q-55 0 -94.5 24.5t-43.5 77.5h65q9 -49 71 -49q61 0 61 36q0 32 -48 32l-20 25l10 32q-149 19 -149 178v409
l87 41v-138h303z" />
    <glyph glyph-name="uni021B.ss03" horiz-adv-x="517" 
d="M472 476v-75h-303v-236q0 -52 27.5 -79.5t79.5 -27.5q57 0 83 29t26 90v58h87v-60q0 -92 -50 -142t-145 -50q-195 0 -195 181v409l87 41v-138h303zM267 -113h-44v74h95v-57q0 -43 -25.5 -67t-71.5 -24v45q21 0 33.5 8t12.5 21z" />
    <glyph glyph-name="j.ss04" horiz-adv-x="286" 
d="M199 562h-101v118h101v-118zM35 -192h-40v74h40q37 0 53.5 20t16.5 62v512h87v-511q0 -157 -157 -157z" />
    <glyph glyph-name="uni0237.ss04" horiz-adv-x="286" 
d="M35 -192h-40v74h40q37 0 53.5 20t16.5 62v512h87v-511q0 -157 -157 -157z" />
    <glyph glyph-name="uni006A0301.ss04" horiz-adv-x="286" 
d="M190 541h-76l81 150h103zM35 -192h-40v74h40q37 0 53.5 20t16.5 62v512h87v-511q0 -157 -157 -157z" />
    <glyph glyph-name="jcircumflex.ss04" horiz-adv-x="286" 
d="M52 541h-104l155 148h91l154 -148h-103l-96 101zM35 -192h-40v74h40q37 0 53.5 20t16.5 62v512h87v-511q0 -157 -157 -157z" />
    <glyph glyph-name="j.ss01.ss04" horiz-adv-x="286" 
d="M150 560q-28 0 -46 17t-18 45q0 27 18 44.5t46 17.5q27 0 44.5 -17.5t17.5 -44.5q0 -28 -17.5 -45t-44.5 -17zM35 -192h-40v74h40q37 0 53.5 20t16.5 62v512h87v-511q0 -157 -157 -157z" />
    <glyph glyph-name="g_j.liga.ss01" horiz-adv-x="976" 
d="M841 558q-28 0 -46 17t-18 44t18 44t46 17t45.5 -17t17.5 -44q0 -26 -17.5 -43.5t-45.5 -17.5zM327 -192q-127 0 -196 49t-76 143h88q11 -118 184 -118q91 0 140.5 40t49.5 113v11l28 131h-14q-47 -151 -216 -151q-154 0 -220 96q-40 57 -40 138t40 138q66 96 220 96
q169 0 216 -151h14l-28 133h87v-413q0 -255 -277 -255zM727 -192h-40v74h40q70 0 70 82v512h87v-511q0 -157 -157 -157zM333 99q113 0 159 65q28 41 28 96t-28 96q-46 65 -159 65q-114 0 -160 -65q-28 -41 -28 -96t28 -96q46 -65 160 -65z" />
    <glyph glyph-name="j_j.liga.ss01" horiz-adv-x="582" 
d="M150 558q-29 0 -46.5 17t-17.5 44t17.5 44t46.5 17q28 0 45 -17t17 -44t-17 -44t-45 -17zM435 558q-28 0 -46 17t-18 44t18 44t46 17t45 -17t17 -44t-17.5 -44t-44.5 -17zM35 -192h-40v74h40q37 0 53.5 20t16.5 62v512h87v-511q0 -157 -157 -157zM321 -192h-40v74h40
q70 0 70 82v512h86v-511q0 -157 -156 -157z" />
    <glyph glyph-name="q_j.liga.ss01" horiz-adv-x="1031" 
d="M884 558q-28 0 -46 17t-18 44t18 44t46 17t45 -17t17 -44t-17 -44t-45 -17zM641 -180h-87v180l21 135h-14q-51 -153 -235 -153q-161 0 -231 103q-43 61 -43 153t43 153q70 103 231 103q184 0 235 -153h14l-21 135h87v-656zM770 -192h-41v74h41q69 0 69 82v512h87v-511
q0 -157 -156 -157zM349 57q127 0 176 72q31 43 31 109t-31 109q-49 72 -176 72t-176 -72q-31 -43 -31 -109t31 -109q49 -72 176 -72z" />
    <glyph glyph-name="f_f.ss03" horiz-adv-x="832" 
d="M866 548h-88v7q0 43 -27 66.5t-77 23.5q-55 0 -85 -28.5t-30 -79.5v-61h248v-75h-248v-401h-87v401h-292v-401h-86v515q0 95 63 149t168 54q126 0 179 -75q53 75 170 75q92 0 142 -42t50 -120v-8zM180 516v-40h292v47q0 59 -36.5 90t-102.5 31q-71 0 -112 -33.5
t-41 -94.5z" />
    <glyph glyph-name="f_f_i.ss03" horiz-adv-x="1029" 
d="M557 509v-33h377v-476h-87v404h-290v-404h-87v404h-290v-404h-86v515q0 95 62.5 149t167.5 54q135 0 185 -85q65 85 205 85q105 0 165 -44t63 -127h-93q-4 97 -140 97q-71 0 -111.5 -35.5t-40.5 -99.5zM180 516v-40h290v47q0 59 -36.5 90t-101.5 31q-72 0 -112 -33.5
t-40 -94.5z" />
    <glyph glyph-name="f_f_l.ss03" horiz-adv-x="1112" 
d="M674 718q92 0 142 -42t50 -120v-8h-88v7q0 43 -27 66.5t-77 23.5q-55 0 -85 -28.5t-30 -79.5v-61h248v-75h-248v-401h-87v401h-292v-401h-86v515q0 95 63 149t168 54q126 0 179 -75q53 75 170 75zM932 0v700h86v-700h-86zM180 516v-40h292v47q0 59 -36.5 90t-102.5 31
q-71 0 -112 -33.5t-41 -94.5z" />
    <glyph glyph-name="f_i.ss03" horiz-adv-x="634" 
d="M540 553v-6h-89v5q-4 92 -128 92q-67 0 -105 -35.5t-38 -99.5v-33h360v-476h-87v404h-273v-404h-86v509q0 95 61 152t168 57q99 0 156 -43t61 -122z" />
    <glyph glyph-name="f_l.ss03" horiz-adv-x="733" 
d="M295 718q92 0 142 -42t50 -120v-8h-87v7q0 43 -27.5 66.5t-77.5 23.5q-55 0 -85 -28.5t-30 -79.5v-61h248v-75h-248v-401h-86v536q0 83 54.5 132.5t146.5 49.5zM553 0v700h86v-700h-86z" />
    <glyph glyph-name="f_f_l.ss05" horiz-adv-x="1072" 
d="M747 718q111 0 171 -48t60 -145v-525h-87v525q0 121 -144 121q-69 0 -108 -32.5t-39 -92.5v-45h208v-75h-208v-401h-87v404h-290v-404h-86v401h-117v75h117v39q0 95 62.5 149t167.5 54q132 0 183 -82q63 82 197 82zM223 516v-40h290v47q0 60 -36.5 91.5t-101.5 31.5
q-71 0 -111.5 -34.5t-40.5 -95.5z" />
    <glyph glyph-name="f_l.ss05" horiz-adv-x="694" 
d="M370 718q111 0 171 -48t60 -145v-525h-87v525q0 121 -145 121q-69 0 -107.5 -32.5t-38.5 -92.5v-45h208v-75h-208v-401h-87v401h-116v75h116v44q0 90 64 144t170 54z" />
    <glyph glyph-name="f_f_l.ss03.ss05" horiz-adv-x="1028" 
d="M704 718q111 0 171 -48t60 -145v-525h-87v525q0 119 -145 119q-69 0 -107.5 -32t-38.5 -91v-45h208v-75h-208v-401h-87v404h-291v-404h-85v515q0 95 62.5 149t166.5 54q133 0 184 -82q63 82 197 82zM470 476v47q0 59 -36.5 90t-101.5 31q-72 0 -112.5 -34t-40.5 -94v-40
h291z" />
    <glyph glyph-name="f_l.ss03.ss05" horiz-adv-x="652" 
d="M327 718q231 0 231 -193v-525h-87v525q0 119 -144 119q-69 0 -108 -32t-39 -91v-45h208v-75h-208v-401h-86v520q0 91 63.5 144.5t169.5 53.5z" />
    <glyph glyph-name="i.sups.ss01" horiz-adv-x="222" 
d="M111 708q-21 0 -34.5 13t-13.5 34t13.5 34t34.5 13t34.5 -13t13.5 -34q0 -20 -13.5 -33.5t-34.5 -13.5zM149 300h-76v337h76v-337z" />
    <glyph glyph-name="j.sups.ss01" horiz-adv-x="243" 
d="M126 708q-21 0 -34.5 13t-13.5 34t13.5 34t34.5 13t34.5 -13t13.5 -34q0 -20 -14 -33.5t-34 -13.5zM23 166q-62 0 -95.5 26.5t-36.5 71.5v3h72v-3q2 -20 17.5 -32t41.5 -12q32 0 49 19.5t17 52.5v345h75v-340q0 -62 -36.5 -96.5t-103.5 -34.5z" />
    <glyph glyph-name="a.sups.ss02" horiz-adv-x="510" 
d="M220 288q-99 0 -144 67q-31 43 -31 113q0 68 30 112q47 67 145 67q121 0 156 -108h12l-18 97h73v-336h-73l18 97h-12q-34 -109 -156 -109zM245 348q75 0 106 45q21 30 21 75q0 44 -21 74q-31 46 -106 46q-76 0 -107 -47q-20 -29 -20 -73q0 -45 21 -74q31 -46 106 -46z
" />
    <glyph glyph-name="f.sups.ss03" horiz-adv-x="356" 
d="M367 682h-74v3q-3 60 -71 60q-35 0 -54 -18t-19 -52v-38h168v-60h-168v-277h-75v371q0 62 39 97t109 35q69 0 106.5 -30t38.5 -88v-3z" />
    <glyph glyph-name="t.sups.ss03" horiz-adv-x="414" 
d="M370 637v-60h-221v-158q0 -68 72 -68q74 0 74 74v46h75v-48q0 -64 -39 -100t-111 -36t-109 34t-37 97v284l75 33v-98h221z" />
    <glyph glyph-name="j.sups.ss01.ss04" horiz-adv-x="238" 
d="M121 708q-21 0 -34.5 13.5t-13.5 33.5q0 21 13.5 34t34.5 13t34.5 -13t13.5 -34q0 -20 -13.5 -33.5t-34.5 -13.5zM28 166h-31v55h22q65 0 65 70v346h74v-342q0 -129 -130 -129z" />
    <glyph glyph-name="j.sups.ss04" horiz-adv-x="232" 
d="M163 710h-85v80h85v-80zM28 166h-31v55h22q65 0 65 70v346h74v-342q0 -129 -130 -129z" />
    <glyph glyph-name="a.sups" horiz-adv-x="477" 
d="M235 649q175 0 175 -138v-11v-200h-74l19 99h-11q-13 -54 -55.5 -83t-106.5 -29q-66 0 -101 33q-25 27 -25 65q0 39 25 66q33 33 99 36l155 9v6v11q0 77 -103 77q-52 0 -78.5 -19.5t-27.5 -52.5h-77q2 61 50.5 96t135.5 35zM204 341q56 0 93.5 30t37.5 75v4l-136 -9
q-39 -3 -53 -19q-11 -11 -11 -32t11 -32q17 -17 58 -17z" />
    <glyph glyph-name="b.sups" horiz-adv-x="540" 
d="M306 287q-128 0 -164 110h-10l17 -97h-75v490h75v-153l-17 -98h10q36 110 164 110q109 0 156 -70q31 -45 31 -111q0 -65 -31 -110q-48 -71 -156 -71zM282 351q83 0 113 46q21 30 21 71q0 40 -20 71q-32 46 -114 46q-83 0 -114 -47q-20 -28 -20 -70q0 -40 19 -69
q33 -48 115 -48z" />
    <glyph glyph-name="c.sups" horiz-adv-x="496" 
d="M251 287q-125 0 -177 76q-29 43 -29 104q0 64 29 105q52 77 181 77q86 0 139 -36.5t57 -101.5h-75q-6 35 -37.5 54.5t-83.5 19.5q-83 0 -113 -46q-20 -29 -20 -72t18 -68q33 -48 112 -48q50 0 81 20t37 54h75q-5 -64 -57 -101t-137 -37z" />
    <glyph glyph-name="d.sups" horiz-adv-x="540" 
d="M233 287q-107 0 -155 70q-31 47 -31 111q0 66 31 111q47 70 155 70q130 0 164 -110h12l-18 98v153h75v-490h-75l18 97h-12q-35 -110 -164 -110zM258 351q83 0 114 47q19 28 19 70q0 43 -19 71q-31 46 -114 46t-114 -46q-20 -29 -20 -71q0 -41 20 -70q31 -47 114 -47z" />
    <glyph glyph-name="e.sups" horiz-adv-x="482" 
d="M439 472v-21h-321q3 -36 20 -61q29 -45 110 -45q90 0 115 60h76q-13 -53 -64 -85.5t-126 -32.5q-123 0 -175 75q-29 43 -29 105q0 63 29 106q52 76 171 76q93 0 143.5 -47t50.5 -130zM119 499h247q-9 94 -121 93q-77 0 -108 -46q-14 -20 -18 -47z" />
    <glyph glyph-name="f.sups" horiz-adv-x="389" 
d="M399 682h-73v3q-4 60 -71 60q-35 0 -54.5 -18.5t-19.5 -51.5v-38h168v-60h-168v-277h-75v277h-81v60h81v34q0 62 39.5 97t108.5 35t106.5 -30t38.5 -88v-3z" />
    <glyph glyph-name="g.sups" horiz-adv-x="512" 
d="M242 165q-90 0 -140 35.5t-53 99.5h75q5 -78 119 -78q58 0 90.5 25.5t32.5 73.5v11l22 94h-11q-31 -107 -150 -107q-105 0 -150 66q-28 40 -28 99q0 58 28 100q46 65 150 65q120 0 150 -107h11l-21 95h74v-292q0 -180 -199 -180zM248 379q76 0 104 44q17 23 17 61t-17 62
q-29 42 -104 42q-76 0 -104 -42q-18 -27 -18 -62q0 -38 17 -61q30 -44 105 -44z" />
    <glyph glyph-name="h.sups" horiz-adv-x="512" 
d="M149 300h-75v490h75v-153l-18 -103h11q37 115 155 115q72 0 110 -37.5t38 -108.5v-26v-177h-76v170v19q0 93 -98 93q-56 0 -89 -32.5t-33 -85.5v-164z" />
    <glyph glyph-name="i.sups" horiz-adv-x="222" 
d="M153 710h-84v80h84v-80zM149 300h-76v337h76v-337z" />
    <glyph glyph-name="j.sups" horiz-adv-x="236" 
d="M167 710h-85v80h85v-80zM23 166q-62 0 -95.5 26.5t-36.5 71.5v3h72v-3q2 -20 17.5 -32t41.5 -12q32 0 49 19.5t17 52.5v345h75v-340q0 -62 -36.5 -96.5t-103.5 -34.5z" />
    <glyph glyph-name="k.sups" horiz-adv-x="478" 
d="M359 637h97l-184 -155l180 -182h-99l-136 141l-68 -57v-84h-75v490h75v-288l-17 -43h11z" />
    <glyph glyph-name="l.sups" horiz-adv-x="223" 
d="M149 300h-75v490h75v-490z" />
    <glyph glyph-name="m.sups" horiz-adv-x="732" 
d="M149 300h-75v337h75l-18 -103h11q28 115 133 115q49 0 80 -31t32 -84h11q27 115 139 115q62 0 95 -37t33 -106v-42v-164h-76v161v33q0 88 -80 88q-47 0 -74.5 -30.5t-27.5 -81.5v-170h-76v163v31q0 88 -80 88q-48 0 -75 -30.5t-27 -81.5v-170z" />
    <glyph glyph-name="n.sups" horiz-adv-x="512" 
d="M149 300h-75v337h75l-18 -103h11q37 115 155 115q72 0 110 -37.5t38 -108.5v-203h-76v189q0 93 -98 93q-56 0 -89 -32.5t-33 -85.5v-164z" />
    <glyph glyph-name="o.sups" horiz-adv-x="516" 
d="M258 287q-64 0 -111.5 21.5t-72.5 58.5q-29 43 -29 101t29 101q54 80 184 80q129 0 183 -80q30 -43 30 -101q0 -55 -29 -100q-55 -81 -184 -81zM258 351q83 0 117 50q18 27 18 67t-18 67q-33 50 -117 50t-117 -49q-19 -28 -19 -68q0 -41 19 -67q34 -50 117 -50z" />
    <glyph glyph-name="p.sups" horiz-adv-x="540" 
d="M149 174h-75v463h75l-17 -98h10q36 110 164 110q109 0 156 -70q31 -45 31 -111q0 -65 -31 -110q-48 -71 -156 -71q-128 0 -164 110h-10l17 -97v-126zM282 351q83 0 113 46q21 30 21 71q0 40 -20 71q-32 46 -114 46q-83 0 -114 -47q-20 -28 -20 -70q0 -40 19 -69
q33 -48 115 -48z" />
    <glyph glyph-name="q.sups" horiz-adv-x="540" 
d="M466 174h-75v126l18 97h-12q-35 -110 -164 -110q-107 0 -155 70q-31 47 -31 111q0 66 31 111q47 70 155 70q130 0 164 -110h12l-18 98h75v-463zM258 351q83 0 114 47q19 28 19 70q0 43 -19 71q-31 46 -114 46t-114 -46q-20 -29 -20 -71q0 -41 20 -70q31 -47 114 -47z" />
    <glyph glyph-name="r.sups" horiz-adv-x="439" 
d="M149 300h-75v337h74l-21 -109h12q17 63 51 92t90 29q59 0 90 -33t31 -93v-27v-31h-76v20v15q0 42 -18.5 61.5t-60.5 19.5q-46 0 -71.5 -31t-25.5 -88v-162z" />
    <glyph glyph-name="s.sups" horiz-adv-x="443" 
d="M219 287q-79 0 -124 31.5t-45 88.5h73q0 -31 26.5 -47.5t71.5 -16.5q61 0 81 20q11 11 11 29q0 20 -14.5 29.5t-47.5 14.5l-86 11q-109 16 -109 95q0 40 25 65q44 42 142 42q81 0 125 -31.5t44 -88.5h-73q0 65 -99 65q-60 0 -80 -20q-11 -13 -11 -29q0 -18 14.5 -28
t49.5 -15l81 -10q58 -9 85.5 -31.5t27.5 -64.5q0 -40 -26 -66q-43 -43 -142 -43z" />
    </font>
</defs>
</svg>
