<?xml version="1.0" standalone="no"?>
<!DOCTYPE svg PUBLIC "-//W3C//DTD SVG 1.1//EN" "http://www.w3.org/Graphics/SVG/1.1/DTD/svg11.dtd" >
<svg xmlns="http://www.w3.org/2000/svg" xmlns:xlink="http://www.w3.org/1999/xlink" version="1.1">
<metadata>
Created by FontForge 20190801 at Mon Sep 13 12:35:31 2021
 By www-data
Copyright (c) 2020 by Grilli Type. All rights reserved.
</metadata>
<defs>
<font id="GTFlexaExtendedMedium" horiz-adv-x="770" >
  <font-face 
    font-family="GTFlexaExtendedMedium"
    font-weight="500"
    font-stretch="expanded"
    units-per-em="1000"
    panose-1="0 0 6 5 0 0 0 0 0 0"
    ascent="800"
    descent="-200"
    x-height="489"
    cap-height="700"
    bbox="-498 -203 1439 973"
    underline-thickness="50"
    underline-position="-100"
    unicode-range="U+000D-1F517"
  />
<missing-glyph horiz-adv-x="1115" 
d="M1023 830v-34q-132 -16 -217.5 -93t-116.5 -207h13q72 0 142.5 -54.5t114 -142.5t43.5 -178q0 -164 -120 -164q-96 0 -170 118.5t-74 270.5q0 60 7 108q-60 -16 -107.5 -62t-74.5 -113q75 -34 129.5 -134t54.5 -210q0 -56 -24.5 -90.5t-65.5 -34.5q-68 0 -114 88.5
t-46 219.5q0 74 21 139q-4 1 -11 1q-71 0 -121 -69q60 -66 60 -201q0 -143 -70 -143q-38 0 -59 40t-21 111q0 105 47 186q-16 11 -31 11q-34 0 -60 -37t-26 -85h-35q0 62 36.5 109t84.5 47q24 0 50 -16q60 81 145 81q7 0 23 -2q33 80 91 133t131 68q30 147 125 234t246 105z
M702 461q-13 0 -20 -1q-9 -52 -9 -114q0 -137 63.5 -245.5t145.5 -108.5q85 0 85 129q0 126 -83.5 233t-181.5 107zM612 -65q0 97 -48.5 189.5t-112.5 122.5q-19 -62 -19 -129q0 -113 36.5 -193t88.5 -80q55 0 55 90zM312 -12q0 108 -45 170q-37 -71 -37 -162q0 -53 13 -85
t35 -32q34 0 34 109z" />
    <glyph glyph-name="f_f" unicode="ff" horiz-adv-x="930" 
d="M975 548h-145v4q0 65 -77 65q-40 0 -63 -21.5t-23 -58.5v-48h230v-107h-230v-382h-149v386h-246v-386h-147v382h-111v107h111v26q0 93 70.5 148t193.5 55q120 0 181 -59q63 60 181 60q107 0 165.5 -43t58.5 -123v-5zM270 516v-27h248v31q0 46 -31 71.5t-87 25.5
q-60 0 -95 -26.5t-35 -74.5z" />
    <glyph glyph-name="f_f_i" unicode="ffi" horiz-adv-x="1138" 
d="M665 506v-17h390v-489h-146v386h-244v-386h-148v386h-245v-386h-147v382h-111v107h111v26q0 93 70.5 148t192.5 55q129 0 190 -67q73 67 216 67q123 0 192 -43.5t77 -127.5h-155q-9 70 -117 70q-58 0 -92 -29t-34 -82zM270 516v-27h247v31q0 46 -31 71.5t-87 25.5
q-59 0 -94 -27t-35 -74z" />
    <glyph glyph-name="f_f_l" unicode="ffl" horiz-adv-x="1255" 
d="M751 719q107 0 165.5 -43t58.5 -123v-5h-145v4q0 65 -77 65q-40 0 -63 -21.5t-23 -58.5v-48h230v-107h-230v-382h-149v386h-246v-386h-147v382h-111v107h111v26q0 93 70.5 148t193.5 55q120 0 181 -59q63 60 181 60zM1023 0v700h149v-700h-149zM270 516v-27h248v31
q0 46 -31 71.5t-87 25.5q-60 0 -95 -26.5t-35 -74.5z" />
    <glyph glyph-name="f_i" unicode="fi" horiz-adv-x="746" 
d="M273 506v-17h390v-489h-146v386h-244v-386h-148v382h-111v107h111v16q0 98 71.5 155.5t201.5 57.5q122 0 190 -43.5t76 -127.5h-151q-9 70 -114 70q-58 0 -92 -29t-34 -82z" />
    <glyph glyph-name="f_l" unicode="fl" horiz-adv-x="862" 
d="M359 719q107 0 165 -43t58 -123v-5h-145v4q0 65 -77 65q-40 0 -62.5 -21.5t-22.5 -58.5v-48h230v-107h-230v-382h-150v382h-111v107h111v41q0 88 62.5 138.5t171.5 50.5zM631 0v700h149v-700h-149z" />
    <glyph glyph-name="g_j.liga" unicode="gj" horiz-adv-x="1043" 
d="M969 561h-162v125h162v-125zM339 -194q-139 0 -213 49t-79 142h148q8 -87 146 -87q72 0 111.5 32t39.5 91v15l40 131h-18q-48 -151 -210 -151q-151 0 -216 96q-41 58 -41 144q0 85 41 144q65 95 216 95q162 0 210 -150h18l-39 132h148v-414q0 -269 -302 -269zM771 -193
h-57v109h40q31 0 45 15t14 48v510h149v-510q0 -172 -191 -172zM347 134q89 0 128 53q22 33 22 81t-22 80q-37 53 -128 53t-127 -53q-23 -33 -23 -80q0 -46 23 -81q37 -53 127 -53z" />
    <glyph glyph-name="j_j.liga" unicode="jj" horiz-adv-x="650" 
d="M250 561h-162v125h162v-125zM576 561h-162v125h162v-125zM53 -193h-57v109h40q31 0 44.5 15t13.5 48v510h150v-510q0 -172 -191 -172zM378 -193h-57v109h40q31 0 45 15t14 48v510h149v-510q0 -172 -191 -172z" />
    <glyph glyph-name="q_j.liga" unicode="qj" horiz-adv-x="1082" 
d="M1007 561h-162v125h162v-125zM675 -180h-149v180l32 133h-18q-56 -151 -227 -151q-155 0 -224 101q-44 64 -44 161q0 98 44 162q69 101 224 101q171 0 227 -151h18l-32 133h149v-669zM810 -193h-57v109h40q31 0 44.5 15t13.5 48v510h150v-510q0 -172 -191 -172zM363 94
q98 0 139 58q26 37 26 92q0 56 -26 93q-40 57 -139 57q-100 0 -140 -57q-26 -37 -26 -93q0 -55 26 -92q41 -58 140 -58z" />
    <glyph glyph-name=".notdef" horiz-adv-x="1115" 
d="M1023 830v-34q-132 -16 -217.5 -93t-116.5 -207h13q72 0 142.5 -54.5t114 -142.5t43.5 -178q0 -164 -120 -164q-96 0 -170 118.5t-74 270.5q0 60 7 108q-60 -16 -107.5 -62t-74.5 -113q75 -34 129.5 -134t54.5 -210q0 -56 -24.5 -90.5t-65.5 -34.5q-68 0 -114 88.5
t-46 219.5q0 74 21 139q-4 1 -11 1q-71 0 -121 -69q60 -66 60 -201q0 -143 -70 -143q-38 0 -59 40t-21 111q0 105 47 186q-16 11 -31 11q-34 0 -60 -37t-26 -85h-35q0 62 36.5 109t84.5 47q24 0 50 -16q60 81 145 81q7 0 23 -2q33 80 91 133t131 68q30 147 125 234t246 105z
M702 461q-13 0 -20 -1q-9 -52 -9 -114q0 -137 63.5 -245.5t145.5 -108.5q85 0 85 129q0 126 -83.5 233t-181.5 107zM612 -65q0 97 -48.5 189.5t-112.5 122.5q-19 -62 -19 -129q0 -113 36.5 -193t88.5 -80q55 0 55 90zM312 -12q0 108 -45 170q-37 -71 -37 -162q0 -53 13 -85
t35 -32q34 0 34 109z" />
    <glyph glyph-name=".null" horiz-adv-x="0" 
 />
    <glyph glyph-name="nonmarkingreturn" horiz-adv-x="333" 
 />
    <glyph glyph-name="CR" unicode="&#xd;" horiz-adv-x="280" 
 />
    <glyph glyph-name="space" unicode=" " horiz-adv-x="280" 
 />
    <glyph glyph-name="exclam" unicode="!" horiz-adv-x="308" 
d="M230 224h-153v476h153v-476zM244 0h-180v151h180v-151z" />
    <glyph glyph-name="quotedbl" unicode="&#x22;" horiz-adv-x="458" 
d="M145 443h-41l-37 109q-14 40 -14 73v92h144v-92q0 -29 -14 -73zM354 443h-41l-38 109q-14 40 -14 73v92h144v-92q0 -29 -14 -73z" />
    <glyph glyph-name="numbersign" unicode="#" horiz-adv-x="753" 
d="M745 510l-20 -89h-125l-30 -142h130l-20 -89h-129l-40 -190h-109l40 190h-192l-40 -190h-108l40 190h-133l19 89h133l30 142h-138l20 89h137l40 190h108l-40 -190h192l40 190h109l-40 -190h126zM269 279h192l30 142h-192z" />
    <glyph glyph-name="dollar" unicode="$" horiz-adv-x="741" 
d="M685 470h-154v8q0 58 -42 87.5t-118 29.5q-115 0 -146 -53q-10 -17 -10 -41q0 -21 8 -34q22 -38 111 -50l136 -16q142 -19 187 -98q22 -40 22 -94q0 -57 -25 -100q-55 -97 -222 -114v-100h-123v100q-121 11 -188.5 70t-67.5 156v13h154v-8q0 -58 43 -88.5t119 -30.5
q115 0 145 53q11 20 11 41t-8 36q-23 37 -111 49l-135 16q-144 20 -188 98q-23 41 -23 93q0 54 25 99q56 97 224 115v90h123v-90q120 -11 186.5 -69t66.5 -155v-13z" />
    <glyph glyph-name="percent" unicode="%" horiz-adv-x="932" 
d="M243 368q-90 0 -146.5 49t-56.5 124q0 74 57 123.5t146 49.5t145.5 -49.5t56.5 -123.5q0 -75 -56 -124t-146 -49zM204 -12h-117l642 724h115zM243 453q46 0 74 24.5t28 63.5t-28 63.5t-74 24.5q-47 0 -75 -24.5t-28 -63.5t28 -63.5t75 -24.5zM690 -14q-90 0 -146.5 49.5
t-56.5 123.5q0 75 57 124t146 49t145.5 -49t56.5 -124t-56 -124t-146 -49zM690 71q46 0 74 24.5t28 63.5t-28 63.5t-74 24.5q-47 0 -75 -24.5t-28 -63.5t28 -63.5t75 -24.5z" />
    <glyph glyph-name="ampersand" unicode="&#x26;" horiz-adv-x="732" 
d="M607 114l115 -114h-161l-38 37q-87 -55 -207 -55q-139 0 -215.5 52t-76.5 137v1q0 118 157 176v17q-65 64 -88.5 103t-23.5 82v1q0 74 64.5 120.5t177.5 46.5q112 0 175.5 -44.5t63.5 -116.5v-1q0 -58 -41.5 -104.5t-135.5 -89.5v-16l141 -140q26 57 26 135v32h137v-32
q0 -135 -70 -227zM213 545v-1q0 -22 16 -46t65 -73q63 31 89 58.5t26 59.5v1q0 32 -26 51.5t-72 19.5t-72 -19.5t-26 -50.5zM170 186q0 -46 41 -73t115 -27q64 0 112 30l-183 177q-85 -42 -85 -106v-1z" />
    <glyph glyph-name="quotesingle" unicode="'" horiz-adv-x="250" 
d="M145 443h-41l-37 109q-14 40 -14 73v92h144v-92q0 -29 -14 -73z" />
    <glyph glyph-name="parenleft" unicode="(" horiz-adv-x="457" 
d="M449 -49v-117q-175 44 -275.5 182.5t-100.5 325.5t100.5 325.5t275.5 182.5v-117q-117 -40 -182 -146t-65 -245q0 -138 65 -244.5t182 -146.5z" />
    <glyph glyph-name="parenright" unicode=")" horiz-adv-x="457" 
d="M8 733v117q175 -44 275.5 -182.5t100.5 -325.5q0 -186 -100.5 -324.5t-275.5 -183.5v117q116 41 181.5 147t65.5 244q0 139 -65.5 245t-181.5 146z" />
    <glyph glyph-name="asterisk" unicode="*" horiz-adv-x="648" 
d="M325 416l-113 -156l-100 77l133 129l-197 41l39 115l189 -73l-17 170h129l-17 -169l189 73l39 -115l-196 -40l134 -130l-99 -78z" />
    <glyph glyph-name="plus" unicode="+" horiz-adv-x="757" 
d="M432 354h259v-109h-259v-206h-113v206h-253v109h253v205h113v-205z" />
    <glyph glyph-name="comma" unicode="," horiz-adv-x="276" 
d="M48 -162v87q45 0 64.5 17t19.5 58h-84v151h179v-130q0 -183 -179 -183z" />
    <glyph glyph-name="hyphen" unicode="-" horiz-adv-x="489" 
d="M434 235h-379v118h379v-118z" />
    <glyph glyph-name="period" unicode="." horiz-adv-x="274" 
d="M227 0h-180v151h180v-151z" />
    <glyph glyph-name="slash" unicode="/" horiz-adv-x="690" 
d="M149 -110h-147l539 830h147z" />
    <glyph glyph-name="zero" unicode="0" horiz-adv-x="784" 
d="M392 -18q-243 0 -311 191q-27 73 -27 177t27 177q68 191 311 191t311 -191q27 -73 27 -177t-27 -177q-68 -191 -311 -191zM392 102q123 0 162 107q19 53 19 141t-19 141q-39 107 -162 107q-125 0 -162 -107q-19 -53 -19 -141t19 -141q39 -107 162 -107z" />
    <glyph glyph-name="one" unicode="1" horiz-adv-x="564" 
d="M463 0h-150v584h-18q-7 -97 -56.5 -143t-143.5 -46h-78v146h82q81 0 124 41.5t43 117.5h197v-700z" />
    <glyph glyph-name="two" unicode="2" horiz-adv-x="676" 
d="M631 0h-570v205l294 147q66 35 93.5 68t27.5 76q0 42 -27 69q-36 34 -109 34q-72 0 -111 -33.5t-41 -94.5v-21h-153v22q2 113 83 179.5t221 66.5q160 0 235 -77q57 -57 57 -142q0 -80 -41.5 -134.5t-140.5 -100.5l-252 -123v-18h434v-123z" />
    <glyph glyph-name="three" unicode="3" horiz-adv-x="687" 
d="M340 -18q-142 0 -223 61.5t-83 170.5v7h152v-6q4 -117 154 -117q83 0 119 36q23 23 23 58q0 38 -22 60q-33 35 -129 35h-44v127h44q95 0 129 34q22 22 22 60q0 35 -23 58q-36 36 -119 36q-72 0 -112 -30.5t-42 -86.5v-6h-152v7q2 109 82.5 170.5t223.5 61.5
q173 0 247 -76q49 -49 49 -123q0 -63 -41 -106q-49 -47 -140 -53v-19q90 -6 140 -54q41 -41 41 -106q0 -74 -49 -123q-74 -76 -247 -76z" />
    <glyph glyph-name="four" unicode="4" horiz-adv-x="729" 
d="M567 346h149v-120h-149v-226h-149v226h-382v194l313 280h218v-354zM149 364v-18h269v248h-18z" />
    <glyph glyph-name="five" unicode="5" horiz-adv-x="690" 
d="M347 -18q-132 0 -212.5 58t-83.5 153v4h154v-2q3 -42 42 -69.5t101 -27.5q79 0 116 37q32 32 32 83t-30 81q-33 35 -106 35q-86 0 -116 -50h-169v416h574v-124h-432v-210h17q52 81 179 81q113 0 176 -63q62 -62 62 -165q0 -95 -63 -158q-77 -79 -241 -79z" />
    <glyph glyph-name="six" unicode="6" horiz-adv-x="724" 
d="M373 -18q-229 0 -294 176q-25 68 -25 165q0 123 29 203q69 192 308 192q131 0 209 -59.5t80 -157.5v-4h-153v3q-2 48 -38.5 75t-101.5 27q-184 0 -184 -263h18q60 107 206 107q124 0 194 -70q59 -59 59 -152q0 -97 -65 -162q-80 -80 -242 -80zM373 96q85 0 126 41
q30 30 30 78q0 47 -30 77q-41 41 -126 41q-84 0 -125 -41q-30 -30 -30 -77q0 -48 30 -78q41 -41 125 -41z" />
    <glyph glyph-name="seven" unicode="7" horiz-adv-x="642" 
d="M285 0h-178l378 558v18h-467v124h596v-196z" />
    <glyph glyph-name="eight" unicode="8" horiz-adv-x="702" 
d="M351 -18q-179 0 -253 76q-49 49 -49 123q0 65 42 106q48 48 136 54v19q-89 6 -136 53q-42 42 -42 106q0 74 49 123q74 76 253 76t253 -76q49 -49 49 -123q0 -63 -41 -106q-49 -47 -137 -53v-19q87 -6 137 -54q41 -41 41 -106q0 -74 -49 -123q-74 -76 -253 -76zM351 413
q94 0 129 35q23 22 23 61q0 36 -24 60q-37 37 -128 37t-128 -37q-24 -24 -24 -60q0 -38 23 -61q35 -35 129 -35zM351 94q91 0 128 37q24 24 24 60q0 39 -23 62q-36 36 -129 36q-91 0 -129 -36q-23 -25 -23 -62q0 -36 24 -60q37 -37 128 -37z" />
    <glyph glyph-name="nine" unicode="9" horiz-adv-x="724" 
d="M351 718q230 0 294 -176q25 -68 25 -165q0 -123 -29 -203q-69 -192 -308 -192q-130 0 -208.5 59.5t-80.5 157.5v4h153v-3q2 -48 38.5 -75t101.5 -27q184 0 184 263h-18q-58 -107 -205 -107q-126 0 -194 70q-60 60 -60 152q0 97 65 162q80 80 242 80zM351 604
q-86 0 -125 -41q-31 -29 -31 -78q0 -48 31 -77q39 -41 125 -41t125 41q30 28 30 77t-30 78q-39 41 -125 41z" />
    <glyph glyph-name="colon" unicode=":" horiz-adv-x="274" 
d="M227 308h-180v151h180v-151zM227 0h-180v151h180v-151z" />
    <glyph glyph-name="semicolon" unicode=";" horiz-adv-x="277" 
d="M227 308h-179v151h179v-151zM48 -162v87q45 0 65 17t20 58h-85v151h180v-130q0 -183 -180 -183z" />
    <glyph glyph-name="less" unicode="&#x3c;" horiz-adv-x="793" 
d="M66 382l661 188v-118l-572 -155l572 -156v-118l-661 189v170z" />
    <glyph glyph-name="equal" unicode="=" horiz-adv-x="756" 
d="M690 362h-624v109h624v-109zM690 129h-624v108h624v-108z" />
    <glyph glyph-name="greater" unicode="&#x3e;" horiz-adv-x="793" 
d="M66 452v118l661 -189v-170l-661 -188v118l572 156z" />
    <glyph glyph-name="question" unicode="?" horiz-adv-x="614" 
d="M372 224h-149v51q0 58 18.5 89.5t67.5 55.5l55 23q61 28 61 77v1q0 36 -30.5 57.5t-84.5 21.5q-62 0 -96.5 -28.5t-34.5 -77.5v-18h-153v16q0 106 74.5 166t209.5 60q128 0 199.5 -51t72.5 -139v-1q0 -48 -24 -86.5t-68 -59.5l-62 -26q-34 -19 -45 -38t-11 -61v-32z
M388 0h-180v151h180v-151z" />
    <glyph glyph-name="at" unicode="@" horiz-adv-x="1058" 
d="M534 -102q-174 0 -298 73t-169 198q-24 65 -24 139q0 75 24 139q45 125 171 198t304 73q174 0 293.5 -66t160.5 -179q19 -55 19 -120q0 -60 -16 -105q-22 -60 -69 -93.5t-110 -33.5q-58 0 -94 25.5t-43 72.5h-17q-40 -118 -178 -118q-122 0 -175 77q-35 50 -35 127
q0 73 35 126q53 78 172 78q138 0 180 -120h17l-27 103h108v-194v-22q0 -74 60 -74t80 60q13 35 13 91q0 53 -15 96q-32 89 -125 139t-234 50q-143 0 -242.5 -58t-134.5 -157q-20 -53 -20 -115t20 -115q35 -99 132.5 -157t236.5 -58q76 0 142 22.5t101 62.5h116
q-55 -78 -147 -121.5t-212 -43.5zM522 197q74 0 101 41q19 27 19 67q0 39 -19 66q-28 42 -101 42q-74 0 -102 -42q-19 -27 -19 -66q0 -40 19 -67q27 -41 102 -41z" />
    <glyph glyph-name="A" unicode="A" horiz-adv-x="860" 
d="M843 0h-171l-87 217h-311l-87 -217h-170l295 700h236zM411 557l-86 -215h209l-86 215l-9 66h-18z" />
    <glyph glyph-name="B" unicode="B" horiz-adv-x="771" 
d="M539 360v-19q112 -6 153 -78q21 -36 21 -81q0 -48 -22 -87q-54 -95 -219 -95h-381v700h381q165 0 219 -95q22 -39 22 -87q0 -44 -21 -81q-41 -71 -153 -77zM441 581h-196v-175h196q74 0 98 42q12 18 12 45t-11 47q-26 41 -99 41zM540 160q11 20 11 47t-12 45
q-24 42 -98 42h-196v-175h196q73 0 99 41z" />
    <glyph glyph-name="C" unicode="C" horiz-adv-x="919" 
d="M473 -21q-151 0 -259.5 62.5t-148.5 174.5q-22 59 -22 134t22 134q40 112 149.5 174.5t264.5 62.5q170 0 278.5 -75t118.5 -199h-162q-14 68 -76 107.5t-158 39.5q-95 0 -163.5 -40t-94.5 -112q-15 -42 -15 -92t15 -92q26 -72 94 -112t161 -40q92 0 150.5 39t75.5 108
h162q-15 -124 -119 -199t-273 -75z" />
    <glyph glyph-name="D" unicode="D" horiz-adv-x="879" 
d="M457 0h-366v700h366q134 0 227.5 -57t130.5 -159q21 -65 21 -134q0 -75 -22 -135q-36 -102 -129 -158.5t-228 -56.5zM249 573v-446h208q73 0 125.5 35.5t74.5 96.5q15 40 15 91q0 50 -15 92q-23 61 -75 96t-125 35h-208z" />
    <glyph glyph-name="E" unicode="E" horiz-adv-x="698" 
d="M635 0h-544v700h544v-125h-386v-163h376v-122h-376v-165h386v-125z" />
    <glyph glyph-name="F" unicode="F" horiz-adv-x="669" 
d="M249 0h-158v700h544v-125h-386v-169h369v-122h-369v-284z" />
    <glyph glyph-name="G" unicode="G" horiz-adv-x="937" 
d="M431 -21q-131 0 -229 59.5t-136 165.5q-23 67 -23 142t23 138q41 112 149.5 174.5t266.5 62.5q170 0 278.5 -74t121.5 -194h-162q-14 65 -77.5 103t-160.5 38q-96 0 -165 -39.5t-94 -111.5q-16 -42 -16 -97q0 -59 16 -102q25 -69 90 -107t154 -38q99 0 162.5 43t74.5 115
h-248v115h399v-372h-145l32 161h-18q-28 -85 -103 -133.5t-190 -48.5z" />
    <glyph glyph-name="H" unicode="H" horiz-adv-x="892" 
d="M643 414v286h158v-700h-158v288h-394v-288h-158v700h158v-286h394z" />
    <glyph glyph-name="I" unicode="I" horiz-adv-x="340" 
d="M249 0h-158v700h158v-700z" />
    <glyph glyph-name="J" unicode="J" horiz-adv-x="707" 
d="M328 -21q-294 0 -294 272v120h158v-117q0 -148 139 -148q70 0 103.5 37.5t33.5 116.5v440h158v-444q0 -133 -77 -205t-221 -72z" />
    <glyph glyph-name="K" unicode="K" horiz-adv-x="810" 
d="M605 700h190l-329 -324l324 -376h-205l-235 282l-101 -103v-179h-158v700h158v-297l-39 -78h18z" />
    <glyph glyph-name="L" unicode="L" horiz-adv-x="653" 
d="M631 0h-540v700h158v-573h382v-127z" />
    <glyph glyph-name="M" unicode="M" horiz-adv-x="1129" 
d="M244 0h-153v700h247l208 -530l9 -81h18l9 81l209 530h246v-700h-152v611h-18l-13 -132l-195 -479h-190l-195 479l-13 132h-17v-611z" />
    <glyph glyph-name="N" unicode="N" horiz-adv-x="892" 
d="M240 0h-149v700h223l297 -459l23 -150h18v609h149v-700h-223l-298 460l-22 149h-18v-609z" />
    <glyph glyph-name="O" unicode="O" horiz-adv-x="971" 
d="M486 -21q-159 0 -269.5 62.5t-151.5 174.5q-22 60 -22 134t22 134q40 111 150.5 174t270.5 63q159 0 269.5 -63t150.5 -174q22 -64 22 -134q0 -74 -22 -134q-40 -111 -150 -174t-270 -63zM486 106q99 0 168 40.5t95 112.5q15 42 15 91t-15 91q-26 71 -94.5 112t-168.5 41
t-169 -41t-95 -112q-15 -42 -15 -91t15 -91q26 -71 95 -112t169 -41z" />
    <glyph glyph-name="P" unicode="P" horiz-adv-x="745" 
d="M692 595q27 -47 27 -109q0 -64 -27 -110q-29 -50 -85 -77.5t-131 -27.5h-227v-271h-158v700h385q75 0 131 -27.5t85 -77.5zM546 436q13 22 13 50q0 27 -13 49q-24 43 -93 43h-204v-186h204q69 0 93 44z" />
    <glyph glyph-name="Q" unicode="Q" horiz-adv-x="971" 
d="M906 484q22 -64 22 -134q0 -74 -22 -134q-35 -99 -127.5 -160t-226.5 -74v-29h243v-116h-207q-74 0 -110.5 31.5t-36.5 102.5v9q-142 9 -240 70.5t-136 165.5q-22 60 -22 134t22 134q40 111 150.5 174t270.5 63q159 0 269.5 -63t150.5 -174zM749 259q15 42 15 91t-15 91
q-26 71 -94.5 112t-168.5 41t-169 -41t-95 -112q-15 -42 -15 -91t15 -91q26 -71 95 -112t169 -41q99 0 168 40.5t95 112.5z" />
    <glyph glyph-name="R" unicode="R" horiz-adv-x="764" 
d="M722 0h-194l-200 290h-79v-290h-158v700h389q158 0 214 -97q25 -44 25 -102q0 -57 -24 -97q-51 -88 -216 -93v-14l43 -14zM456 578h-207v-176h207q67 0 91 42q12 19 12 47q0 26 -11 45q-23 42 -92 42z" />
    <glyph glyph-name="S" unicode="S" horiz-adv-x="762" 
d="M376 -21q-151 0 -237.5 62.5t-86.5 174.5v13h159v-9q0 -59 45 -90.5t123 -31.5q119 0 150 55q11 20 11 43q0 21 -8 36q-23 39 -114 51l-140 17q-148 20 -194 101q-24 41 -24 96q0 56 26 102q34 58 111 90t187 32q152 0 237 -61.5t85 -173.5v-13h-159v9q0 59 -43.5 89.5
t-122.5 30.5q-119 0 -150 -55q-11 -19 -11 -42q0 -21 9 -35q22 -39 114 -51l141 -17q147 -20 192 -101q24 -42 24 -98q0 -57 -26 -103q-33 -58 -110 -89.5t-188 -31.5z" />
    <glyph glyph-name="T" unicode="T" horiz-adv-x="718" 
d="M13 700h691v-127h-266v-573h-158v573h-267v127z" />
    <glyph glyph-name="U" unicode="U" horiz-adv-x="855" 
d="M428 -21q-162 0 -254.5 80t-92.5 220v421h161v-416q0 -82 50 -129t136 -47t135.5 47t49.5 129v416h160v-421q0 -140 -92.5 -220t-252.5 -80z" />
    <glyph glyph-name="V" unicode="V" horiz-adv-x="809" 
d="M529 0h-248l-270 700h172l205 -556l8 -64h18l8 64l204 556h173z" />
    <glyph glyph-name="W" unicode="W" horiz-adv-x="1193" 
d="M456 0h-245l-181 700h165l132 -539l7 -81h18l6 81l126 539h225l126 -539l6 -81h18l8 81l131 539h165l-181 -700h-245l-125 539l-7 72h-17l-7 -72z" />
    <glyph glyph-name="X" unicode="X" horiz-adv-x="815" 
d="M208 0h-194l283 353l-283 347h191l185 -230l8 -52h19l8 52l185 230h191l-284 -347l284 -353h-194l-181 235l-9 52h-19l-8 -52z" />
    <glyph glyph-name="Y" unicode="Y" horiz-adv-x="789" 
d="M598 700h180l-306 -449v-251h-155v250l-306 450h180l189 -288l6 -51h17l6 51z" />
    <glyph glyph-name="Z" unicode="Z" horiz-adv-x="762" 
d="M705 0h-648v196l489 363v18h-489v123h647v-202l-485 -357v-18h486v-123z" />
    <glyph glyph-name="bracketleft" unicode="[" horiz-adv-x="465" 
d="M458 820v-109h-222v-764h222v-108h-347v981h347z" />
    <glyph glyph-name="backslash" unicode="\" horiz-adv-x="656" 
d="M654 -110h-134l-518 830h134z" />
    <glyph glyph-name="bracketright" unicode="]" horiz-adv-x="465" 
d="M354 820v-981h-346v108h221v764h-221v109h346z" />
    <glyph glyph-name="asciicircum" unicode="^" horiz-adv-x="706" 
d="M196 343h-154l209 357h205l208 -357h-155l-146 272h-19z" />
    <glyph glyph-name="underscore" unicode="_" horiz-adv-x="663" 
d="M658 -93h-653v101h653v-101z" />
    <glyph glyph-name="grave" unicode="`" horiz-adv-x="600" 
d="M423 549h-125l-111 147h165z" />
    <glyph glyph-name="a" unicode="a" horiz-adv-x="670" 
d="M327 507q273 0 273 -199v-308h-147l31 135h-18q-42 -153 -228 -153q-98 0 -145 47q-37 37 -37 95q0 60 37 97q48 48 150 54l207 11v26q0 89 -126 89q-34 0 -59.5 -8t-37.5 -18t-19.5 -23.5t-8.5 -21t-1 -13.5v-2h-152v2q1 12 3 22.5t9.5 36t26 45.5t47.5 41t79.5 33
t115.5 12zM290 79q79 0 118.5 40.5t41.5 84.5l-162 -12q-45 -5 -64 -24q-14 -13 -14 -36q0 -21 13 -34q19 -19 67 -19z" />
    <glyph glyph-name="b" unicode="b" horiz-adv-x="757" 
d="M444 -18q-171 0 -227 151h-18l32 -133h-149v700h149v-211l-32 -133h18q56 151 227 151q155 0 224 -101q44 -64 44 -162q0 -97 -44 -161q-69 -101 -224 -101zM394 94q99 0 140 58q26 37 26 92q0 56 -26 93q-40 57 -140 57q-99 0 -139 -57q-26 -37 -26 -93q0 -55 26 -92
q41 -58 139 -58z" />
    <glyph glyph-name="c" unicode="c" horiz-adv-x="684" 
d="M347 -18q-191 0 -265 110q-43 61 -43 151t44 153q77 111 271 111q130 0 209.5 -54.5t84.5 -147.5h-149q-19 89 -145 89q-97 0 -136 -57q-26 -37 -26 -94q0 -58 25 -93q38 -56 132 -56q60 0 96.5 23.5t44.5 66.5h149q-7 -94 -85 -148t-207 -54z" />
    <glyph glyph-name="d" unicode="d" horiz-adv-x="757" 
d="M313 -18q-155 0 -224 101q-44 64 -44 161q0 98 44 162q69 101 224 101q171 0 227 -151h18l-32 133v211h149v-700h-149l32 133h-18q-56 -151 -227 -151zM363 94q98 0 139 58q26 37 26 92q0 56 -26 93q-40 57 -139 57q-100 0 -140 -57q-26 -37 -26 -93q0 -55 26 -92
q41 -58 140 -58z" />
    <glyph glyph-name="e" unicode="e" horiz-adv-x="674" 
d="M485 150h150q-18 -76 -95 -122t-191 -46q-193 0 -267 109q-43 61 -43 152q0 88 46 154q76 110 256 110q140 0 216.5 -67.5t76.5 -190.5v-39h-447q5 -43 24 -71q38 -56 136 -54q105 0 138 65zM341 406q-93 -2 -131 -56q-15 -22 -20 -52h296q-8 108 -145 108z" />
    <glyph glyph-name="f" unicode="f" horiz-adv-x="538" 
d="M582 548h-145v4q0 65 -77 65q-40 0 -62.5 -21.5t-22.5 -58.5v-48h230v-107h-230v-382h-150v382h-111v107h111v41q0 88 62.5 138.5t171.5 50.5q107 0 165 -43t58 -123v-5z" />
    <glyph glyph-name="g" unicode="g" horiz-adv-x="718" 
d="M339 -194q-139 0 -213 49t-79 142h148q8 -87 146 -87q72 0 111.5 32t39.5 91v15l40 131h-18q-48 -151 -210 -151q-151 0 -216 96q-41 58 -41 144q0 85 41 144q65 95 216 95q162 0 210 -150h18l-39 132h148v-414q0 -269 -302 -269zM347 134q89 0 128 53q22 33 22 81
t-22 80q-37 53 -128 53t-127 -53q-23 -33 -23 -80q0 -46 23 -81q37 -53 127 -53z" />
    <glyph glyph-name="h" unicode="h" horiz-adv-x="720" 
d="M231 0h-149v700h149v-211l-32 -139h18q51 157 214 157q218 0 218 -216v-291h-149v271q0 118 -123 118q-68 0 -107 -39.5t-39 -107.5v-242z" />
    <glyph glyph-name="i" unicode="i" horiz-adv-x="313" 
d="M238 561h-162v125h162v-125zM231 0h-149v489h149v-489z" />
    <glyph glyph-name="j" unicode="j" horiz-adv-x="326" 
d="M250 561h-162v125h162v-125zM53 -193h-57v109h40q31 0 44.5 15t13.5 48v510h150v-510q0 -172 -191 -172z" />
    <glyph glyph-name="k" unicode="k" horiz-adv-x="688" 
d="M495 489h183l-255 -221l250 -268h-188l-169 191l-85 -76v-115h-149v700h149v-389l-40 -66h18z" />
    <glyph glyph-name="l" unicode="l" horiz-adv-x="313" 
d="M231 0h-149v700h149v-700z" />
    <glyph glyph-name="m" unicode="m" horiz-adv-x="1040" 
d="M231 0h-149v489h148l-31 -139h18q47 157 186 157q69 0 114.5 -42t46.5 -115h18q44 157 196 157q94 0 142.5 -53.5t48.5 -155.5v-298h-149v276q0 113 -98 113q-57 0 -89.5 -37t-32.5 -100v-252h-149v276q0 55 -26 84t-73 29q-58 0 -89.5 -36.5t-31.5 -100.5v-252z" />
    <glyph glyph-name="n" unicode="n" horiz-adv-x="720" 
d="M231 0h-149v489h149l-32 -139h18q51 157 213 157q108 0 163.5 -55t55.5 -161v-291h-149v271q0 118 -123 118q-68 0 -107 -39.5t-39 -107.5v-242z" />
    <glyph glyph-name="o" unicode="o" horiz-adv-x="719" 
d="M360 -18q-199 0 -278 118q-43 61 -43 144q0 84 43 145q38 56 110 87t168 31t167.5 -31t110.5 -87q42 -62 42 -145q0 -82 -42 -144q-38 -57 -110 -87.5t-168 -30.5zM360 94q101 0 142 62q25 36 25 88t-25 89q-42 61 -142 61q-101 0 -143 -61q-25 -37 -25 -89t25 -88
q41 -62 143 -62z" />
    <glyph glyph-name="p" unicode="p" horiz-adv-x="757" 
d="M231 -180h-149v669h149l-32 -133h18q56 151 227 151q155 0 224 -101q44 -64 44 -162q0 -97 -44 -161q-69 -101 -224 -101q-171 0 -227 151h-18l32 -133v-180zM394 94q99 0 140 58q26 37 26 92q0 56 -26 93q-40 57 -140 57q-99 0 -139 -57q-26 -37 -26 -93q0 -55 26 -92
q41 -58 139 -58z" />
    <glyph glyph-name="q" unicode="q" horiz-adv-x="757" 
d="M675 -180h-149v180l32 133h-18q-56 -151 -227 -151q-155 0 -224 101q-44 64 -44 161q0 98 44 162q69 101 224 101q171 0 227 -151h18l-32 133h149v-669zM363 94q98 0 139 58q26 37 26 92q0 56 -26 93q-40 57 -139 57q-100 0 -140 -57q-26 -37 -26 -93q0 -55 26 -92
q41 -58 140 -58z" />
    <glyph glyph-name="r" unicode="r" horiz-adv-x="617" 
d="M231 0h-149v489h148l-36 -151h18q28 89 76 129t125 40q87 0 131 -47t44 -135v-93h-152v56q0 51 -22 75t-72 24q-54 0 -82.5 -35.5t-28.5 -101.5v-250z" />
    <glyph glyph-name="s" unicode="s" horiz-adv-x="619" 
d="M305 -18q-121 0 -189 44.5t-68 125.5v4h143v-4q0 -72 117 -72q73 0 96 23q12 12 12 32q0 22 -16.5 34.5t-59.5 18.5l-124 16q-161 24 -161 145q0 57 39 96q62 62 217 62q123 0 190 -45.5t67 -126.5v-4h-144v4q0 74 -118 74q-72 0 -95 -23q-13 -13 -13 -31q0 -41 79 -52
l114 -14q90 -15 130 -50.5t40 -97.5q0 -59 -38 -97q-64 -62 -218 -62z" />
    <glyph glyph-name="t" unicode="t" horiz-adv-x="628" 
d="M589 489v-107h-314v-206q0 -83 82 -83q44 0 64 22.5t20 70.5v60h148v-63q0 -95 -61 -148t-172 -53q-231 0 -231 192v208h-111v107h111v81l150 60v-141h314z" />
    <glyph glyph-name="u" unicode="u" horiz-adv-x="710" 
d="M285 -18q-214 0 -214 216v291h149v-271q0 -118 118 -118q66 0 103 39t37 107v243h150v-489h-150l33 139h-18q-54 -157 -208 -157z" />
    <glyph glyph-name="v" unicode="v" horiz-adv-x="675" 
d="M456 0h-238l-204 489h162l145 -370l7 -44h19l6 44l146 370h162z" />
    <glyph glyph-name="w" unicode="w" horiz-adv-x="1008" 
d="M398 0h-222l-150 489h154l101 -363l4 -51h19l4 51l91 363h212l89 -363l4 -51h19l4 51l101 363h154l-150 -489h-222l-92 366l-4 47h-20l-4 -47z" />
    <glyph glyph-name="x" unicode="x" horiz-adv-x="667" 
d="M202 0h-181l205 244l-205 245h181l118 -151l4 -41h19l5 41l117 151h181l-205 -245l205 -244h-181l-117 145l-5 41h-19l-5 -41z" />
    <glyph glyph-name="y" unicode="y" horiz-adv-x="677" 
d="M361 129l137 360h165l-220 -523q-34 -85 -86 -122.5t-139 -37.5q-95 0 -151 38t-56 107v10h150v-7q0 -21 16 -33t43 -12q56 0 79 58l30 78h-102l-211 444h165l161 -360h19z" />
    <glyph glyph-name="z" unicode="z" horiz-adv-x="626" 
d="M571 0h-515v173l353 189v18h-353v109h514v-173l-355 -189v-18h356v-109z" />
    <glyph glyph-name="braceleft" unicode="{" horiz-adv-x="451" 
d="M443 -162h-88q-93 0 -140.5 49.5t-47.5 115.5v184q0 33 -21 54t-60 21v136q39 0 60 20.5t21 54.5v182q0 66 47.5 115.5t140.5 49.5h88v-96l-75 -4q-35 -3 -55 -24.5t-20 -57.5v-203q0 -89 -101 -96v-18q45 -3 73 -26.5t28 -69.5v-205q0 -36 20 -57.5t55 -24.5l75 -4v-96z
" />
    <glyph glyph-name="bar" unicode="|" horiz-adv-x="311" 
d="M219 -110h-128v837h128v-837z" />
    <glyph glyph-name="braceright" unicode="}" horiz-adv-x="451" 
d="M8 820h88q93 0 140.5 -49.5t47.5 -115.5v-184q0 -33 21 -54t60 -21v-136q-39 0 -60 -21t-21 -55v-181q0 -66 -47.5 -115.5t-140.5 -49.5h-88v96l75 4q35 3 54.5 24.5t19.5 57.5v203q0 89 102 96v18q-45 3 -73.5 26.5t-28.5 69.5v205q0 36 -19.5 57.5t-54.5 24.5l-75 4v96
z" />
    <glyph glyph-name="asciitilde" unicode="~" horiz-adv-x="836" 
d="M125 228l-51 93q75 59 196 59q76 0 171.5 -28t139.5 -28q41 0 76.5 12.5t53.5 27.5l51 -94q-72 -56 -191 -56q-51 0 -145 28t-166 28q-82 0 -135 -42z" />
    <glyph glyph-name="uni00A0" unicode="&#xa0;" horiz-adv-x="280" 
 />
    <glyph glyph-name="exclamdown" unicode="&#xa1;" horiz-adv-x="308" 
d="M64 520h180v-151h-180v151zM77 296h154v-476h-154v476z" />
    <glyph glyph-name="cent" unicode="&#xa2;" horiz-adv-x="661" 
d="M337 100q58 0 92.5 22.5t42.5 63.5h144q-5 -80 -65 -130.5t-160 -61.5v-66h-106v65q-144 15 -205 104q-41 61 -41 145q0 86 42 147q61 89 204 104v65h106v-64q104 -11 167 -61.5t67 -130.5h-144q-18 86 -139 86q-93 0 -131 -55q-25 -36 -25 -90q0 -55 24 -90
q37 -53 127 -53z" />
    <glyph glyph-name="sterling" unicode="&#xa3;" horiz-adv-x="720" 
d="M575 214l119 -46q-34 -168 -230 -168h-415v170q153 0 153 102q0 19 -4 32h-149v95h94q-42 59 -42 119q0 90 74.5 145t205.5 55q134 0 210.5 -64t76.5 -173h-149q0 55 -35.5 86.5t-99.5 31.5q-130 0 -130 -95q0 -7 1.5 -14.5t2.5 -13t5 -13.5t6 -12.5t7.5 -13.5t7.5 -12
t8.5 -13t8.5 -13h229v-95h-182q3 -15 3 -31q0 -118 -156 -139v-18h248q55 0 86 22.5t46 75.5z" />
    <glyph glyph-name="currency" unicode="&#xa4;" horiz-adv-x="701" 
d="M609 244q0 -61 -40 -114l82 -72l-70 -72l-93 79q-62 -31 -137 -31t-137 32l-94 -80l-70 72l83 74q-39 50 -39 112q0 60 38 111l-84 74l70 74l94 -82q63 33 139 33q75 0 139 -32l91 80l71 -73l-82 -73q39 -50 39 -112zM351 131q56 0 96 33t40 80t-40 80t-96 33t-96 -33
t-40 -80t40 -80t96 -33z" />
    <glyph glyph-name="yen" unicode="&#xa5;" horiz-adv-x="789" 
d="M598 700h180l-231 -338h131v-97h-197l-9 -14v-58h206v-96h-206v-97h-155v97h-212v96h212v57l-10 15h-202v97h136l-230 338h180l189 -288l6 -50h17l6 50z" />
    <glyph glyph-name="brokenbar" unicode="&#xa6;" horiz-adv-x="300" 
d="M208 355h-117v371h117v-371zM208 -110h-117v365h117v-365z" />
    <glyph glyph-name="section" unicode="&#xa7;" horiz-adv-x="628" 
d="M308 -193q-123 0 -189.5 54.5t-66.5 154.5h139q0 -102 120 -102q52 0 80 19t28 52v1q0 25 -18 40.5t-68 32.5l-139 39q-135 42 -135 143v1q0 47 34 80.5t96 48.5v18q-130 50 -130 153v1q0 81 66.5 128t186.5 47q125 0 192 -54.5t67 -153.5h-138q0 101 -119 101
q-53 0 -83 -18.5t-30 -48.5v-1q0 -51 91 -77l128 -36q145 -41 145 -143v-1q0 -49 -35.5 -84t-99.5 -49v-18q69 -24 100.5 -61t31.5 -91v-1q0 -76 -67 -125.5t-187 -49.5zM280 194l58 -16q42 5 66 24.5t24 49.5v1q0 56 -88 81l-67 18q-74 -22 -74 -77v-1q0 -58 81 -80z" />
    <glyph glyph-name="dieresis" unicode="&#xa8;" horiz-adv-x="467" 
d="M186 564h-138v111h138v-111zM415 564h-137v111h137v-111z" />
    <glyph glyph-name="copyright" unicode="&#xa9;" horiz-adv-x="1032" 
d="M516 -79q-214 0 -343.5 119t-129.5 309v1q0 191 129.5 310t343.5 119t343.5 -119t129.5 -310v-1q0 -190 -129.5 -309t-343.5 -119zM516 2q173 0 277.5 96t104.5 251v1q0 155 -104.5 251.5t-277.5 96.5q-174 0 -278 -96t-104 -252v-1q0 -155 104.5 -251t277.5 -96z
M510 142q-102 0 -166.5 58.5t-64.5 149.5t66.5 149.5t170.5 58.5q85 0 144.5 -39t73.5 -104h-112q-24 55 -106 55q-56 0 -90 -33t-33 -87q2 -55 33.5 -87t83.5 -32q83 0 105 54h114q-14 -66 -73.5 -104.5t-145.5 -38.5z" />
    <glyph glyph-name="ordfeminine" unicode="&#xaa;" horiz-adv-x="572" 
d="M272 718q226 0 226 -165v-256h-121l25 112h-15q-34 -127 -189 -127q-81 0 -120 39q-31 31 -31 79q0 50 31 81q39 39 125 44l171 10v21q0 74 -104 74q-29 0 -50 -6.5t-31 -14.5t-16 -19.5t-7 -17.5t-1 -11v-2h-126v2q1 13 2.5 24t14.5 38t35 45.5t69.5 34t111.5 15.5z
M241 363q66 0 98.5 33t34.5 70l-134 -10q-39 -3 -53 -19q-12 -12 -12 -30q0 -16 11 -29q15 -15 55 -15z" />
    <glyph glyph-name="guillemotleft" unicode="&#xab;" horiz-adv-x="635" 
d="M310 50h-127v46q0 51 -27 80.5t-74 29.5h-12v131h12q47 0 74 29.5t27 79.5v46h127v-46q0 -81 -35.5 -121.5t-109.5 -43.5v-19q74 -5 109.5 -45.5t35.5 -120.5v-46zM557 50h-126v46q0 50 -27.5 80t-73.5 30h-13v131h13q47 0 74 29.5t27 79.5v46h126v-46q0 -82 -35 -122
t-109 -43v-19q74 -5 109 -45.5t35 -120.5v-46z" />
    <glyph glyph-name="logicalnot" unicode="&#xac;" horiz-adv-x="813" 
d="M747 100h-109v145h-572v109h681v-254z" />
    <glyph glyph-name="uni00AD" unicode="&#xad;" horiz-adv-x="489" 
d="M434 235h-379v118h379v-118z" />
    <glyph glyph-name="registered" unicode="&#xae;" horiz-adv-x="1032" 
d="M516 -79q-214 0 -343.5 119t-129.5 309v1q0 191 129.5 310t343.5 119t343.5 -119t129.5 -310v-1q0 -190 -129.5 -309t-343.5 -119zM516 2q173 0 277.5 96t104.5 251v1q0 155 -104.5 251.5t-277.5 96.5q-174 0 -278 -96t-104 -252v-1q0 -155 104.5 -251t277.5 -96z
M429 157h-95v388h247q68 0 108.5 -30.5t40.5 -82.5q0 -96 -138 -110v-14l29 -9l105 -142h-113l-104 154h-80v-154zM429 469v-90h126q74 0 74 46q0 20 -17 32t-47 12h-136z" />
    <glyph glyph-name="macron" unicode="&#xaf;" horiz-adv-x="600" 
d="M505 585h-388v81h388v-81z" />
    <glyph glyph-name="degree" unicode="&#xb0;" horiz-adv-x="565" 
d="M283 364q-101 0 -159 48t-58 129q0 80 58 128.5t159 48.5q100 0 158 -48.5t58 -128.5t-57.5 -128.5t-158.5 -48.5zM283 455q48 0 77.5 24.5t29.5 61.5q0 38 -29.5 62t-77.5 24q-49 0 -78 -24t-29 -62q0 -37 29 -61.5t78 -24.5z" />
    <glyph glyph-name="plusminus" unicode="&#xb1;" horiz-adv-x="757" 
d="M432 651v-190h259v-108h-259v-192h-113v192h-253v108h253v190h113zM690 1h-624v109h624v-109z" />
    <glyph glyph-name="uni00B2" unicode="&#xb2;" horiz-adv-x="497" 
d="M454 300h-398v153l199 100q44 23 62.5 45t18.5 49q0 26 -15 41q-21 21 -71 21q-95 0 -98 -85v-9h-116v11q1 82 57.5 129.5t155.5 47.5q113 0 167 -54q38 -40 38 -97q0 -56 -29.5 -95t-101.5 -75l-160 -73v-15h291v-94z" />
    <glyph glyph-name="uni00B3" unicode="&#xb3;" horiz-adv-x="504" 
d="M249 287q-99 0 -155.5 43.5t-57.5 119.5v4h116v-4q1 -72 97 -72q54 0 76 22q16 16 16 38q0 23 -15 38q-21 22 -83 22h-33v95h33q63 0 84 22q14 14 14 37q0 22 -16 38q-22 22 -76 22q-95 0 -97 -76h-116q1 79 57 123t156 44q119 0 174 -53q34 -34 34 -87q0 -45 -28 -73
q-32 -32 -96 -37v-14q63 -6 95 -38q29 -29 29 -74q0 -53 -34 -87q-55 -53 -174 -53z" />
    <glyph glyph-name="acute" unicode="&#xb4;" horiz-adv-x="600" 
d="M315 549h-125l72 147h164z" />
    <glyph glyph-name="uni00B5" unicode="&#xb5;" horiz-adv-x="721" 
d="M490 246v243h149v-489h-149l32 139h-18q-54 -157 -208 -157q-68 0 -113 22l32 -184h-133v669h149v-271q0 -118 118 -118q66 0 103.5 39t37.5 107z" />
    <glyph glyph-name="paragraph" unicode="&#xb6;" horiz-adv-x="673" 
d="M345 -180h-118v488q-83 0 -137.5 55t-54.5 137q0 95 68 147.5t185 52.5h293v-880h-118v774h-118v-774z" />
    <glyph glyph-name="periodcentered" unicode="&#xb7;" horiz-adv-x="274" 
d="M227 235h-180v151h180v-151z" />
    <glyph glyph-name="cedilla" unicode="&#xb8;" horiz-adv-x="600" 
d="M311 -194q-62 0 -106.5 25.5t-48.5 81.5h89q8 -41 62 -41q49 0 49 28q0 10 -10.5 17.5t-28.5 7.5l-24 30l17 45h85l-12 -32q65 -17 65 -71q0 -40 -36.5 -65.5t-100.5 -25.5z" />
    <glyph glyph-name="uni00B9" unicode="&#xb9;" horiz-adv-x="429" 
d="M355 300h-115v388h-14q-8 -63 -41 -90.5t-96 -27.5h-55v116h52q57 0 88.5 27t31.5 77h149v-490z" />
    <glyph glyph-name="ordmasculine" unicode="&#xba;" horiz-adv-x="606" 
d="M303 283q-162 0 -229 97q-35 52 -35 119t35 119q67 97 229 97t229 -97q34 -51 34 -119t-34 -119q-67 -97 -229 -97zM303 376q83 0 117 50q21 32 21 73q0 42 -21 73q-34 50 -117 50t-118 -50q-20 -29 -20 -73q0 -42 20 -73q35 -50 118 -50z" />
    <glyph glyph-name="guillemotright" unicode="&#xbb;" horiz-adv-x="635" 
d="M77 492h127v-46q0 -50 27 -79.5t74 -29.5h12v-131h-12q-47 0 -74 -29.5t-27 -80.5v-46h-127v46q0 81 35.5 121.5t109.5 44.5v18q-74 6 -109.5 46t-35.5 120v46zM325 492h127v-46q0 -50 27 -79.5t74 -29.5h12v-131h-12q-47 0 -74 -29.5t-27 -80.5v-46h-127v46
q0 159 144 166v18q-73 6 -108.5 46t-35.5 120v46z" />
    <glyph glyph-name="onequarter" unicode="&#xbc;" horiz-adv-x="947" 
d="M185 -12h-116l647 724h115zM298 300h-98v293h-18q-11 -55 -41.5 -80t-84.5 -25h-39v102h40q59 0 86 26t27 84h128v-400zM849 0h-100v132h-222v118l186 150h136v-193h80v-75h-80v-132zM606 225v-18h143v122h-20z" />
    <glyph glyph-name="onehalf" unicode="&#xbd;" horiz-adv-x="963" 
d="M185 -12h-116l647 724h115zM298 300h-98v293h-18q-11 -55 -41.5 -80t-84.5 -25h-39v102h40q59 0 86 26t27 84h128v-400zM927 0h-342v130l175 81q38 18 54 34t16 38v1q0 24 -19.5 38t-53.5 14q-39 0 -61.5 -19t-22.5 -51h-99q0 67 48.5 107t134.5 40q81 0 126.5 -35
t45.5 -91v-1q0 -46 -26 -78t-89 -59l-120 -53v-17h233v-79z" />
    <glyph glyph-name="threequarters" unicode="&#xbe;" horiz-adv-x="1025" 
d="M216 287q-83 0 -131 36.5t-48 101.5h96q0 -30 22 -46.5t60 -16.5t57.5 14t19.5 36v1q0 23 -18.5 36t-51.5 13h-38v77h38q33 0 51.5 12.5t18.5 34.5v1q0 23 -19.5 37t-57.5 14t-60 -16.5t-22 -46.5h-96q0 65 48 101.5t131 36.5q82 0 128 -32t46 -84v-1q0 -34 -23 -57.5
t-67 -29.5v-18q44 -7 67 -30t23 -56v-1q0 -52 -46 -84.5t-128 -32.5zM263 -12h-116l647 724h115zM927 0h-100v132h-222v118l186 150h136v-193h80v-75h-80v-132zM684 225v-18h143v122h-20z" />
    <glyph glyph-name="questiondown" unicode="&#xbf;" horiz-adv-x="601" 
d="M222 523h180v-151h-180v151zM238 299h149v-51q0 -58 -18 -89.5t-67 -55.5l-55 -23q-62 -29 -62 -77v-1q0 -36 31 -57.5t85 -21.5q61 0 96 28.5t35 77.5v18h152v-16q0 -106 -74.5 -166t-208.5 -60q-129 0 -200.5 51t-71.5 139v1q0 48 24 86.5t68 59.5l61 26q34 19 45 38
t11 61v32z" />
    <glyph glyph-name="Agrave" unicode="&#xc0;" horiz-adv-x="860" 
d="M422 865l74 -110h-134l-113 110h173zM843 0h-171l-87 217h-311l-87 -217h-170l295 700h236zM411 557l-86 -215h209l-86 215l-9 66h-18z" />
    <glyph glyph-name="Aacute" unicode="&#xc1;" horiz-adv-x="860" 
d="M439 865h164l-106 -110h-135zM843 0h-171l-87 217h-311l-87 -217h-170l295 700h236zM411 557l-86 -215h209l-86 215l-9 66h-18z" />
    <glyph glyph-name="Acircumflex" unicode="&#xc2;" horiz-adv-x="860" 
d="M492 758l-63 53l-65 -53h-145l140 110h143l139 -110h-149zM843 0h-171l-87 217h-311l-87 -217h-170l295 700h236zM411 557l-86 -215h209l-86 215l-9 66h-18z" />
    <glyph glyph-name="Atilde" unicode="&#xc3;" horiz-adv-x="860" 
d="M354 792q-19 0 -34.5 -10.5t-17.5 -26.5h-82q0 65 38 93.5t89 28.5q33 0 80 -19.5t79 -19.5q20 0 35.5 9.5t17.5 26.5h81q0 -64 -38 -92.5t-89 -28.5q-33 0 -80 19.5t-79 19.5zM843 0h-171l-87 217h-311l-87 -217h-170l295 700h236zM411 557l-86 -215h209l-86 215l-9 66
h-18z" />
    <glyph glyph-name="Adieresis" unicode="&#xc4;" horiz-adv-x="860" 
d="M240 872h143v-117h-143v117zM477 872h143v-117h-143v117zM843 0h-171l-87 217h-311l-87 -217h-170l295 700h236zM411 557l-86 -215h209l-86 215l-9 66h-18z" />
    <glyph glyph-name="Aring" unicode="&#xc5;" horiz-adv-x="860" 
d="M431 751q-66 0 -104 30.5t-38 80.5t38 80.5t104 30.5q65 0 103.5 -30.5t38.5 -79.5q0 -50 -38.5 -81t-103.5 -31zM431 910q-27 0 -43 -13.5t-16 -33.5q0 -21 16 -34.5t43 -13.5t43 13.5t16 33.5q0 21 -16 34.5t-43 13.5zM843 0h-171l-87 217h-311l-87 -217h-170l295 700
h236zM411 557l-86 -215h209l-86 215l-9 66h-18z" />
    <glyph glyph-name="AE" unicode="&#xc6;" horiz-adv-x="1040" 
d="M977 700v-125h-327v-163h316v-123h-316v-164h327v-125h-477v224h-200l-114 -224h-169l372 700h588zM467 551l-105 -205h138v273h-18z" />
    <glyph glyph-name="Ccedilla" unicode="&#xc7;" horiz-adv-x="919" 
d="M477 106q92 0 150.5 39t75.5 108h162q-14 -116 -107.5 -190t-245.5 -83l-5 -12q66 -18 66 -71q0 -40 -37 -65.5t-100 -25.5q-62 0 -106.5 25.5t-48.5 81.5h89q8 -41 61 -41q49 0 49 28q0 10 -10.5 17.5t-28.5 7.5l-24 30l10 26q-134 9 -229.5 70.5t-132.5 164.5
q-22 59 -22 134t22 134q40 112 149.5 174.5t264.5 62.5q170 0 278.5 -75t118.5 -199h-162q-14 68 -76 107.5t-158 39.5q-95 0 -163.5 -40t-94.5 -112q-15 -42 -15 -92t15 -92q26 -72 94 -112t161 -40z" />
    <glyph glyph-name="Egrave" unicode="&#xc8;" horiz-adv-x="698" 
d="M431 755h-134l-113 110h173zM635 0h-544v700h544v-125h-386v-163h376v-122h-376v-165h386v-125z" />
    <glyph glyph-name="Eacute" unicode="&#xc9;" horiz-adv-x="698" 
d="M432 755h-135l77 110h164zM635 0h-544v700h544v-125h-386v-163h376v-122h-376v-165h386v-125z" />
    <glyph glyph-name="Ecircumflex" unicode="&#xca;" horiz-adv-x="698" 
d="M299 758h-145l140 110h143l139 -110h-149l-63 53zM635 0h-544v700h544v-125h-386v-163h376v-122h-376v-165h386v-125z" />
    <glyph glyph-name="Edieresis" unicode="&#xcb;" horiz-adv-x="698" 
d="M318 755h-143v117h143v-117zM555 755h-143v117h143v-117zM635 0h-544v700h544v-125h-386v-163h376v-122h-376v-165h386v-125z" />
    <glyph glyph-name="Igrave" unicode="&#xcc;" horiz-adv-x="340" 
d="M236 755h-134l-113 110h173zM249 0h-158v700h158v-700z" />
    <glyph glyph-name="Iacute" unicode="&#xcd;" horiz-adv-x="340" 
d="M237 755h-135l77 110h164zM249 0h-158v700h158v-700z" />
    <glyph glyph-name="Icircumflex" unicode="&#xce;" horiz-adv-x="340" 
d="M103 758h-145l140 110h143l139 -110h-149l-63 53zM249 0h-158v700h158v-700z" />
    <glyph glyph-name="Idieresis" unicode="&#xcf;" horiz-adv-x="340" 
d="M123 755h-143v117h143v-117zM360 755h-143v117h143v-117zM249 0h-158v700h158v-700z" />
    <glyph glyph-name="Eth" unicode="&#xd0;" horiz-adv-x="879" 
d="M815 484q21 -65 21 -134q0 -75 -22 -135q-36 -102 -129 -158.5t-228 -56.5h-366v296h-86v107h86v297h366q134 0 227.5 -57t130.5 -159zM657 259q15 40 15 91q0 50 -15 92q-23 61 -75 96t-125 35h-208v-170h226v-107h-226v-169h208q73 0 125.5 35.5t74.5 96.5z" />
    <glyph glyph-name="Ntilde" unicode="&#xd1;" horiz-adv-x="892" 
d="M558 753q-33 0 -80 19.5t-79 19.5q-19 0 -34.5 -10.5t-17.5 -26.5h-82q0 65 38 93.5t89 28.5q33 0 80 -19.5t79 -19.5q20 0 35.5 9.5t17.5 26.5h81q0 -64 -38 -92.5t-89 -28.5zM240 0h-149v700h223l297 -459l23 -150h18v609h149v-700h-223l-298 460l-22 149h-18v-609z
" />
    <glyph glyph-name="Ograve" unicode="&#xd2;" horiz-adv-x="971" 
d="M553 755h-134l-113 110h173zM486 -21q-159 0 -269.5 62.5t-151.5 174.5q-22 60 -22 134t22 134q40 111 150.5 174t270.5 63q159 0 269.5 -63t150.5 -174q22 -64 22 -134q0 -74 -22 -134q-40 -111 -150 -174t-270 -63zM486 106q99 0 168 40.5t95 112.5q15 42 15 91t-15 91
q-26 71 -94.5 112t-168.5 41t-169 -41t-95 -112q-15 -42 -15 -91t15 -91q26 -71 95 -112t169 -41z" />
    <glyph glyph-name="Oacute" unicode="&#xd3;" horiz-adv-x="971" 
d="M554 755h-135l77 110h164zM486 -21q-159 0 -269.5 62.5t-151.5 174.5q-22 60 -22 134t22 134q40 111 150.5 174t270.5 63q159 0 269.5 -63t150.5 -174q22 -64 22 -134q0 -74 -22 -134q-40 -111 -150 -174t-270 -63zM486 106q99 0 168 40.5t95 112.5q15 42 15 91t-15 91
q-26 71 -94.5 112t-168.5 41t-169 -41t-95 -112q-15 -42 -15 -91t15 -91q26 -71 95 -112t169 -41z" />
    <glyph glyph-name="Ocircumflex" unicode="&#xd4;" horiz-adv-x="971" 
d="M421 758h-145l140 110h143l139 -110h-149l-63 53zM486 -21q-159 0 -269.5 62.5t-151.5 174.5q-22 60 -22 134t22 134q40 111 150.5 174t270.5 63q159 0 269.5 -63t150.5 -174q22 -64 22 -134q0 -74 -22 -134q-40 -111 -150 -174t-270 -63zM486 106q99 0 168 40.5
t95 112.5q15 42 15 91t-15 91q-26 71 -94.5 112t-168.5 41t-169 -41t-95 -112q-15 -42 -15 -91t15 -91q26 -71 95 -112t169 -41z" />
    <glyph glyph-name="Otilde" unicode="&#xd5;" horiz-adv-x="971" 
d="M570 753q-33 0 -80 19.5t-79 19.5q-19 0 -34.5 -10.5t-17.5 -26.5h-82q0 65 38 93.5t89 28.5q33 0 80 -19.5t79 -19.5q20 0 35.5 9.5t17.5 26.5h81q0 -64 -38 -92.5t-89 -28.5zM486 -21q-159 0 -269.5 62.5t-151.5 174.5q-22 60 -22 134t22 134q40 111 150.5 174
t270.5 63q159 0 269.5 -63t150.5 -174q22 -64 22 -134q0 -74 -22 -134q-40 -111 -150 -174t-270 -63zM486 106q99 0 168 40.5t95 112.5q15 42 15 91t-15 91q-26 71 -94.5 112t-168.5 41t-169 -41t-95 -112q-15 -42 -15 -91t15 -91q26 -71 95 -112t169 -41z" />
    <glyph glyph-name="Odieresis" unicode="&#xd6;" horiz-adv-x="971" 
d="M440 755h-143v117h143v-117zM677 755h-143v117h143v-117zM486 -21q-159 0 -269.5 62.5t-151.5 174.5q-22 60 -22 134t22 134q40 111 150.5 174t270.5 63q159 0 269.5 -63t150.5 -174q22 -64 22 -134q0 -74 -22 -134q-40 -111 -150 -174t-270 -63zM486 106q99 0 168 40.5
t95 112.5q15 42 15 91t-15 91q-26 71 -94.5 112t-168.5 41t-169 -41t-95 -112q-15 -42 -15 -91t15 -91q26 -71 95 -112t169 -41z" />
    <glyph glyph-name="multiply" unicode="&#xd7;" horiz-adv-x="730" 
d="M593 542l71 -82l-214 -170l210 -167l-70 -82l-227 180l-227 -180l-70 82l210 167l-209 166l70 82l226 -179z" />
    <glyph glyph-name="Oslash" unicode="&#xd8;" horiz-adv-x="971" 
d="M935 720l-114 -110q58 -52 85 -126q22 -64 22 -134q0 -74 -22 -134q-40 -111 -150 -174t-270 -63q-152 0 -260 57l-58 -56h-137l116 112q-56 52 -82 124q-22 60 -22 134t22 134q40 111 150.5 174t270.5 63q149 0 256 -56l57 55h136zM222 259q12 -34 35 -61l379 365
q-64 31 -150 31q-100 0 -169 -41t-95 -112q-15 -42 -15 -91t15 -91zM749 259q15 42 15 91t-15 91q-14 36 -37 64l-380 -366q68 -33 154 -33q99 0 168 40.5t95 112.5z" />
    <glyph glyph-name="Ugrave" unicode="&#xd9;" horiz-adv-x="855" 
d="M493 755h-134l-113 110h173zM428 -21q-162 0 -254.5 80t-92.5 220v421h161v-416q0 -82 50 -129t136 -47t135.5 47t49.5 129v416h160v-421q0 -140 -92.5 -220t-252.5 -80z" />
    <glyph glyph-name="Uacute" unicode="&#xda;" horiz-adv-x="855" 
d="M494 755h-135l77 110h164zM428 -21q-162 0 -254.5 80t-92.5 220v421h161v-416q0 -82 50 -129t136 -47t135.5 47t49.5 129v416h160v-421q0 -140 -92.5 -220t-252.5 -80z" />
    <glyph glyph-name="Ucircumflex" unicode="&#xdb;" horiz-adv-x="855" 
d="M361 758h-145l140 110h143l139 -110h-149l-63 53zM428 -21q-162 0 -254.5 80t-92.5 220v421h161v-416q0 -82 50 -129t136 -47t135.5 47t49.5 129v416h160v-421q0 -140 -92.5 -220t-252.5 -80z" />
    <glyph glyph-name="Udieresis" unicode="&#xdc;" horiz-adv-x="855" 
d="M380 755h-143v117h143v-117zM617 755h-143v117h143v-117zM428 -21q-162 0 -254.5 80t-92.5 220v421h161v-416q0 -82 50 -129t136 -47t135.5 47t49.5 129v416h160v-421q0 -140 -92.5 -220t-252.5 -80z" />
    <glyph glyph-name="Yacute" unicode="&#xdd;" horiz-adv-x="789" 
d="M403 865h164l-106 -110h-135zM598 700h180l-306 -449v-251h-155v250l-306 450h180l189 -288l6 -51h17l6 51z" />
    <glyph glyph-name="Thorn" unicode="&#xde;" horiz-adv-x="756" 
d="M699 470q30 -52 30 -120t-30 -120q-33 -56 -95 -88.5t-143 -32.5h-212v-109h-158v700h158v-109h212q81 0 143 -32.5t95 -88.5zM549 288q15 27 15 62t-15 62q-31 55 -110 55h-190v-234h190q79 0 110 55z" />
    <glyph glyph-name="germandbls" unicode="&#xdf;" horiz-adv-x="693" 
d="M362 -17h-37v110h39q61 0 95.5 27t34.5 72v1q0 44 -34.5 70t-96.5 26h-27v126h26q62 0 97 26t35 69v1q0 43 -34 68.5t-94 25.5q-63 0 -99 -31.5t-36 -84.5v-489h-149v496q0 103 75 162.5t209 59.5q130 0 205.5 -52.5t75.5 -140.5v-1q0 -62 -50 -107t-135 -56v-19
q85 -8 135 -52t50 -108v-1q0 -91 -75.5 -144.5t-209.5 -53.5z" />
    <glyph glyph-name="agrave" unicode="&#xe0;" horiz-adv-x="670" 
d="M327 696l71 -147h-125l-111 147h165zM327 507q273 0 273 -199v-308h-147l31 135h-18q-42 -153 -228 -153q-98 0 -145 47q-37 37 -37 95q0 60 37 97q48 48 150 54l207 11v26q0 89 -126 89q-34 0 -59.5 -8t-37.5 -18t-19.5 -23.5t-8.5 -21t-1 -13.5v-2h-152v2q1 12 3 22.5
t9.5 36t26 45.5t47.5 41t79.5 33t115.5 12zM290 79q79 0 118.5 40.5t41.5 84.5l-162 -12q-45 -5 -64 -24q-14 -13 -14 -36q0 -21 13 -34q19 -19 67 -19z" />
    <glyph glyph-name="aacute" unicode="&#xe1;" horiz-adv-x="670" 
d="M345 696h165l-111 -147h-125zM327 507q273 0 273 -199v-308h-147l31 135h-18q-42 -153 -228 -153q-98 0 -145 47q-37 37 -37 95q0 60 37 97q48 48 150 54l207 11v26q0 89 -126 89q-34 0 -59.5 -8t-37.5 -18t-19.5 -23.5t-8.5 -21t-1 -13.5v-2h-152v2q1 12 3 22.5t9.5 36
t26 45.5t47.5 41t79.5 33t115.5 12zM290 79q79 0 118.5 40.5t41.5 84.5l-162 -12q-45 -5 -64 -24q-14 -13 -14 -36q0 -21 13 -34q19 -19 67 -19z" />
    <glyph glyph-name="acircumflex" unicode="&#xe2;" horiz-adv-x="670" 
d="M412 549l-77 83l-78 -83h-147l155 146h139l154 -146h-146zM327 507q273 0 273 -199v-308h-147l31 135h-18q-42 -153 -228 -153q-98 0 -145 47q-37 37 -37 95q0 60 37 97q48 48 150 54l207 11v26q0 89 -126 89q-34 0 -59.5 -8t-37.5 -18t-19.5 -23.5t-8.5 -21t-1 -13.5v-2
h-152v2q1 12 3 22.5t9.5 36t26 45.5t47.5 41t79.5 33t115.5 12zM290 79q79 0 118.5 40.5t41.5 84.5l-162 -12q-45 -5 -64 -24q-14 -13 -14 -36q0 -21 13 -34q19 -19 67 -19z" />
    <glyph glyph-name="atilde" unicode="&#xe3;" horiz-adv-x="670" 
d="M259 605q-19 0 -35 -10.5t-17 -25.5h-82q0 65 37.5 93t89.5 28q33 0 80 -19.5t79 -19.5q20 0 35 10t17 27h82q0 -64 -38 -93t-89 -29q-33 0 -80 19.5t-79 19.5zM327 507q273 0 273 -199v-308h-147l31 135h-18q-42 -153 -228 -153q-98 0 -145 47q-37 37 -37 95q0 60 37 97
q48 48 150 54l207 11v26q0 89 -126 89q-34 0 -59.5 -8t-37.5 -18t-19.5 -23.5t-8.5 -21t-1 -13.5v-2h-152v2q1 12 3 22.5t9.5 36t26 45.5t47.5 41t79.5 33t115.5 12zM290 79q79 0 118.5 40.5t41.5 84.5l-162 -12q-45 -5 -64 -24q-14 -13 -14 -36q0 -21 13 -34q19 -19 67 -19
z" />
    <glyph glyph-name="adieresis" unicode="&#xe4;" horiz-adv-x="670" 
d="M151 675h137v-111h-137v111zM381 675h137v-111h-137v111zM327 507q273 0 273 -199v-308h-147l31 135h-18q-42 -153 -228 -153q-98 0 -145 47q-37 37 -37 95q0 60 37 97q48 48 150 54l207 11v26q0 89 -126 89q-34 0 -59.5 -8t-37.5 -18t-19.5 -23.5t-8.5 -21t-1 -13.5v-2
h-152v2q1 12 3 22.5t9.5 36t26 45.5t47.5 41t79.5 33t115.5 12zM290 79q79 0 118.5 40.5t41.5 84.5l-162 -12q-45 -5 -64 -24q-14 -13 -14 -36q0 -21 13 -34q19 -19 67 -19z" />
    <glyph glyph-name="aring" unicode="&#xe5;" horiz-adv-x="670" 
d="M335 550q-60 0 -98 30.5t-38 81.5q0 50 38 81t98 31t98 -31t38 -81q0 -51 -38 -81.5t-98 -30.5zM335 709q-27 0 -42 -13t-15 -34q0 -22 15 -34.5t42 -12.5t42.5 12.5t15.5 34.5q0 21 -15.5 34t-42.5 13zM327 507q273 0 273 -199v-308h-147l31 135h-18q-42 -153 -228 -153
q-98 0 -145 47q-37 37 -37 95q0 60 37 97q48 48 150 54l207 11v26q0 89 -126 89q-34 0 -59.5 -8t-37.5 -18t-19.5 -23.5t-8.5 -21t-1 -13.5v-2h-152v2q1 12 3 22.5t9.5 36t26 45.5t47.5 41t79.5 33t115.5 12zM290 79q79 0 118.5 40.5t41.5 84.5l-162 -12q-45 -5 -64 -24
q-14 -13 -14 -36q0 -21 13 -34q19 -19 67 -19z" />
    <glyph glyph-name="ae" unicode="&#xe6;" horiz-adv-x="1060" 
d="M1021 249v-39h-423q5 -43 24 -71q38 -55 127 -55q98 1 129 66h143q-17 -76 -89.5 -122t-180.5 -46q-178 0 -252 109q-67 -109 -259 -109q-100 0 -147 47q-37 37 -37 95q0 60 37 97q47 47 150 54l207 11v7v19q0 89 -126 89q-60 0 -92.5 -22.5t-33.5 -61.5v-2h-152v2
q3 89 75.5 139.5t201.5 50.5q150 0 211 -72q78 72 209 72q133 0 205.5 -67.5t72.5 -190.5zM601 298h278q-6 108 -136 108q-86 -2 -121 -52q-15 -22 -21 -56zM286 79q67 0 115 36t49 89l-166 -12q-44 -4 -64 -24q-14 -13 -14 -36q0 -21 13 -34q19 -19 67 -19z" />
    <glyph glyph-name="ccedilla" unicode="&#xe7;" horiz-adv-x="684" 
d="M349 94q60 0 96.5 23.5t44.5 66.5h149q-6 -87 -73.5 -140t-179.5 -61l-6 -15q66 -18 66 -71q0 -40 -37 -65.5t-100 -25.5q-62 0 -106.5 25.5t-48.5 81.5h89q8 -41 61 -41q49 0 49 28q0 10 -10.5 17.5t-28.5 7.5l-24 30l12 29q-155 12 -220 108q-43 61 -43 151t44 153
q77 111 271 111q130 0 209.5 -54.5t84.5 -147.5h-149q-19 89 -145 89q-97 0 -136 -57q-26 -37 -26 -94q0 -58 25 -93q38 -56 132 -56z" />
    <glyph glyph-name="egrave" unicode="&#xe8;" horiz-adv-x="674" 
d="M337 696l71 -147h-125l-111 147h165zM485 150h150q-18 -76 -95 -122t-191 -46q-193 0 -267 109q-43 61 -43 152q0 88 46 154q76 110 256 110q140 0 216.5 -67.5t76.5 -190.5v-39h-447q5 -43 24 -71q38 -56 136 -54q105 0 138 65zM341 406q-93 -2 -131 -56
q-15 -22 -20 -52h296q-8 108 -145 108z" />
    <glyph glyph-name="eacute" unicode="&#xe9;" horiz-adv-x="674" 
d="M355 696h165l-111 -147h-125zM485 150h150q-18 -76 -95 -122t-191 -46q-193 0 -267 109q-43 61 -43 152q0 88 46 154q76 110 256 110q140 0 216.5 -67.5t76.5 -190.5v-39h-447q5 -43 24 -71q38 -56 136 -54q105 0 138 65zM341 406q-93 -2 -131 -56q-15 -22 -20 -52h296
q-8 108 -145 108z" />
    <glyph glyph-name="ecircumflex" unicode="&#xea;" horiz-adv-x="674" 
d="M423 549l-77 83l-78 -83h-147l155 146h139l154 -146h-146zM485 150h150q-18 -76 -95 -122t-191 -46q-193 0 -267 109q-43 61 -43 152q0 88 46 154q76 110 256 110q140 0 216.5 -67.5t76.5 -190.5v-39h-447q5 -43 24 -71q38 -56 136 -54q105 0 138 65zM341 406
q-93 -2 -131 -56q-15 -22 -20 -52h296q-8 108 -145 108z" />
    <glyph glyph-name="edieresis" unicode="&#xeb;" horiz-adv-x="674" 
d="M162 675h137v-111h-137v111zM392 675h137v-111h-137v111zM485 150h150q-18 -76 -95 -122t-191 -46q-193 0 -267 109q-43 61 -43 152q0 88 46 154q76 110 256 110q140 0 216.5 -67.5t76.5 -190.5v-39h-447q5 -43 24 -71q38 -56 136 -54q105 0 138 65zM341 406
q-93 -2 -131 -56q-15 -22 -20 -52h296q-8 108 -145 108z" />
    <glyph glyph-name="igrave" unicode="&#xec;" horiz-adv-x="313" 
d="M220 549h-125l-111 147h165zM231 0h-149v489h149v-489z" />
    <glyph glyph-name="iacute" unicode="&#xed;" horiz-adv-x="313" 
d="M220 549h-125l71 147h165zM231 0h-149v489h149v-489z" />
    <glyph glyph-name="icircumflex" unicode="&#xee;" horiz-adv-x="313" 
d="M79 549h-147l155 146h139l154 -146h-146l-77 83zM231 0h-149v489h149v-489z" />
    <glyph glyph-name="idieresis" unicode="&#xef;" horiz-adv-x="313" 
d="M110 564h-137v111h137v-111zM340 564h-137v111h137v-111zM231 0h-149v489h149v-489z" />
    <glyph glyph-name="eth" unicode="&#xf0;" horiz-adv-x="705" 
d="M606 637l-78 -26q134 -105 134 -315q0 -126 -54 -204q-76 -110 -260 -110q-190 0 -267 112q-42 61 -42 142q0 82 42 143q70 99 229 99q143 0 204 -102h18q-18 131 -125 188l-235 -73v65l142 41q-83 20 -212 20v101q226 0 359 -65l145 49v-65zM489 148q24 36 24 87t-24 86
q-40 57 -138 57q-99 0 -137 -57q-25 -34 -25 -86t25 -87q38 -57 137 -57q98 0 138 57z" />
    <glyph glyph-name="ntilde" unicode="&#xf1;" horiz-adv-x="720" 
d="M463 566q-33 0 -80 19.5t-79 19.5q-19 0 -35 -10.5t-17 -25.5h-82q0 65 37.5 93t89.5 28q33 0 80 -19.5t79 -19.5q20 0 35 10t17 27h82q0 -64 -38 -93t-89 -29zM231 0h-149v489h149l-32 -139h18q51 157 213 157q108 0 163.5 -55t55.5 -161v-291h-149v271q0 118 -123 118
q-68 0 -107 -39.5t-39 -107.5v-242z" />
    <glyph glyph-name="ograve" unicode="&#xf2;" horiz-adv-x="719" 
d="M422 549h-125l-111 147h165zM360 -18q-199 0 -278 118q-43 61 -43 144q0 84 43 145q38 56 110 87t168 31t167.5 -31t110.5 -87q42 -62 42 -145q0 -82 -42 -144q-38 -57 -110 -87.5t-168 -30.5zM360 94q101 0 142 62q25 36 25 88t-25 89q-42 61 -142 61q-101 0 -143 -61
q-25 -37 -25 -89t25 -88q41 -62 143 -62z" />
    <glyph glyph-name="oacute" unicode="&#xf3;" horiz-adv-x="719" 
d="M423 549h-125l71 147h165zM360 -18q-199 0 -278 118q-43 61 -43 144q0 84 43 145q38 56 110 87t168 31t167.5 -31t110.5 -87q42 -62 42 -145q0 -82 -42 -144q-38 -57 -110 -87.5t-168 -30.5zM360 94q101 0 142 62q25 36 25 88t-25 89q-42 61 -142 61q-101 0 -143 -61
q-25 -37 -25 -89t25 -88q41 -62 143 -62z" />
    <glyph glyph-name="ocircumflex" unicode="&#xf4;" horiz-adv-x="719" 
d="M282 549h-147l155 146h139l154 -146h-146l-77 83zM360 -18q-199 0 -278 118q-43 61 -43 144q0 84 43 145q38 56 110 87t168 31t167.5 -31t110.5 -87q42 -62 42 -145q0 -82 -42 -144q-38 -57 -110 -87.5t-168 -30.5zM360 94q101 0 142 62q25 36 25 88t-25 89
q-42 61 -142 61q-101 0 -143 -61q-25 -37 -25 -89t25 -88q41 -62 143 -62z" />
    <glyph glyph-name="otilde" unicode="&#xf5;" horiz-adv-x="719" 
d="M443 566q-33 0 -80 19.5t-79 19.5q-19 0 -35 -10.5t-17 -25.5h-82q0 65 37.5 93t89.5 28q33 0 80 -19.5t79 -19.5q20 0 35 10t17 27h82q0 -64 -38 -93t-89 -29zM360 -18q-199 0 -278 118q-43 61 -43 144q0 84 43 145q38 56 110 87t168 31t167.5 -31t110.5 -87
q42 -62 42 -145q0 -82 -42 -144q-38 -57 -110 -87.5t-168 -30.5zM360 94q101 0 142 62q25 36 25 88t-25 89q-42 61 -142 61q-101 0 -143 -61q-25 -37 -25 -89t25 -88q41 -62 143 -62z" />
    <glyph glyph-name="odieresis" unicode="&#xf6;" horiz-adv-x="719" 
d="M313 564h-137v111h137v-111zM543 564h-137v111h137v-111zM360 -18q-199 0 -278 118q-43 61 -43 144q0 84 43 145q38 56 110 87t168 31t167.5 -31t110.5 -87q42 -62 42 -145q0 -82 -42 -144q-38 -57 -110 -87.5t-168 -30.5zM360 94q101 0 142 62q25 36 25 88t-25 89
q-42 61 -142 61q-101 0 -143 -61q-25 -37 -25 -89t25 -88q41 -62 143 -62z" />
    <glyph glyph-name="divide" unicode="&#xf7;" horiz-adv-x="821" 
d="M492 430h-163v139h163v-139zM755 245h-689v109h689v-109zM492 25h-163v139h163v-139z" />
    <glyph glyph-name="oslash" unicode="&#xf8;" horiz-adv-x="719" 
d="M697 507l-89 -83q16 -14 30 -35q42 -62 42 -145q0 -82 -42 -144q-38 -57 -110 -87.5t-168 -30.5q-111 0 -189 40l-43 -40h-105l89 82q-16 16 -30 36q-43 61 -43 144q0 84 43 145q38 56 110 87t168 31q110 0 187 -40l44 40h106zM192 244q0 -50 23 -85l235 217
q-38 18 -90 18q-101 0 -143 -61q-25 -37 -25 -89zM502 156q25 36 25 88q0 50 -23 85l-235 -217q37 -18 91 -18q101 0 142 62z" />
    <glyph glyph-name="ugrave" unicode="&#xf9;" horiz-adv-x="710" 
d="M412 549h-125l-111 147h165zM285 -18q-214 0 -214 216v291h149v-271q0 -118 118 -118q66 0 103 39t37 107v243h150v-489h-150l33 139h-18q-54 -157 -208 -157z" />
    <glyph glyph-name="uacute" unicode="&#xfa;" horiz-adv-x="710" 
d="M413 549h-125l71 147h165zM285 -18q-214 0 -214 216v291h149v-271q0 -118 118 -118q66 0 103 39t37 107v243h150v-489h-150l33 139h-18q-54 -157 -208 -157z" />
    <glyph glyph-name="ucircumflex" unicode="&#xfb;" horiz-adv-x="710" 
d="M272 549h-147l155 146h139l154 -146h-146l-77 83zM285 -18q-214 0 -214 216v291h149v-271q0 -118 118 -118q66 0 103 39t37 107v243h150v-489h-150l33 139h-18q-54 -157 -208 -157z" />
    <glyph glyph-name="udieresis" unicode="&#xfc;" horiz-adv-x="710" 
d="M303 564h-137v111h137v-111zM533 564h-137v111h137v-111zM285 -18q-214 0 -214 216v291h149v-271q0 -118 118 -118q66 0 103 39t37 107v243h150v-489h-150l33 139h-18q-54 -157 -208 -157z" />
    <glyph glyph-name="yacute" unicode="&#xfd;" horiz-adv-x="677" 
d="M348 696h165l-111 -147h-125zM361 129l137 360h165l-220 -523q-34 -85 -86 -122.5t-139 -37.5q-95 0 -151 38t-56 107v10h150v-7q0 -21 16 -33t43 -12q56 0 79 58l30 78h-102l-211 444h165l161 -360h19z" />
    <glyph glyph-name="thorn" unicode="&#xfe;" horiz-adv-x="757" 
d="M668 406q44 -64 44 -162q0 -97 -44 -161q-69 -101 -224 -101q-171 0 -227 151h-18l32 -133v-180h-149v880h149v-211l-32 -133h18q56 151 227 151q155 0 224 -101zM534 152q26 37 26 92q0 56 -26 93q-40 57 -140 57q-99 0 -139 -57q-26 -37 -26 -93q0 -55 26 -92
q41 -58 139 -58q99 0 140 58z" />
    <glyph glyph-name="ydieresis" unicode="&#xff;" horiz-adv-x="677" 
d="M155 675h137v-111h-137v111zM385 675h137v-111h-137v111zM361 129l137 360h165l-220 -523q-34 -85 -86 -122.5t-139 -37.5q-95 0 -151 38t-56 107v10h150v-7q0 -21 16 -33t43 -12q56 0 79 58l30 78h-102l-211 444h165l161 -360h19z" />
    <glyph glyph-name="Amacron" unicode="&#x100;" horiz-adv-x="860" 
d="M256 853h349v-84h-349v84zM843 0h-171l-87 217h-311l-87 -217h-170l295 700h236zM411 557l-86 -215h209l-86 215l-9 66h-18z" />
    <glyph glyph-name="amacron" unicode="&#x101;" horiz-adv-x="670" 
d="M141 666h388v-81h-388v81zM327 507q273 0 273 -199v-308h-147l31 135h-18q-42 -153 -228 -153q-98 0 -145 47q-37 37 -37 95q0 60 37 97q48 48 150 54l207 11v26q0 89 -126 89q-34 0 -59.5 -8t-37.5 -18t-19.5 -23.5t-8.5 -21t-1 -13.5v-2h-152v2q1 12 3 22.5t9.5 36
t26 45.5t47.5 41t79.5 33t115.5 12zM290 79q79 0 118.5 40.5t41.5 84.5l-162 -12q-45 -5 -64 -24q-14 -13 -14 -36q0 -21 13 -34q19 -19 67 -19z" />
    <glyph glyph-name="Abreve" unicode="&#x102;" horiz-adv-x="860" 
d="M431 753q-154 0 -189 110h120q1 -18 20.5 -29.5t48.5 -11.5q28 0 47 11.5t21 29.5h120q-34 -110 -188 -110zM843 0h-171l-87 217h-311l-87 -217h-170l295 700h236zM411 557l-86 -215h209l-86 215l-9 66h-18z" />
    <glyph glyph-name="abreve" unicode="&#x103;" horiz-adv-x="670" 
d="M336 549q-87 0 -141.5 37.5t-54.5 109.5h108q0 -34 25 -52.5t63 -18.5q39 0 63.5 18t24.5 53h107q0 -72 -54 -109.5t-141 -37.5zM327 507q273 0 273 -199v-308h-147l31 135h-18q-42 -153 -228 -153q-98 0 -145 47q-37 37 -37 95q0 60 37 97q48 48 150 54l207 11v26
q0 89 -126 89q-34 0 -59.5 -8t-37.5 -18t-19.5 -23.5t-8.5 -21t-1 -13.5v-2h-152v2q1 12 3 22.5t9.5 36t26 45.5t47.5 41t79.5 33t115.5 12zM290 79q79 0 118.5 40.5t41.5 84.5l-162 -12q-45 -5 -64 -24q-14 -13 -14 -36q0 -21 13 -34q19 -19 67 -19z" />
    <glyph glyph-name="Aogonek" unicode="&#x104;" horiz-adv-x="860" 
d="M694 -55q0 -46 102 -46v-91q-210 0 -210 113q0 62 79 96l-80 200h-311l-87 -217h-170l295 700h236l295 -700h-85q-35 -11 -49.5 -23.5t-14.5 -31.5zM411 557l-86 -215h209l-86 215l-9 66h-18z" />
    <glyph glyph-name="aogonek" unicode="&#x105;" horiz-adv-x="670" 
d="M600 0h-67q-35 -11 -49.5 -23.5t-14.5 -31.5q0 -46 102 -46v-91q-210 0 -210 113q0 70 98 104l25 110h-18q-42 -153 -228 -153q-98 0 -145 47q-37 37 -37 95q0 60 37 97q48 48 150 54l207 11v26q0 89 -126 89q-34 0 -59.5 -8t-37.5 -18t-19.5 -23.5t-8.5 -21t-1 -13.5v-2
h-152v2q1 12 3 22.5t9.5 36t26 45.5t47.5 41t79.5 33t115.5 12q273 0 273 -199v-308zM290 79q79 0 118.5 40.5t41.5 84.5l-162 -12q-45 -5 -64 -24q-14 -13 -14 -36q0 -21 13 -34q19 -19 67 -19z" />
    <glyph glyph-name="Cacute" unicode="&#x106;" horiz-adv-x="919" 
d="M550 755h-135l77 110h164zM473 -21q-151 0 -259.5 62.5t-148.5 174.5q-22 59 -22 134t22 134q40 112 149.5 174.5t264.5 62.5q170 0 278.5 -75t118.5 -199h-162q-14 68 -76 107.5t-158 39.5q-95 0 -163.5 -40t-94.5 -112q-15 -42 -15 -92t15 -92q26 -72 94 -112t161 -40
q92 0 150.5 39t75.5 108h162q-15 -124 -119 -199t-273 -75z" />
    <glyph glyph-name="cacute" unicode="&#x107;" horiz-adv-x="684" 
d="M419 549h-125l71 147h165zM347 -18q-191 0 -265 110q-43 61 -43 151t44 153q77 111 271 111q130 0 209.5 -54.5t84.5 -147.5h-149q-19 89 -145 89q-97 0 -136 -57q-26 -37 -26 -94q0 -58 25 -93q38 -56 132 -56q60 0 96.5 23.5t44.5 66.5h149q-7 -94 -85 -148t-207 -54z
" />
    <glyph glyph-name="Ccircumflex" unicode="&#x108;" horiz-adv-x="919" 
d="M416 758h-145l140 110h143l139 -110h-149l-63 53zM473 -21q-151 0 -259.5 62.5t-148.5 174.5q-22 59 -22 134t22 134q40 112 149.5 174.5t264.5 62.5q170 0 278.5 -75t118.5 -199h-162q-14 68 -76 107.5t-158 39.5q-95 0 -163.5 -40t-94.5 -112q-15 -42 -15 -92t15 -92
q26 -72 94 -112t161 -40q92 0 150.5 39t75.5 108h162q-15 -124 -119 -199t-273 -75z" />
    <glyph glyph-name="ccircumflex" unicode="&#x109;" horiz-adv-x="684" 
d="M278 549h-147l155 146h139l154 -146h-146l-77 83zM347 -18q-191 0 -265 110q-43 61 -43 151t44 153q77 111 271 111q130 0 209.5 -54.5t84.5 -147.5h-149q-19 89 -145 89q-97 0 -136 -57q-26 -37 -26 -94q0 -58 25 -93q38 -56 132 -56q60 0 96.5 23.5t44.5 66.5h149
q-7 -94 -85 -148t-207 -54z" />
    <glyph glyph-name="Cdotaccent" unicode="&#x10a;" horiz-adv-x="919" 
d="M554 753h-142v119h142v-119zM473 -21q-151 0 -259.5 62.5t-148.5 174.5q-22 59 -22 134t22 134q40 112 149.5 174.5t264.5 62.5q170 0 278.5 -75t118.5 -199h-162q-14 68 -76 107.5t-158 39.5q-95 0 -163.5 -40t-94.5 -112q-15 -42 -15 -92t15 -92q26 -72 94 -112
t161 -40q92 0 150.5 39t75.5 108h162q-15 -124 -119 -199t-273 -75z" />
    <glyph glyph-name="cdotaccent" unicode="&#x10b;" horiz-adv-x="684" 
d="M437 561h-162v125h162v-125zM347 -18q-191 0 -265 110q-43 61 -43 151t44 153q77 111 271 111q130 0 209.5 -54.5t84.5 -147.5h-149q-19 89 -145 89q-97 0 -136 -57q-26 -37 -26 -94q0 -58 25 -93q38 -56 132 -56q60 0 96.5 23.5t44.5 66.5h149q-7 -94 -85 -148t-207 -54
z" />
    <glyph glyph-name="Ccaron" unicode="&#x10c;" horiz-adv-x="919" 
d="M554 758h-143l-140 110h148l63 -52l62 52h149zM473 -21q-151 0 -259.5 62.5t-148.5 174.5q-22 59 -22 134t22 134q40 112 149.5 174.5t264.5 62.5q170 0 278.5 -75t118.5 -199h-162q-14 68 -76 107.5t-158 39.5q-95 0 -163.5 -40t-94.5 -112q-15 -42 -15 -92t15 -92
q26 -72 94 -112t161 -40q92 0 150.5 39t75.5 108h162q-15 -124 -119 -199t-273 -75z" />
    <glyph glyph-name="ccaron" unicode="&#x10d;" horiz-adv-x="684" 
d="M425 549h-139l-155 147h147l78 -84l77 84h146zM347 -18q-191 0 -265 110q-43 61 -43 151t44 153q77 111 271 111q130 0 209.5 -54.5t84.5 -147.5h-149q-19 89 -145 89q-97 0 -136 -57q-26 -37 -26 -94q0 -58 25 -93q38 -56 132 -56q60 0 96.5 23.5t44.5 66.5h149
q-7 -94 -85 -148t-207 -54z" />
    <glyph glyph-name="Dcaron" unicode="&#x10e;" horiz-adv-x="879" 
d="M468 758h-143l-140 110h148l63 -52l62 52h149zM457 0h-366v700h366q134 0 227.5 -57t130.5 -159q21 -65 21 -134q0 -75 -22 -135q-36 -102 -129 -158.5t-228 -56.5zM249 573v-446h208q73 0 125.5 35.5t74.5 96.5q15 40 15 91q0 50 -15 92q-23 61 -75 96t-125 35h-208z
" />
    <glyph glyph-name="dcaron" unicode="&#x10f;" horiz-adv-x="757" 
d="M313 -18q-155 0 -224 101q-44 64 -44 161q0 98 44 162q69 101 224 101q171 0 227 -151h18l-32 133v211h149v-700h-149l32 133h-18q-56 -151 -227 -151zM798 538h-85l34 162h131zM363 94q98 0 139 58q26 37 26 92q0 56 -26 93q-40 57 -139 57q-100 0 -140 -57
q-26 -37 -26 -93q0 -55 26 -92q41 -58 140 -58z" />
    <glyph glyph-name="Dcroat" unicode="&#x110;" horiz-adv-x="879" 
d="M815 484q21 -65 21 -134q0 -75 -22 -135q-36 -102 -129 -158.5t-228 -56.5h-366v297h-87v106h87v297h366q134 0 227.5 -57t130.5 -159zM657 259q15 40 15 91q0 50 -15 92q-23 61 -75 96t-125 35h-208v-170h226v-106h-226v-170h208q73 0 125.5 35.5t74.5 96.5z" />
    <glyph glyph-name="dcroat" unicode="&#x111;" horiz-adv-x="757" 
d="M675 628h56v-71h-56v-557h-149l32 133h-18q-56 -151 -227 -151q-155 0 -224 101q-44 64 -44 161q0 98 44 162q69 101 224 101q171 0 227 -151h18l-32 133v68h-144v71h144v72h149v-72zM502 152q26 37 26 92q0 56 -26 93q-40 57 -139 57q-100 0 -140 -57q-26 -37 -26 -93
q0 -55 26 -92q41 -58 140 -58q98 0 139 58z" />
    <glyph glyph-name="Emacron" unicode="&#x112;" horiz-adv-x="698" 
d="M539 769h-349v84h349v-84zM635 0h-544v700h544v-125h-386v-163h376v-122h-376v-165h386v-125z" />
    <glyph glyph-name="emacron" unicode="&#x113;" horiz-adv-x="674" 
d="M151 666h388v-81h-388v81zM485 150h150q-18 -76 -95 -122t-191 -46q-193 0 -267 109q-43 61 -43 152q0 88 46 154q76 110 256 110q140 0 216.5 -67.5t76.5 -190.5v-39h-447q5 -43 24 -71q38 -56 136 -54q105 0 138 65zM341 406q-93 -2 -131 -56q-15 -22 -20 -52h296
q-8 108 -145 108z" />
    <glyph glyph-name="Ebreve" unicode="&#x114;" horiz-adv-x="698" 
d="M366 753q-154 0 -189 110h120q1 -18 20.5 -29.5t48.5 -11.5q28 0 47 11.5t21 29.5h120q-34 -110 -188 -110zM635 0h-544v700h544v-125h-386v-163h376v-122h-376v-165h386v-125z" />
    <glyph glyph-name="ebreve" unicode="&#x115;" horiz-adv-x="674" 
d="M346 549q-87 0 -141.5 37.5t-54.5 109.5h108q0 -34 25 -52.5t63 -18.5q39 0 63.5 18t24.5 53h107q0 -72 -54 -109.5t-141 -37.5zM485 150h150q-18 -76 -95 -122t-191 -46q-193 0 -267 109q-43 61 -43 152q0 88 46 154q76 110 256 110q140 0 216.5 -67.5t76.5 -190.5v-39
h-447q5 -43 24 -71q38 -56 136 -54q105 0 138 65zM341 406q-93 -2 -131 -56q-15 -22 -20 -52h296q-8 108 -145 108z" />
    <glyph glyph-name="Edotaccent" unicode="&#x116;" horiz-adv-x="698" 
d="M436 753h-142v119h142v-119zM635 0h-544v700h544v-125h-386v-163h376v-122h-376v-165h386v-125z" />
    <glyph glyph-name="edotaccent" unicode="&#x117;" horiz-adv-x="674" 
d="M265 686h162v-125h-162v125zM485 150h150q-18 -76 -95 -122t-191 -46q-193 0 -267 109q-43 61 -43 152q0 88 46 154q76 110 256 110q140 0 216.5 -67.5t76.5 -190.5v-39h-447q5 -43 24 -71q38 -56 136 -54q105 0 138 65zM341 406q-93 -2 -131 -56q-15 -22 -20 -52h296
q-8 108 -145 108z" />
    <glyph glyph-name="Eogonek" unicode="&#x118;" horiz-adv-x="698" 
d="M635 700v-125h-386v-163h376v-122h-376v-165h386v-125h-51q-35 -11 -49.5 -23.5t-14.5 -31.5q0 -46 102 -46v-91q-210 0 -210 113q0 49 47 79h-368v700h544z" />
    <glyph glyph-name="eogonek" unicode="&#x119;" horiz-adv-x="674" 
d="M485 150h150q-23 -95 -131 -140l1 -1q-8 -2 -14 -4l-28 -9q-53 -18 -53 -51q0 -46 102 -46v-91q-210 0 -210 113q0 34 25 61q-177 8 -245 109q-43 61 -43 152q0 88 46 154q76 110 256 110q140 0 216.5 -67.5t76.5 -190.5v-39h-447q5 -43 24 -71q38 -56 136 -54
q105 0 138 65zM341 406q-93 -2 -131 -56q-15 -22 -20 -52h296q-8 108 -145 108z" />
    <glyph glyph-name="Ecaron" unicode="&#x11a;" horiz-adv-x="698" 
d="M437 758h-143l-140 110h148l63 -52l62 52h149zM635 0h-544v700h544v-125h-386v-163h376v-122h-376v-165h386v-125z" />
    <glyph glyph-name="ecaron" unicode="&#x11b;" horiz-adv-x="674" 
d="M569 696l-154 -147h-139l-155 147h147l78 -84l77 84h146zM485 150h150q-18 -76 -95 -122t-191 -46q-193 0 -267 109q-43 61 -43 152q0 88 46 154q76 110 256 110q140 0 216.5 -67.5t76.5 -190.5v-39h-447q5 -43 24 -71q38 -56 136 -54q105 0 138 65zM341 406
q-93 -2 -131 -56q-15 -22 -20 -52h296q-8 108 -145 108z" />
    <glyph glyph-name="Gcircumflex" unicode="&#x11c;" horiz-adv-x="937" 
d="M418 758h-145l140 110h143l139 -110h-149l-63 53zM431 -21q-131 0 -229 59.5t-136 165.5q-23 67 -23 142t23 138q41 112 149.5 174.5t266.5 62.5q170 0 278.5 -74t121.5 -194h-162q-14 65 -77.5 103t-160.5 38q-96 0 -165 -39.5t-94 -111.5q-16 -42 -16 -97
q0 -59 16 -102q25 -69 90 -107t154 -38q99 0 162.5 43t74.5 115h-248v115h399v-372h-145l32 161h-18q-28 -85 -103 -133.5t-190 -48.5z" />
    <glyph glyph-name="gcircumflex" unicode="&#x11d;" horiz-adv-x="718" 
d="M291 549h-147l155 146h139l154 -146h-146l-77 83zM339 -194q-139 0 -213 49t-79 142h148q8 -87 146 -87q72 0 111.5 32t39.5 91v15l40 131h-18q-48 -151 -210 -151q-151 0 -216 96q-41 58 -41 144q0 85 41 144q65 95 216 95q162 0 210 -150h18l-39 132h148v-414
q0 -269 -302 -269zM347 134q89 0 128 53q22 33 22 81t-22 80q-37 53 -128 53t-127 -53q-23 -33 -23 -80q0 -46 23 -81q37 -53 127 -53z" />
    <glyph glyph-name="Gbreve" unicode="&#x11e;" horiz-adv-x="937" 
d="M485 753q-154 0 -189 110h120q1 -18 20.5 -29.5t48.5 -11.5q28 0 47 11.5t21 29.5h120q-34 -110 -188 -110zM431 -21q-131 0 -229 59.5t-136 165.5q-23 67 -23 142t23 138q41 112 149.5 174.5t266.5 62.5q170 0 278.5 -74t121.5 -194h-162q-14 65 -77.5 103t-160.5 38
q-96 0 -165 -39.5t-94 -111.5q-16 -42 -16 -97q0 -59 16 -102q25 -69 90 -107t154 -38q99 0 162.5 43t74.5 115h-248v115h399v-372h-145l32 161h-18q-28 -85 -103 -133.5t-190 -48.5z" />
    <glyph glyph-name="gbreve" unicode="&#x11f;" horiz-adv-x="718" 
d="M369 549q-87 0 -141.5 37.5t-54.5 109.5h108q0 -34 25 -52.5t63 -18.5q39 0 63.5 18t24.5 53h107q0 -72 -54 -109.5t-141 -37.5zM339 -194q-139 0 -213 49t-79 142h148q8 -87 146 -87q72 0 111.5 32t39.5 91v15l40 131h-18q-48 -151 -210 -151q-151 0 -216 96
q-41 58 -41 144q0 85 41 144q65 95 216 95q162 0 210 -150h18l-39 132h148v-414q0 -269 -302 -269zM347 134q89 0 128 53q22 33 22 81t-22 80q-37 53 -128 53t-127 -53q-23 -33 -23 -80q0 -46 23 -81q37 -53 127 -53z" />
    <glyph glyph-name="Gdotaccent" unicode="&#x120;" horiz-adv-x="937" 
d="M556 753h-142v119h142v-119zM431 -21q-131 0 -229 59.5t-136 165.5q-23 67 -23 142t23 138q41 112 149.5 174.5t266.5 62.5q170 0 278.5 -74t121.5 -194h-162q-14 65 -77.5 103t-160.5 38q-96 0 -165 -39.5t-94 -111.5q-16 -42 -16 -97q0 -59 16 -102q25 -69 90 -107
t154 -38q99 0 162.5 43t74.5 115h-248v115h399v-372h-145l32 161h-18q-28 -85 -103 -133.5t-190 -48.5z" />
    <glyph glyph-name="gdotaccent" unicode="&#x121;" horiz-adv-x="718" 
d="M450 561h-162v125h162v-125zM339 -194q-139 0 -213 49t-79 142h148q8 -87 146 -87q72 0 111.5 32t39.5 91v15l40 131h-18q-48 -151 -210 -151q-151 0 -216 96q-41 58 -41 144q0 85 41 144q65 95 216 95q162 0 210 -150h18l-39 132h148v-414q0 -269 -302 -269zM347 134
q89 0 128 53q22 33 22 81t-22 80q-37 53 -128 53t-127 -53q-23 -33 -23 -80q0 -46 23 -81q37 -53 127 -53z" />
    <glyph glyph-name="uni0122" unicode="&#x122;" horiz-adv-x="937" 
d="M431 -21q-131 0 -229 59.5t-136 165.5q-23 67 -23 142t23 138q41 112 149.5 174.5t266.5 62.5q170 0 278.5 -74t121.5 -194h-162q-14 65 -77.5 103t-160.5 38q-96 0 -165 -39.5t-94 -111.5q-16 -42 -16 -97q0 -59 16 -102q25 -69 90 -107t154 -38q99 0 162.5 43t74.5 115
h-248v115h399v-372h-145l32 161h-18q-28 -85 -103 -133.5t-190 -48.5zM396 -189v50q61 0 61 24h-59v75h150v-50q0 -47 -39.5 -73t-112.5 -26z" />
    <glyph glyph-name="uni0123" unicode="&#x123;" horiz-adv-x="718" 
d="M444 550h-154v55q0 60 39.5 92t116.5 32v-58q-58 0 -58 -38h56v-83zM339 -194q-139 0 -213 49t-79 142h148q8 -87 146 -87q72 0 111.5 32t39.5 91v15l40 131h-18q-48 -151 -210 -151q-151 0 -216 96q-41 58 -41 144q0 85 41 144q65 95 216 95q162 0 210 -150h18l-39 132
h148v-414q0 -269 -302 -269zM347 134q89 0 128 53q22 33 22 81t-22 80q-37 53 -128 53t-127 -53q-23 -33 -23 -80q0 -46 23 -81q37 -53 127 -53z" />
    <glyph glyph-name="Hcircumflex" unicode="&#x124;" horiz-adv-x="892" 
d="M508 758l-63 53l-65 -53h-145l140 110h143l139 -110h-149zM643 414v286h158v-700h-158v288h-394v-288h-158v700h158v-286h394z" />
    <glyph glyph-name="hcircumflex" unicode="&#x125;" horiz-adv-x="720" 
d="M94 758h-145l140 110h143l139 -110h-149l-63 53zM231 0h-149v700h149v-211l-32 -139h18q51 157 214 157q218 0 218 -216v-291h-149v271q0 118 -123 118q-68 0 -107 -39.5t-39 -107.5v-242z" />
    <glyph glyph-name="Hbar" unicode="&#x126;" horiz-adv-x="892" 
d="M801 607h35v-100h-35v-507h-158v288h-394v-288h-158v507h-35v100h35v93h158v-93h394v93h158v-93zM249 414h394v93h-394v-93z" />
    <glyph glyph-name="hbar" unicode="&#x127;" horiz-adv-x="720" 
d="M431 507q218 0 218 -216v-291h-149v271q0 118 -123 118q-68 0 -107 -39.5t-39 -107.5v-242h-149v557h-59v71h59v72h149v-72h141v-71h-141v-68l-32 -139h18q51 157 214 157z" />
    <glyph glyph-name="Itilde" unicode="&#x128;" horiz-adv-x="340" 
d="M253 753q-33 0 -80 19.5t-79 19.5q-19 0 -34.5 -10.5t-17.5 -26.5h-82q0 65 38 93.5t89 28.5q33 0 80 -19.5t79 -19.5q20 0 35.5 9.5t17.5 26.5h81q0 -64 -38 -92.5t-89 -28.5zM249 0h-158v700h158v-700z" />
    <glyph glyph-name="itilde" unicode="&#x129;" horiz-adv-x="313" 
d="M240 566q-33 0 -80 19.5t-79 19.5q-19 0 -35 -10.5t-17 -25.5h-82q0 65 37.5 93t89.5 28q33 0 80 -19.5t79 -19.5q20 0 35 10t17 27h82q0 -64 -38 -93t-89 -29zM231 0h-149v489h149v-489z" />
    <glyph glyph-name="Imacron" unicode="&#x12a;" horiz-adv-x="340" 
d="M344 769h-349v84h349v-84zM249 0h-158v700h158v-700z" />
    <glyph glyph-name="imacron" unicode="&#x12b;" horiz-adv-x="313" 
d="M351 585h-388v81h388v-81zM231 0h-149v489h149v-489z" />
    <glyph glyph-name="Ibreve" unicode="&#x12c;" horiz-adv-x="340" 
d="M171 753q-154 0 -189 110h120q1 -18 20.5 -29.5t48.5 -11.5q28 0 47 11.5t21 29.5h120q-34 -110 -188 -110zM249 0h-158v700h158v-700z" />
    <glyph glyph-name="ibreve" unicode="&#x12d;" horiz-adv-x="313" 
d="M157 549q-87 0 -141.5 37.5t-54.5 109.5h108q0 -34 25 -52.5t63 -18.5q39 0 63.5 18t24.5 53h107q0 -72 -54 -109.5t-141 -37.5zM231 0h-149v489h149v-489z" />
    <glyph glyph-name="Iogonek" unicode="&#x12e;" horiz-adv-x="340" 
d="M249 0h-71q-35 -11 -49.5 -23.5t-14.5 -31.5q0 -46 102 -46v-91q-210 0 -210 113q0 64 85 99v680h158v-700z" />
    <glyph glyph-name="iogonek" unicode="&#x12f;" horiz-adv-x="313" 
d="M76 561v125h162v-125h-162zM82 21v468h149v-489h-64q-35 -11 -49.5 -23.5t-14.5 -31.5q0 -46 102 -46v-91q-210 0 -210 113q0 66 87 100z" />
    <glyph glyph-name="Idotaccent" unicode="&#x130;" horiz-adv-x="340" 
d="M241 753h-142v119h142v-119zM249 0h-158v700h158v-700z" />
    <glyph glyph-name="dotlessi" unicode="&#x131;" horiz-adv-x="313" 
d="M231 0h-149v489h149v-489z" />
    <glyph glyph-name="IJ" unicode="&#x132;" horiz-adv-x="1048" 
d="M249 0h-158v700h158v-700zM668 -21q-294 0 -294 272v120h158v-117q0 -148 139 -148q70 0 103.5 37.5t33.5 116.5v440h158v-444q0 -133 -77 -205t-221 -72z" />
    <glyph glyph-name="ij" unicode="&#x133;" horiz-adv-x="639" 
d="M238 561h-162v125h162v-125zM563 561h-162v125h162v-125zM231 0h-149v489h149v-489zM366 -193h-57v109h40q31 0 44.5 15t13.5 48v510h150v-510q0 -172 -191 -172z" />
    <glyph glyph-name="Jcircumflex" unicode="&#x134;" horiz-adv-x="707" 
d="M481 758h-145l140 110h143l139 -110h-149l-63 53zM328 -21q-294 0 -294 272v120h158v-117q0 -148 139 -148q70 0 103.5 37.5t33.5 116.5v440h158v-444q0 -133 -77 -205t-221 -72z" />
    <glyph glyph-name="jcircumflex" unicode="&#x135;" horiz-adv-x="326" 
d="M91 549h-147l155 146h139l154 -146h-146l-77 83zM53 -193h-57v109h40q31 0 44.5 15t13.5 48v510h150v-510q0 -172 -191 -172z" />
    <glyph glyph-name="uni0136" unicode="&#x136;" horiz-adv-x="810" 
d="M605 700h190l-329 -324l324 -376h-205l-235 282l-101 -103v-179h-158v700h158v-297l-39 -78h18zM384 -115h-59v75h150v-50q0 -47 -39.5 -73t-112.5 -26v50q61 0 61 24z" />
    <glyph glyph-name="uni0137" unicode="&#x137;" horiz-adv-x="688" 
d="M495 489h183l-255 -221l250 -268h-188l-169 191l-85 -76v-115h-149v700h149v-389l-40 -66h18zM334 -115h-59v75h150v-50q0 -47 -39.5 -73t-112.5 -26v50q61 0 61 24z" />
    <glyph glyph-name="kgreenlandic" unicode="&#x138;" horiz-adv-x="688" 
d="M495 489h183l-258 -224l253 -265h-188l-172 187l-82 -72v-115h-149v489h149v-174l-33 -64h18z" />
    <glyph glyph-name="Lacute" unicode="&#x139;" horiz-adv-x="653" 
d="M229 755h-135l77 110h164zM631 0h-540v700h158v-573h382v-127z" />
    <glyph glyph-name="lacute" unicode="&#x13a;" horiz-adv-x="313" 
d="M224 755h-135l77 110h164zM231 0h-149v700h149v-700z" />
    <glyph glyph-name="uni013B" unicode="&#x13b;" horiz-adv-x="653" 
d="M631 0h-540v700h158v-573h382v-127zM285 -189v50q61 0 61 24h-59v75h150v-50q0 -47 -39.5 -73t-112.5 -26z" />
    <glyph glyph-name="uni013C" unicode="&#x13c;" horiz-adv-x="313" 
d="M231 0h-149v700h149v-700zM80 -189v50q61 0 61 24h-59v75h150v-50q0 -47 -39.5 -73t-112.5 -26z" />
    <glyph glyph-name="Lcaron" unicode="&#x13d;" horiz-adv-x="653" 
d="M631 0h-540v700h158v-573h382v-127zM442 538h-85l34 162h131z" />
    <glyph glyph-name="lcaron" unicode="&#x13e;" horiz-adv-x="313" 
d="M231 0h-149v700h149v-700zM355 538h-85l34 162h131z" />
    <glyph glyph-name="Ldot" unicode="&#x13f;" horiz-adv-x="653" 
d="M631 0h-540v700h158v-573h382v-127zM574 338h-160v151h160v-151z" />
    <glyph glyph-name="ldot" unicode="&#x140;" horiz-adv-x="408" 
d="M231 0h-149v700h149v-700zM439 338h-157v151h157v-151z" />
    <glyph glyph-name="Lslash" unicode="&#x141;" horiz-adv-x="653" 
d="M249 336v-209h382v-127h-540v254l-70 -37v103l70 37v343h158v-261l143 75v-103z" />
    <glyph glyph-name="lslash" unicode="&#x142;" horiz-adv-x="444" 
d="M295 457l82 45v-91l-82 -45v-366h-150v283l-78 -43v90l78 43v327h150v-243z" />
    <glyph glyph-name="Nacute" unicode="&#x143;" horiz-adv-x="892" 
d="M542 755h-135l77 110h164zM240 0h-149v700h223l297 -459l23 -150h18v609h149v-700h-223l-298 460l-22 149h-18v-609z" />
    <glyph glyph-name="nacute" unicode="&#x144;" horiz-adv-x="720" 
d="M443 549h-125l71 147h165zM231 0h-149v489h149l-32 -139h18q51 157 213 157q108 0 163.5 -55t55.5 -161v-291h-149v271q0 118 -123 118q-68 0 -107 -39.5t-39 -107.5v-242z" />
    <glyph glyph-name="uni0145" unicode="&#x145;" horiz-adv-x="892" 
d="M240 0h-149v700h223l297 -459l23 -150h18v609h149v-700h-223l-298 460l-22 149h-18v-609zM358 -189v50q61 0 61 24h-59v75h150v-50q0 -47 -39.5 -73t-112.5 -26z" />
    <glyph glyph-name="uni0146" unicode="&#x146;" horiz-adv-x="720" 
d="M231 0h-149v489h149l-32 -139h18q51 157 213 157q108 0 163.5 -55t55.5 -161v-291h-149v271q0 118 -123 118q-68 0 -107 -39.5t-39 -107.5v-242zM290 -189v50q61 0 61 24h-59v75h150v-50q0 -47 -39.5 -73t-112.5 -26z" />
    <glyph glyph-name="Ncaron" unicode="&#x147;" horiz-adv-x="892" 
d="M546 758h-143l-140 110h148l63 -52l62 52h149zM240 0h-149v700h223l297 -459l23 -150h18v609h149v-700h-223l-298 460l-22 149h-18v-609z" />
    <glyph glyph-name="ncaron" unicode="&#x148;" horiz-adv-x="720" 
d="M449 549h-139l-155 147h147l78 -84l77 84h146zM231 0h-149v489h149l-32 -139h18q51 157 213 157q108 0 163.5 -55t55.5 -161v-291h-149v271q0 118 -123 118q-68 0 -107 -39.5t-39 -107.5v-242z" />
    <glyph glyph-name="napostrophe" unicode="&#x149;" horiz-adv-x="970" 
d="M52 432v80q44 0 62.5 15.5t18.5 52.5h-81v138h173v-119q0 -167 -173 -167zM481 0h-149v489h149l-32 -139h18q51 157 213 157q108 0 163.5 -55t55.5 -161v-291h-149v271q0 118 -123 118q-68 0 -107 -39.5t-39 -107.5v-242z" />
    <glyph glyph-name="Eng" unicode="&#x14a;" horiz-adv-x="892" 
d="M652 91v609h149v-720q0 -88 -58.5 -130.5t-178.5 -42.5v104q88 0 88 65v24h-74l-298 460l-22 149h-18v-609h-149v700h223l297 -459l23 -150h18z" />
    <glyph glyph-name="eng" unicode="&#x14b;" horiz-adv-x="720" 
d="M430 507q108 0 163.5 -55t55.5 -161v-324q0 -76 -54.5 -117.5t-160.5 -41.5v95q65 0 65 67v30h1v271q0 118 -123 118q-68 0 -107 -39.5t-39 -107.5v-242h-149v489h149l-32 -139h18q51 157 213 157z" />
    <glyph glyph-name="Omacron" unicode="&#x14c;" horiz-adv-x="971" 
d="M662 769h-349v84h349v-84zM486 -21q-159 0 -269.5 62.5t-151.5 174.5q-22 60 -22 134t22 134q40 111 150.5 174t270.5 63q159 0 269.5 -63t150.5 -174q22 -64 22 -134q0 -74 -22 -134q-40 -111 -150 -174t-270 -63zM486 106q99 0 168 40.5t95 112.5q15 42 15 91t-15 91
q-26 71 -94.5 112t-168.5 41t-169 -41t-95 -112q-15 -42 -15 -91t15 -91q26 -71 95 -112t169 -41z" />
    <glyph glyph-name="omacron" unicode="&#x14d;" horiz-adv-x="719" 
d="M553 585h-388v81h388v-81zM360 -18q-199 0 -278 118q-43 61 -43 144q0 84 43 145q38 56 110 87t168 31t167.5 -31t110.5 -87q42 -62 42 -145q0 -82 -42 -144q-38 -57 -110 -87.5t-168 -30.5zM360 94q101 0 142 62q25 36 25 88t-25 89q-42 61 -142 61q-101 0 -143 -61
q-25 -37 -25 -89t25 -88q41 -62 143 -62z" />
    <glyph glyph-name="Obreve" unicode="&#x14e;" horiz-adv-x="971" 
d="M488 753q-154 0 -189 110h120q1 -18 20.5 -29.5t48.5 -11.5q28 0 47 11.5t21 29.5h120q-34 -110 -188 -110zM486 -21q-159 0 -269.5 62.5t-151.5 174.5q-22 60 -22 134t22 134q40 111 150.5 174t270.5 63q159 0 269.5 -63t150.5 -174q22 -64 22 -134q0 -74 -22 -134
q-40 -111 -150 -174t-270 -63zM486 106q99 0 168 40.5t95 112.5q15 42 15 91t-15 91q-26 71 -94.5 112t-168.5 41t-169 -41t-95 -112q-15 -42 -15 -91t15 -91q26 -71 95 -112t169 -41z" />
    <glyph glyph-name="obreve" unicode="&#x14f;" horiz-adv-x="719" 
d="M360 549q-87 0 -141.5 37.5t-54.5 109.5h108q0 -34 25 -52.5t63 -18.5q39 0 63.5 18t24.5 53h107q0 -72 -54 -109.5t-141 -37.5zM360 -18q-199 0 -278 118q-43 61 -43 144q0 84 43 145q38 56 110 87t168 31t167.5 -31t110.5 -87q42 -62 42 -145q0 -82 -42 -144
q-38 -57 -110 -87.5t-168 -30.5zM360 94q101 0 142 62q25 36 25 88t-25 89q-42 61 -142 61q-101 0 -143 -61q-25 -37 -25 -89t25 -88q41 -62 143 -62z" />
    <glyph glyph-name="Ohungarumlaut" unicode="&#x150;" horiz-adv-x="971" 
d="M432 755h-102l68 110h124zM630 755h-103l68 110h125zM486 -21q-159 0 -269.5 62.5t-151.5 174.5q-22 60 -22 134t22 134q40 111 150.5 174t270.5 63q159 0 269.5 -63t150.5 -174q22 -64 22 -134q0 -74 -22 -134q-40 -111 -150 -174t-270 -63zM486 106q99 0 168 40.5
t95 112.5q15 42 15 91t-15 91q-26 71 -94.5 112t-168.5 41t-169 -41t-95 -112q-15 -42 -15 -91t15 -91q26 -71 95 -112t169 -41z" />
    <glyph glyph-name="ohungarumlaut" unicode="&#x151;" horiz-adv-x="719" 
d="M302 550h-97l66 142h139zM518 550h-97l65 142h139zM360 -18q-199 0 -278 118q-43 61 -43 144q0 84 43 145q38 56 110 87t168 31t167.5 -31t110.5 -87q42 -62 42 -145q0 -82 -42 -144q-38 -57 -110 -87.5t-168 -30.5zM360 94q101 0 142 62q25 36 25 88t-25 89
q-42 61 -142 61q-101 0 -143 -61q-25 -37 -25 -89t25 -88q41 -62 143 -62z" />
    <glyph glyph-name="OE" unicode="&#x152;" horiz-adv-x="1092" 
d="M1030 700v-125h-353v-163h342v-122h-342v-165h353v-125h-608q-134 0 -227.5 57t-129.5 159q-22 63 -22 134q0 75 22 135q36 102 129 158.5t228 56.5h608zM223 258q22 -61 74.5 -96t125.5 -35h100v446h-100q-74 0 -126.5 -35t-74.5 -97q-15 -41 -15 -91q0 -51 16 -92z" />
    <glyph glyph-name="oe" unicode="&#x153;" horiz-adv-x="1112" 
d="M930 150h144q-17 -76 -90 -122t-181 -46q-150 0 -226 78q-84 -78 -232 -78q-88 0 -157.5 30t-105.5 84q-43 63 -43 148q0 86 43 149q36 54 105.5 84t157.5 30q150 0 234 -79q79 79 216 79q134 0 206 -67.5t72 -190.5v-39h-423q5 -43 24 -71q39 -55 127 -55q98 1 129 66z
M795 406q-86 -2 -121 -52q-15 -22 -21 -56h279q-8 108 -137 108zM479 154q25 36 25 90t-25 91q-40 59 -134 59t-134 -59q-25 -37 -25 -91t25 -90q40 -60 134 -60t134 60z" />
    <glyph glyph-name="Racute" unicode="&#x154;" horiz-adv-x="764" 
d="M369 865h164l-106 -110h-135zM722 0h-194l-200 290h-79v-290h-158v700h389q158 0 214 -97q25 -44 25 -102q0 -57 -24 -97q-51 -88 -216 -93v-14l43 -14zM456 578h-207v-176h207q67 0 91 42q12 19 12 47q0 26 -11 45q-23 42 -92 42z" />
    <glyph glyph-name="racute" unicode="&#x155;" horiz-adv-x="617" 
d="M388 549h-125l71 147h165zM231 0h-149v489h148l-36 -151h18q28 89 76 129t125 40q87 0 131 -47t44 -135v-93h-152v56q0 51 -22 75t-72 24q-54 0 -82.5 -35.5t-28.5 -101.5v-250z" />
    <glyph glyph-name="uni0156" unicode="&#x156;" horiz-adv-x="764" 
d="M479 297l43 -14l200 -283h-194l-200 290h-79v-290h-158v700h389q158 0 214 -97q25 -44 25 -102q0 -57 -24 -97q-51 -88 -216 -93v-14zM456 578h-207v-176h207q67 0 91 42q12 19 12 47q0 26 -11 45q-23 42 -92 42zM365 -115h-59v75h150v-50q0 -47 -39.5 -73t-112.5 -26v50
q61 0 61 24z" />
    <glyph glyph-name="uni0157" unicode="&#x157;" horiz-adv-x="617" 
d="M231 0h-149v489h148l-36 -151h18q28 89 76 129t125 40q87 0 131 -47t44 -135v-93h-152v56q0 51 -22 75t-72 24q-54 0 -82.5 -35.5t-28.5 -101.5v-250zM79 -189v50q61 0 61 24h-59v75h150v-50q0 -47 -39.5 -73t-112.5 -26z" />
    <glyph glyph-name="Rcaron" unicode="&#x158;" horiz-adv-x="764" 
d="M570 868l-139 -110h-143l-140 110h148l63 -52l62 52h149zM722 0h-194l-200 290h-79v-290h-158v700h389q158 0 214 -97q25 -44 25 -102q0 -57 -24 -97q-51 -88 -216 -93v-14l43 -14zM456 578h-207v-176h207q67 0 91 42q12 19 12 47q0 26 -11 45q-23 42 -92 42z" />
    <glyph glyph-name="rcaron" unicode="&#x159;" horiz-adv-x="617" 
d="M394 549h-139l-155 147h147l78 -84l77 84h146zM231 0h-149v489h148l-36 -151h18q28 89 76 129t125 40q87 0 131 -47t44 -135v-93h-152v56q0 51 -22 75t-72 24q-54 0 -82.5 -35.5t-28.5 -101.5v-250z" />
    <glyph glyph-name="Sacute" unicode="&#x15a;" horiz-adv-x="762" 
d="M455 755h-135l77 110h164zM376 -21q-151 0 -237.5 62.5t-86.5 174.5v13h159v-9q0 -59 45 -90.5t123 -31.5q119 0 150 55q11 20 11 43q0 21 -8 36q-23 39 -114 51l-140 17q-148 20 -194 101q-24 41 -24 96q0 56 26 102q34 58 111 90t187 32q152 0 237 -61.5t85 -173.5v-13
h-159v9q0 59 -43.5 89.5t-122.5 30.5q-119 0 -150 -55q-11 -19 -11 -42q0 -21 9 -35q22 -39 114 -51l141 -17q147 -20 192 -101q24 -42 24 -98q0 -57 -26 -103q-33 -58 -110 -89.5t-188 -31.5z" />
    <glyph glyph-name="sacute" unicode="&#x15b;" horiz-adv-x="619" 
d="M372 549h-125l71 147h165zM305 -18q-121 0 -189 44.5t-68 125.5v4h143v-4q0 -72 117 -72q73 0 96 23q12 12 12 32q0 22 -16.5 34.5t-59.5 18.5l-124 16q-161 24 -161 145q0 57 39 96q62 62 217 62q123 0 190 -45.5t67 -126.5v-4h-144v4q0 74 -118 74q-72 0 -95 -23
q-13 -13 -13 -31q0 -41 79 -52l114 -14q90 -15 130 -50.5t40 -97.5q0 -59 -38 -97q-64 -62 -218 -62z" />
    <glyph glyph-name="Scircumflex" unicode="&#x15c;" horiz-adv-x="762" 
d="M322 758h-145l140 110h143l139 -110h-149l-63 53zM376 -21q-151 0 -237.5 62.5t-86.5 174.5v13h159v-9q0 -59 45 -90.5t123 -31.5q119 0 150 55q11 20 11 43q0 21 -8 36q-23 39 -114 51l-140 17q-148 20 -194 101q-24 41 -24 96q0 56 26 102q34 58 111 90t187 32
q152 0 237 -61.5t85 -173.5v-13h-159v9q0 59 -43.5 89.5t-122.5 30.5q-119 0 -150 -55q-11 -19 -11 -42q0 -21 9 -35q22 -39 114 -51l141 -17q147 -20 192 -101q24 -42 24 -98q0 -57 -26 -103q-33 -58 -110 -89.5t-188 -31.5z" />
    <glyph glyph-name="scircumflex" unicode="&#x15d;" horiz-adv-x="619" 
d="M230 549h-147l155 146h139l154 -146h-146l-77 83zM305 -18q-121 0 -189 44.5t-68 125.5v4h143v-4q0 -72 117 -72q73 0 96 23q12 12 12 32q0 22 -16.5 34.5t-59.5 18.5l-124 16q-161 24 -161 145q0 57 39 96q62 62 217 62q123 0 190 -45.5t67 -126.5v-4h-144v4
q0 74 -118 74q-72 0 -95 -23q-13 -13 -13 -31q0 -41 79 -52l114 -14q90 -15 130 -50.5t40 -97.5q0 -59 -38 -97q-64 -62 -218 -62z" />
    <glyph glyph-name="Scedilla" unicode="&#x15e;" horiz-adv-x="762" 
d="M706 473h-159v9q0 59 -43.5 89.5t-122.5 30.5q-119 0 -150 -55q-11 -19 -11 -42q0 -21 9 -35q22 -39 114 -51l141 -17q147 -20 192 -101q24 -42 24 -98q0 -57 -26 -103q-64 -111 -264 -120l-4 -12q66 -18 66 -71q0 -40 -37 -65.5t-100 -25.5q-62 0 -106.5 25.5
t-48.5 81.5h89q8 -41 61 -41q49 0 49 28q0 10 -10.5 17.5t-28.5 7.5l-24 30l10 26q-129 10 -201.5 71.5t-72.5 163.5v13h159v-9q0 -59 45 -90.5t123 -31.5q119 0 150 55q11 20 11 43q0 21 -8 36q-23 39 -114 51l-140 17q-148 20 -194 101q-24 41 -24 96q0 56 26 102
q34 58 111 90t187 32q152 0 237 -61.5t85 -173.5v-13z" />
    <glyph glyph-name="scedilla" unicode="&#x15f;" horiz-adv-x="619" 
d="M568 331h-144v4q0 74 -118 74q-72 0 -95 -23q-13 -13 -13 -31q0 -41 79 -52l114 -14q90 -15 130 -50.5t40 -97.5q0 -59 -38 -97q-57 -55 -183 -61l-6 -15q66 -18 66 -71q0 -40 -37 -65.5t-100 -25.5q-62 0 -106.5 25.5t-48.5 81.5h89q8 -41 61 -41q49 0 49 28
q0 10 -10.5 17.5t-28.5 7.5l-24 30l12 29q-99 9 -153.5 52.5t-54.5 115.5v4h143v-4q0 -72 117 -72q73 0 96 23q12 12 12 32q0 22 -16.5 34.5t-59.5 18.5l-124 16q-161 24 -161 145q0 57 39 96q62 62 217 62q123 0 190 -45.5t67 -126.5v-4z" />
    <glyph glyph-name="Scaron" unicode="&#x160;" horiz-adv-x="762" 
d="M460 758h-143l-140 110h148l63 -52l62 52h149zM376 -21q-151 0 -237.5 62.5t-86.5 174.5v13h159v-9q0 -59 45 -90.5t123 -31.5q119 0 150 55q11 20 11 43q0 21 -8 36q-23 39 -114 51l-140 17q-148 20 -194 101q-24 41 -24 96q0 56 26 102q34 58 111 90t187 32
q152 0 237 -61.5t85 -173.5v-13h-159v9q0 59 -43.5 89.5t-122.5 30.5q-119 0 -150 -55q-11 -19 -11 -42q0 -21 9 -35q22 -39 114 -51l141 -17q147 -20 192 -101q24 -42 24 -98q0 -57 -26 -103q-33 -58 -110 -89.5t-188 -31.5z" />
    <glyph glyph-name="scaron" unicode="&#x161;" horiz-adv-x="619" 
d="M377 549h-139l-155 147h147l78 -84l77 84h146zM305 -18q-121 0 -189 44.5t-68 125.5v4h143v-4q0 -72 117 -72q73 0 96 23q12 12 12 32q0 22 -16.5 34.5t-59.5 18.5l-124 16q-161 24 -161 145q0 57 39 96q62 62 217 62q123 0 190 -45.5t67 -126.5v-4h-144v4q0 74 -118 74
q-72 0 -95 -23q-13 -13 -13 -31q0 -41 79 -52l114 -14q90 -15 130 -50.5t40 -97.5q0 -59 -38 -97q-64 -62 -218 -62z" />
    <glyph glyph-name="uni0162" unicode="&#x162;" horiz-adv-x="718" 
d="M438 573v-573h-38l-12 -32q66 -18 66 -71q0 -40 -37 -65.5t-100 -25.5q-62 0 -106.5 25.5t-48.5 81.5h89q8 -41 61 -41q49 0 49 28q0 10 -10.5 17.5t-28.5 7.5l-24 30l18 45h-36v573h-267v127h691v-127h-266z" />
    <glyph glyph-name="uni0163" unicode="&#x163;" horiz-adv-x="628" 
d="M589 489v-107h-314v-206q0 -83 82 -83q44 0 64 22.5t20 70.5v60h148v-63q0 -89 -53.5 -141.5t-152.5 -58.5l-6 -15q66 -18 66 -71q0 -40 -37 -65.5t-100 -25.5q-62 0 -106.5 25.5t-48.5 81.5h89q8 -41 61 -41q49 0 49 28q0 10 -10.5 17.5t-28.5 7.5l-24 30l12 30
q-174 24 -174 189v208h-111v107h111v81l150 60v-141h314z" />
    <glyph glyph-name="Tcaron" unicode="&#x164;" horiz-adv-x="718" 
d="M569 868l-139 -110h-143l-140 110h148l63 -52l62 52h149zM13 700h691v-127h-266v-573h-158v573h-267v127z" />
    <glyph glyph-name="tcaron" unicode="&#x165;" horiz-adv-x="628" 
d="M383 700h131l-80 -162h-85zM589 489v-107h-314v-206q0 -83 82 -83q44 0 64 22.5t20 70.5v60h148v-63q0 -95 -61 -148t-172 -53q-231 0 -231 192v208h-111v107h111v81l150 60v-141h314z" />
    <glyph glyph-name="Tbar" unicode="&#x166;" horiz-adv-x="718" 
d="M704 700v-127h-266v-157h156v-107h-156v-309h-158v309h-156v107h156v157h-267v127h691z" />
    <glyph glyph-name="tbar" unicode="&#x167;" horiz-adv-x="628" 
d="M589 489v-107h-314v-49h314v-71h-314v-86q0 -83 82 -83q44 0 64 22.5t20 70.5v41h148v-44q0 -95 -61 -148t-172 -53q-231 0 -231 192v88h-90v71h90v49h-111v107h111v81l150 60v-141h314z" />
    <glyph glyph-name="Utilde" unicode="&#x168;" horiz-adv-x="855" 
d="M510 753q-33 0 -80 19.5t-79 19.5q-19 0 -34.5 -10.5t-17.5 -26.5h-82q0 65 38 93.5t89 28.5q33 0 80 -19.5t79 -19.5q20 0 35.5 9.5t17.5 26.5h81q0 -64 -38 -92.5t-89 -28.5zM428 -21q-162 0 -254.5 80t-92.5 220v421h161v-416q0 -82 50 -129t136 -47t135.5 47
t49.5 129v416h160v-421q0 -140 -92.5 -220t-252.5 -80z" />
    <glyph glyph-name="utilde" unicode="&#x169;" horiz-adv-x="710" 
d="M432 566q-33 0 -80 19.5t-79 19.5q-19 0 -35 -10.5t-17 -25.5h-82q0 65 37.5 93t89.5 28q33 0 80 -19.5t79 -19.5q20 0 35 10t17 27h82q0 -64 -38 -93t-89 -29zM285 -18q-214 0 -214 216v291h149v-271q0 -118 118 -118q66 0 103 39t37 107v243h150v-489h-150l33 139h-18
q-54 -157 -208 -157z" />
    <glyph glyph-name="Umacron" unicode="&#x16a;" horiz-adv-x="855" 
d="M602 769h-349v84h349v-84zM428 -21q-162 0 -254.5 80t-92.5 220v421h161v-416q0 -82 50 -129t136 -47t135.5 47t49.5 129v416h160v-421q0 -140 -92.5 -220t-252.5 -80z" />
    <glyph glyph-name="umacron" unicode="&#x16b;" horiz-adv-x="710" 
d="M543 585h-388v81h388v-81zM285 -18q-214 0 -214 216v291h149v-271q0 -118 118 -118q66 0 103 39t37 107v243h150v-489h-150l33 139h-18q-54 -157 -208 -157z" />
    <glyph glyph-name="Ubreve" unicode="&#x16c;" horiz-adv-x="855" 
d="M428 753q-154 0 -189 110h120q1 -18 20.5 -29.5t48.5 -11.5q28 0 47 11.5t21 29.5h120q-34 -110 -188 -110zM428 -21q-162 0 -254.5 80t-92.5 220v421h161v-416q0 -82 50 -129t136 -47t135.5 47t49.5 129v416h160v-421q0 -140 -92.5 -220t-252.5 -80z" />
    <glyph glyph-name="ubreve" unicode="&#x16d;" horiz-adv-x="710" 
d="M350 549q-87 0 -141.5 37.5t-54.5 109.5h108q0 -34 25 -52.5t63 -18.5q39 0 63.5 18t24.5 53h107q0 -72 -54 -109.5t-141 -37.5zM285 -18q-214 0 -214 216v291h149v-271q0 -118 118 -118q66 0 103 39t37 107v243h150v-489h-150l33 139h-18q-54 -157 -208 -157z" />
    <glyph glyph-name="Uring" unicode="&#x16e;" horiz-adv-x="855" 
d="M428 751q-66 0 -104 30.5t-38 80.5t38 80.5t104 30.5q65 0 103.5 -30.5t38.5 -79.5q0 -50 -38.5 -81t-103.5 -31zM428 815q27 0 43 13.5t16 33.5q0 21 -16 34.5t-43 13.5t-43 -13.5t-16 -33.5q0 -21 16 -34.5t43 -13.5zM428 -21q-162 0 -254.5 80t-92.5 220v421h161v-416
q0 -82 50 -129t136 -47t135.5 47t49.5 129v416h160v-421q0 -140 -92.5 -220t-252.5 -80z" />
    <glyph glyph-name="uring" unicode="&#x16f;" horiz-adv-x="710" 
d="M349 550q-60 0 -98 30.5t-38 81.5q0 50 38 81t98 31t98 -31t38 -81q0 -51 -38 -81.5t-98 -30.5zM349 615q27 0 42.5 12.5t15.5 34.5q0 21 -15.5 34t-42.5 13t-42 -13t-15 -34q0 -22 15 -34.5t42 -12.5zM285 -18q-214 0 -214 216v291h149v-271q0 -118 118 -118
q66 0 103 39t37 107v243h150v-489h-150l33 139h-18q-54 -157 -208 -157z" />
    <glyph glyph-name="Uhungarumlaut" unicode="&#x170;" horiz-adv-x="855" 
d="M372 755h-102l68 110h124zM570 755h-103l68 110h125zM428 -21q-162 0 -254.5 80t-92.5 220v421h161v-416q0 -82 50 -129t136 -47t135.5 47t49.5 129v416h160v-421q0 -140 -92.5 -220t-252.5 -80z" />
    <glyph glyph-name="uhungarumlaut" unicode="&#x171;" horiz-adv-x="710" 
d="M292 550h-97l66 142h139zM508 550h-97l65 142h139zM285 -18q-214 0 -214 216v291h149v-271q0 -118 118 -118q66 0 103 39t37 107v243h150v-489h-150l33 139h-18q-54 -157 -208 -157z" />
    <glyph glyph-name="Uogonek" unicode="&#x172;" horiz-adv-x="855" 
d="M613 284v416h160v-421q0 -123 -72 -200.5t-201 -94.5q-25 -15 -25 -39q0 -46 102 -46v-91q-210 0 -210 113q0 33 23 59q-145 10 -227 89t-82 210v421h161v-416q0 -82 50 -129t136 -47t135.5 47t49.5 129z" />
    <glyph glyph-name="uogonek" unicode="&#x173;" horiz-adv-x="710" 
d="M628 0h-67q-35 -11 -49.5 -23.5t-14.5 -31.5q0 -46 102 -46v-91q-210 0 -210 113q0 67 95 103l27 115h-18q-54 -157 -208 -157q-214 0 -214 216v291h149v-271q0 -118 118 -118q66 0 103 39t37 107v243h150v-489z" />
    <glyph glyph-name="Wcircumflex" unicode="&#x174;" horiz-adv-x="1193" 
d="M530 758h-145l140 110h143l139 -110h-149l-63 53zM456 0h-245l-181 700h165l132 -539l7 -81h18l6 81l126 539h225l126 -539l6 -81h18l8 81l131 539h165l-181 -700h-245l-125 539l-7 72h-17l-7 -72z" />
    <glyph glyph-name="wcircumflex" unicode="&#x175;" horiz-adv-x="1008" 
d="M426 549h-147l155 146h139l154 -146h-146l-77 83zM398 0h-222l-150 489h154l101 -363l4 -51h19l4 51l91 363h212l89 -363l4 -51h19l4 51l101 363h154l-150 -489h-222l-92 366l-4 47h-20l-4 -47z" />
    <glyph glyph-name="Ycircumflex" unicode="&#x176;" horiz-adv-x="789" 
d="M455 758l-63 53l-65 -53h-145l140 110h143l139 -110h-149zM598 700h180l-306 -449v-251h-155v250l-306 450h180l189 -288l6 -51h17l6 51z" />
    <glyph glyph-name="ycircumflex" unicode="&#x177;" horiz-adv-x="677" 
d="M416 549l-77 83l-78 -83h-147l155 146h139l154 -146h-146zM361 129l137 360h165l-220 -523q-34 -85 -86 -122.5t-139 -37.5q-95 0 -151 38t-56 107v10h150v-7q0 -21 16 -33t43 -12q56 0 79 58l30 78h-102l-211 444h165l161 -360h19z" />
    <glyph glyph-name="Ydieresis" unicode="&#x178;" horiz-adv-x="789" 
d="M204 872h143v-117h-143v117zM441 872h143v-117h-143v117zM598 700h180l-306 -449v-251h-155v250l-306 450h180l189 -288l6 -51h17l6 51z" />
    <glyph glyph-name="Zacute" unicode="&#x179;" horiz-adv-x="762" 
d="M442 755h-135l77 110h164zM705 0h-648v196l489 363v18h-489v123h647v-202l-485 -357v-18h486v-123z" />
    <glyph glyph-name="zacute" unicode="&#x17a;" horiz-adv-x="626" 
d="M377 549h-125l71 147h165zM571 0h-515v173l353 189v18h-353v109h514v-173l-355 -189v-18h356v-109z" />
    <glyph glyph-name="Zdotaccent" unicode="&#x17b;" horiz-adv-x="762" 
d="M446 753h-142v119h142v-119zM705 0h-648v196l489 363v18h-489v123h647v-202l-485 -357v-18h486v-123z" />
    <glyph glyph-name="zdotaccent" unicode="&#x17c;" horiz-adv-x="626" 
d="M394 561h-162v125h162v-125zM571 0h-515v173l353 189v18h-353v109h514v-173l-355 -189v-18h356v-109z" />
    <glyph glyph-name="Zcaron" unicode="&#x17d;" horiz-adv-x="762" 
d="M447 758h-143l-140 110h148l63 -52l62 52h149zM705 0h-648v196l489 363v18h-489v123h647v-202l-485 -357v-18h486v-123z" />
    <glyph glyph-name="zcaron" unicode="&#x17e;" horiz-adv-x="626" 
d="M383 549h-139l-155 147h147l78 -84l77 84h146zM571 0h-515v173l353 189v18h-353v109h514v-173l-355 -189v-18h356v-109z" />
    <glyph glyph-name="uni018F" unicode="&#x18f;" horiz-adv-x="919" 
d="M853 487q23 -63 23 -137q0 -79 -26 -149q-39 -106 -146 -164t-257 -58q-180 0 -286.5 92.5t-106.5 244.5v72h665q-4 32 -15 61q-27 73 -94.5 112.5t-161.5 39.5q-100 0 -165 -39.5t-78 -106.5h-162q11 120 121 193t283 73q150 0 257.5 -61t148.5 -173zM446 96
q95 0 163 37.5t93 105.5q8 26 11 39h-507q9 -86 73 -134t167 -48z" />
    <glyph glyph-name="florin" unicode="&#x192;" horiz-adv-x="590" 
d="M402 614q-65 0 -79 -80l-17 -103h147v-106h-165l-55 -328q-14 -77 -53 -117.5t-118 -40.5q-42 0 -79 14v106q30 -15 57 -15q29 0 46.5 17.5t24.5 57.5l51 306h-127v106h145l19 115q13 80 65 125t142 45q164 0 181 -147h-126q-4 23 -17 34t-42 11z" />
    <glyph glyph-name="uni019D" unicode="&#x19d;" horiz-adv-x="892" 
d="M652 91v609h149v-700h-223l-298 460l-22 149h-18v-629q0 -90 -55.5 -131.5t-174.5 -41.5v104q81 0 81 65v724h223l297 -459l23 -150h18z" />
    <glyph glyph-name="Gcaron" unicode="&#x1e6;" horiz-adv-x="937" 
d="M556 758h-143l-140 110h148l63 -52l62 52h149zM431 -21q-131 0 -229 59.5t-136 165.5q-23 67 -23 142t23 138q41 112 149.5 174.5t266.5 62.5q170 0 278.5 -74t121.5 -194h-162q-14 65 -77.5 103t-160.5 38q-96 0 -165 -39.5t-94 -111.5q-16 -42 -16 -97q0 -59 16 -102
q25 -69 90 -107t154 -38q99 0 162.5 43t74.5 115h-248v115h399v-372h-145l32 161h-18q-28 -85 -103 -133.5t-190 -48.5z" />
    <glyph glyph-name="gcaron" unicode="&#x1e7;" horiz-adv-x="718" 
d="M438 549h-139l-155 147h147l78 -84l77 84h146zM339 -194q-139 0 -213 49t-79 142h148q8 -87 146 -87q72 0 111.5 32t39.5 91v15l40 131h-18q-48 -151 -210 -151q-151 0 -216 96q-41 58 -41 144q0 85 41 144q65 95 216 95q162 0 210 -150h18l-39 132h148v-414
q0 -269 -302 -269zM347 134q89 0 128 53q22 33 22 81t-22 80q-37 53 -128 53t-127 -53q-23 -33 -23 -80q0 -46 23 -81q37 -53 127 -53z" />
    <glyph glyph-name="uni01EA" unicode="&#x1ea;" horiz-adv-x="971" 
d="M906 484q22 -64 22 -134q0 -74 -22 -134q-29 -81 -97.5 -137.5t-168.5 -81.5q-54 -20 -54 -52q0 -46 102 -46v-91q-210 0 -210 113q0 33 22 58h-14q-159 0 -269.5 62.5t-151.5 174.5q-22 60 -22 134t22 134q40 111 150.5 174t270.5 63q159 0 269.5 -63t150.5 -174z
M749 259q15 42 15 91t-15 91q-26 71 -94.5 112t-168.5 41t-169 -41t-95 -112q-15 -42 -15 -91t15 -91q26 -71 95 -112t169 -41q99 0 168 40.5t95 112.5z" />
    <glyph glyph-name="uni01EB" unicode="&#x1eb;" horiz-adv-x="719" 
d="M638 389q42 -62 42 -145q0 -82 -42 -144q-55 -81 -173 -107q-44 -18 -44 -48q0 -46 102 -46v-91q-210 0 -210 113q0 34 25 61q-183 8 -256 118q-43 61 -43 144q0 84 43 145q38 56 110 87t168 31t167.5 -31t110.5 -87zM502 156q25 36 25 88t-25 89q-42 61 -142 61
q-101 0 -143 -61q-25 -37 -25 -89t25 -88q41 -62 143 -62q101 0 142 62z" />
    <glyph glyph-name="AEacute" unicode="&#x1fc;" horiz-adv-x="1040" 
d="M645 865h164l-106 -110h-135zM977 700v-125h-327v-163h316v-123h-316v-164h327v-125h-477v224h-200l-114 -224h-169l372 700h588zM467 551l-105 -205h138v273h-18z" />
    <glyph glyph-name="aeacute" unicode="&#x1fd;" horiz-adv-x="1060" 
d="M541 696h165l-111 -147h-125zM1021 249v-39h-423q5 -43 24 -71q38 -55 127 -55q98 1 129 66h143q-17 -76 -89.5 -122t-180.5 -46q-178 0 -252 109q-67 -109 -259 -109q-100 0 -147 47q-37 37 -37 95q0 60 37 97q47 47 150 54l207 11v7v19q0 89 -126 89q-60 0 -92.5 -22.5
t-33.5 -61.5v-2h-152v2q3 89 75.5 139.5t201.5 50.5q150 0 211 -72q78 72 209 72q133 0 205.5 -67.5t72.5 -190.5zM601 298h278q-6 108 -136 108q-86 -2 -121 -52q-15 -22 -21 -56zM286 79q67 0 115 36t49 89l-166 -12q-44 -4 -64 -24q-14 -13 -14 -36q0 -21 13 -34
q19 -19 67 -19z" />
    <glyph glyph-name="Oslashacute" unicode="&#x1fe;" horiz-adv-x="971" 
d="M496 865h164l-106 -110h-135zM935 720l-114 -110q58 -52 85 -126q22 -64 22 -134q0 -74 -22 -134q-40 -111 -150 -174t-270 -63q-152 0 -260 57l-58 -56h-137l116 112q-56 52 -82 124q-22 60 -22 134t22 134q40 111 150.5 174t270.5 63q149 0 256 -56l57 55h136zM222 259
q12 -34 35 -61l379 365q-64 31 -150 31q-100 0 -169 -41t-95 -112q-15 -42 -15 -91t15 -91zM749 259q15 42 15 91t-15 91q-14 36 -37 64l-380 -366q68 -33 154 -33q99 0 168 40.5t95 112.5z" />
    <glyph glyph-name="oslashacute" unicode="&#x1ff;" horiz-adv-x="719" 
d="M369 696h165l-111 -147h-125zM697 507l-89 -83q16 -14 30 -35q42 -62 42 -145q0 -82 -42 -144q-38 -57 -110 -87.5t-168 -30.5q-111 0 -189 40l-43 -40h-105l89 82q-16 16 -30 36q-43 61 -43 144q0 84 43 145q38 56 110 87t168 31q110 0 187 -40l44 40h106zM192 244
q0 -50 23 -85l235 217q-38 18 -90 18q-101 0 -143 -61q-25 -37 -25 -89zM502 156q25 36 25 88q0 50 -23 85l-235 -217q37 -18 91 -18q101 0 142 62z" />
    <glyph glyph-name="uni0218" unicode="&#x218;" horiz-adv-x="762" 
d="M376 -21q-151 0 -237.5 62.5t-86.5 174.5v13h159v-9q0 -59 45 -90.5t123 -31.5q119 0 150 55q11 20 11 43q0 21 -8 36q-23 39 -114 51l-140 17q-148 20 -194 101q-24 41 -24 96q0 56 26 102q34 58 111 90t187 32q152 0 237 -61.5t85 -173.5v-13h-159v9q0 59 -43.5 89.5
t-122.5 30.5q-119 0 -150 -55q-11 -19 -11 -42q0 -21 9 -35q22 -39 114 -51l141 -17q147 -20 192 -101q24 -42 24 -98q0 -57 -26 -103q-33 -58 -110 -89.5t-188 -31.5zM300 -189v50q61 0 61 24h-59v75h150v-50q0 -47 -39.5 -73t-112.5 -26z" />
    <glyph glyph-name="uni0219" unicode="&#x219;" horiz-adv-x="619" 
d="M305 -18q-121 0 -189 44.5t-68 125.5v4h143v-4q0 -72 117 -72q73 0 96 23q12 12 12 32q0 22 -16.5 34.5t-59.5 18.5l-124 16q-161 24 -161 145q0 57 39 96q62 62 217 62q123 0 190 -45.5t67 -126.5v-4h-144v4q0 74 -118 74q-72 0 -95 -23q-13 -13 -13 -31q0 -41 79 -52
l114 -14q90 -15 130 -50.5t40 -97.5q0 -59 -38 -97q-64 -62 -218 -62zM228 -189v50q61 0 61 24h-59v75h150v-50q0 -47 -39.5 -73t-112.5 -26z" />
    <glyph glyph-name="uni021A" unicode="&#x21a;" horiz-adv-x="718" 
d="M13 700h691v-127h-266v-573h-158v573h-267v127zM343 -115h-59v75h150v-50q0 -47 -39.5 -73t-112.5 -26v50q61 0 61 24z" />
    <glyph glyph-name="uni021B" unicode="&#x21b;" horiz-adv-x="628" 
d="M589 489v-107h-314v-206q0 -83 82 -83q44 0 64 22.5t20 70.5v60h148v-63q0 -95 -61 -148t-172 -53q-231 0 -231 192v208h-111v107h111v81l150 60v-141h314zM332 -115h-59v75h150v-50q0 -47 -39.5 -73t-112.5 -26v50q61 0 61 24z" />
    <glyph glyph-name="uni0232" unicode="&#x232;" horiz-adv-x="789" 
d="M219 853h349v-84h-349v84zM598 700h180l-306 -449v-251h-155v250l-306 450h180l189 -288l6 -51h17l6 51z" />
    <glyph glyph-name="uni0233" unicode="&#x233;" horiz-adv-x="677" 
d="M145 666h388v-81h-388v81zM361 129l137 360h165l-220 -523q-34 -85 -86 -122.5t-139 -37.5q-95 0 -151 38t-56 107v10h150v-7q0 -21 16 -33t43 -12q56 0 79 58l30 78h-102l-211 444h165l161 -360h19z" />
    <glyph glyph-name="uni0237" unicode="&#x237;" horiz-adv-x="339" 
d="M41 -194q-191 0 -210 153h145q6 -46 63 -46q68 0 68 80v496h150v-481q0 -96 -56.5 -149t-159.5 -53z" />
    <glyph glyph-name="uni0259" unicode="&#x259;" horiz-adv-x="674" 
d="M592 398q43 -61 43 -152q0 -88 -46 -154q-76 -110 -256 -110q-140 0 -216.5 67.5t-76.5 190.5v39h447q-5 43 -24 71q-38 56 -136 54q-105 0 -138 -65h-150q18 76 95 122t191 46q193 0 267 -109zM333 83q93 2 131 56q15 22 20 52h-296q8 -108 145 -108z" />
    <glyph glyph-name="uni0272" unicode="&#x272;" horiz-adv-x="720" 
d="M430 507q108 0 163.5 -55t55.5 -161v-291h-149v271q0 118 -123 118q-68 0 -107 -39.5t-39 -107.5v-242h1v-33q0 -76 -54.5 -117.5t-160.5 -41.5v95q65 0 65 67v519h149l-32 -139h18q51 157 213 157z" />
    <glyph glyph-name="uni02BC" unicode="&#x2bc;" horiz-adv-x="282" 
d="M52 422v84q44 0 63.5 16.5t19.5 56.5h-83v147h176v-127q0 -177 -176 -177z" />
    <glyph glyph-name="circumflex" unicode="&#x2c6;" horiz-adv-x="600" 
d="M260 549h-147l155 146h138l155 -146h-146l-77 83z" />
    <glyph glyph-name="caron" unicode="&#x2c7;" horiz-adv-x="600" 
d="M406 549h-138l-155 147h147l78 -84l77 84h146z" />
    <glyph glyph-name="breve" unicode="&#x2d8;" horiz-adv-x="600" 
d="M255 549q-86 0 -141 37.5t-55 109.5h109q0 -34 24.5 -52.5t62.5 -18.5q39 0 63.5 18t24.5 53h108q0 -73 -54.5 -110t-141.5 -37z" />
    <glyph glyph-name="dotaccent" unicode="&#x2d9;" horiz-adv-x="600" 
d="M135 561h-162v125h162v-125z" />
    <glyph glyph-name="ring" unicode="&#x2da;" horiz-adv-x="600" 
d="M306 550q-60 0 -98 30.5t-38 81.5q0 50 38 81t98 31t98 -31t38 -81q0 -51 -38 -81.5t-98 -30.5zM306 615q26 0 41.5 12.5t15.5 34.5q0 21 -15.5 34t-41.5 13q-27 0 -42.5 -13t-15.5 -34q0 -22 15.5 -34.5t42.5 -12.5z" />
    <glyph glyph-name="ogonek" unicode="&#x2db;" horiz-adv-x="600" 
d="M401 -102v-91q-210 0 -210 113q0 95 182 124l21 -36q-52 -14 -73.5 -28t-21.5 -36q0 -46 102 -46z" />
    <glyph glyph-name="tilde" unicode="&#x2dc;" horiz-adv-x="600" 
d="M365 566q-33 0 -80 19.5t-79 19.5q-19 0 -34.5 -10.5t-17.5 -25.5h-82q0 65 37.5 93t89.5 28q33 0 80 -19.5t79 -19.5q20 0 35.5 10t16.5 27h82q0 -64 -38 -93t-89 -29z" />
    <glyph glyph-name="hungarumlaut" unicode="&#x2dd;" horiz-adv-x="600" 
d="M184 550h-98l67 142h138zM399 550h-97l66 142h138z" />
    <glyph glyph-name="gravecomb" unicode="&#x300;" horiz-adv-x="0" 
d="M-50 549h-125l-111 147h165z" />
    <glyph glyph-name="acutecomb" unicode="&#x301;" horiz-adv-x="0" 
d="M-161 549h-125l71 147h165z" />
    <glyph glyph-name="uni0302" unicode="&#x302;" horiz-adv-x="0" 
d="M-351 549h-147l155 146h139l154 -146h-146l-77 83z" />
    <glyph glyph-name="tildecomb" unicode="&#x303;" horiz-adv-x="0" 
d="M-177 566q-33 0 -80 19.5t-79 19.5q-19 0 -35 -10.5t-17 -25.5h-82q0 65 37.5 93t89.5 28q33 0 80 -19.5t79 -19.5q20 0 35 10t17 27h82q0 -64 -38 -93t-89 -29z" />
    <glyph glyph-name="uni0304" unicode="&#x304;" horiz-adv-x="0" 
d="M-50 585h-388v81h388v-81z" />
    <glyph glyph-name="uni0306" unicode="&#x306;" horiz-adv-x="0" 
d="M-245 549q-87 0 -141.5 37.5t-54.5 109.5h108q0 -34 25 -52.5t63 -18.5q39 0 63.5 18t24.5 53h107q0 -72 -54 -109.5t-141 -37.5z" />
    <glyph glyph-name="uni0307" unicode="&#x307;" horiz-adv-x="0" 
d="M-50 561h-162v125h162v-125z" />
    <glyph glyph-name="uni0308" unicode="&#x308;" horiz-adv-x="0" 
d="M-280 564h-137v111h137v-111zM-50 564h-137v111h137v-111z" />
    <glyph glyph-name="uni030A" unicode="&#x30a;" horiz-adv-x="0" 
d="M-186 550q-60 0 -98 30.5t-38 81.5q0 50 38 81t98 31t98 -31t38 -81q0 -51 -38 -81.5t-98 -30.5zM-186 615q27 0 42.5 12.5t15.5 34.5q0 21 -15.5 34t-42.5 13t-42 -13t-15 -34q0 -22 15 -34.5t42 -12.5z" />
    <glyph glyph-name="uni030B" unicode="&#x30b;" horiz-adv-x="0" 
d="M-373 550h-97l66 142h139zM-157 550h-97l65 142h139z" />
    <glyph glyph-name="uni030C" unicode="&#x30c;" horiz-adv-x="0" 
d="M-204 549h-139l-155 147h147l78 -84l77 84h146z" />
    <glyph glyph-name="uni0312" unicode="&#x312;" horiz-adv-x="0" 
d="M-52 550h-154v55q0 60 39.5 92t116.5 32v-58q-58 0 -58 -38h56v-83z" />
    <glyph glyph-name="dotbelowcomb" unicode="&#x323;" horiz-adv-x="0" 
d="M-50 -180h-160v123h160v-123z" />
    <glyph glyph-name="uni0326" unicode="&#x326;" horiz-adv-x="0" 
d="M-202 -189v50q61 0 61 24h-59v75h150v-50q0 -47 -39.5 -73t-112.5 -26z" />
    <glyph glyph-name="uni0327" unicode="&#x327;" horiz-adv-x="0" 
d="M-187 -194q-62 0 -106.5 25.5t-48.5 81.5h89q8 -41 61 -41q49 0 49 28q0 10 -10.5 17.5t-28.5 7.5l-24 30l18 45h84l-12 -32q66 -18 66 -71q0 -40 -37 -65.5t-100 -25.5z" />
    <glyph glyph-name="uni0328" unicode="&#x328;" horiz-adv-x="0" 
d="M-50 -102v-91q-210 0 -210 113q0 95 182 124l21 -36q-52 -14 -73.5 -28t-21.5 -36q0 -46 102 -46z" />
    <glyph glyph-name="uni0394" unicode="&#x394;" horiz-adv-x="855" 
d="M308 700h239l292 -700h-822zM409 560l-172 -436h381l-172 436l-9 59h-18z" />
    <glyph glyph-name="uni03A9" unicode="&#x3a9;" horiz-adv-x="939" 
d="M896 416q0 -90 -72 -166t-196 -107v-17h268v-126h-386v187q113 27 168 83t55 129v1q0 85 -72 139.5t-192 54.5q-119 0 -191.5 -54.5t-72.5 -139.5v-1q0 -73 55.5 -129t168.5 -83v-187h-386v126h267v17q-124 31 -195.5 107t-71.5 166v1q0 135 115.5 219.5t310.5 84.5
t311 -84.5t116 -219.5v-1z" />
    <glyph glyph-name="uni03BC" unicode="&#x3bc;" horiz-adv-x="721" 
d="M490 246v243h149v-489h-149l32 139h-18q-54 -157 -208 -157q-68 0 -113 22l32 -184h-133v669h149v-271q0 -118 118 -118q66 0 103.5 39t37.5 107z" />
    <glyph glyph-name="pi" unicode="&#x3c0;" horiz-adv-x="723" 
d="M691 489v-111h-120v-208q0 -69 86 -69v-115q-124 0 -177 42.5t-53 135.5v214h-161v-378h-144v378h-103v111h672z" />
    <glyph glyph-name="uni0E3F" unicode="&#xe3f;" horiz-adv-x="771" 
d="M539 360v-19q112 -6 153 -78q21 -36 21 -81q0 -48 -22 -87q-54 -95 -219 -95h-36v-80h-113v80h-232v700h232v80h113v-80h36q165 0 219 -95q22 -39 22 -87q0 -44 -21 -81q-41 -71 -153 -77zM441 581h-196v-175h196q74 0 98 42q12 18 12 45t-11 47q-26 41 -99 41zM540 160
q11 20 11 47t-12 45q-24 42 -98 42h-196v-175h196q73 0 99 41z" />
    <glyph glyph-name="Wgrave" unicode="&#x1e80;" horiz-adv-x="1193" 
d="M662 755h-134l-113 110h173zM456 0h-245l-181 700h165l132 -539l7 -81h18l6 81l126 539h225l126 -539l6 -81h18l8 81l131 539h165l-181 -700h-245l-125 539l-7 72h-17l-7 -72z" />
    <glyph glyph-name="wgrave" unicode="&#x1e81;" horiz-adv-x="1008" 
d="M567 549h-125l-111 147h165zM398 0h-222l-150 489h154l101 -363l4 -51h19l4 51l91 363h212l89 -363l4 -51h19l4 51l101 363h154l-150 -489h-222l-92 366l-4 47h-20l-4 -47z" />
    <glyph glyph-name="Wacute" unicode="&#x1e82;" horiz-adv-x="1193" 
d="M663 755h-135l77 110h164zM456 0h-245l-181 700h165l132 -539l7 -81h18l6 81l126 539h225l126 -539l6 -81h18l8 81l131 539h165l-181 -700h-245l-125 539l-7 72h-17l-7 -72z" />
    <glyph glyph-name="wacute" unicode="&#x1e83;" horiz-adv-x="1008" 
d="M568 549h-125l71 147h165zM398 0h-222l-150 489h154l101 -363l4 -51h19l4 51l91 363h212l89 -363l4 -51h19l4 51l101 363h154l-150 -489h-222l-92 366l-4 47h-20l-4 -47z" />
    <glyph glyph-name="Wdieresis" unicode="&#x1e84;" horiz-adv-x="1193" 
d="M550 755h-143v117h143v-117zM787 755h-143v117h143v-117zM456 0h-245l-181 700h165l132 -539l7 -81h18l6 81l126 539h225l126 -539l6 -81h18l8 81l131 539h165l-181 -700h-245l-125 539l-7 72h-17l-7 -72z" />
    <glyph glyph-name="wdieresis" unicode="&#x1e85;" horiz-adv-x="1008" 
d="M457 564h-137v111h137v-111zM687 564h-137v111h137v-111zM398 0h-222l-150 489h154l101 -363l4 -51h19l4 51l91 363h212l89 -363l4 -51h19l4 51l101 363h154l-150 -489h-222l-92 366l-4 47h-20l-4 -47z" />
    <glyph glyph-name="uni1E9E" unicode="&#x1e9e;" horiz-adv-x="828" 
d="M249 0h-158v700h666v-182l-224 -128v-19h48q125 -2 174 -88q22 -39 22 -85q0 -59 -25 -99q-27 -48 -81 -73.5t-124 -25.5h-192v119h156q71 0 96 40q10 17 10 46q0 20 -8 38q-22 39 -98 39h-112v154l211 127v18h-361v-581z" />
    <glyph glyph-name="uni1EA0" unicode="&#x1ea0;" horiz-adv-x="860" 
d="M548 700l295 -700h-171l-87 217h-311l-87 -217h-170l295 700h236zM411 557l-86 -215h209l-86 215l-9 66h-18zM502 -180h-160v123h160v-123z" />
    <glyph glyph-name="uni1EA1" unicode="&#x1ea1;" horiz-adv-x="670" 
d="M327 507q273 0 273 -199v-308h-147l31 135h-18q-42 -153 -228 -153q-98 0 -145 47q-37 37 -37 95q0 60 37 97q48 48 150 54l207 11v26q0 89 -126 89q-34 0 -59.5 -8t-37.5 -18t-19.5 -23.5t-8.5 -21t-1 -13.5v-2h-152v2q1 12 3 22.5t9.5 36t26 45.5t47.5 41t79.5 33
t115.5 12zM290 79q79 0 118.5 40.5t41.5 84.5l-162 -12q-45 -5 -64 -24q-14 -13 -14 -36q0 -21 13 -34q19 -19 67 -19zM430 -180h-160v123h160v-123z" />
    <glyph glyph-name="uni1EB8" unicode="&#x1eb8;" horiz-adv-x="698" 
d="M635 0h-544v700h544v-125h-386v-163h376v-122h-376v-165h386v-125zM457 -180h-160v123h160v-123z" />
    <glyph glyph-name="uni1EB9" unicode="&#x1eb9;" horiz-adv-x="674" 
d="M485 150h150q-18 -76 -95 -122t-191 -46q-193 0 -267 109q-43 61 -43 152q0 88 46 154q76 110 256 110q140 0 216.5 -67.5t76.5 -190.5v-39h-447q5 -43 24 -71q38 -56 136 -54q105 0 138 65zM341 406q-93 -2 -131 -56q-15 -22 -20 -52h296q-8 108 -145 108zM428 -180
h-160v123h160v-123z" />
    <glyph glyph-name="uni1EBC" unicode="&#x1ebc;" horiz-adv-x="698" 
d="M448 753q-33 0 -80 19.5t-79 19.5q-19 0 -34.5 -10.5t-17.5 -26.5h-82q0 65 38 93.5t89 28.5q33 0 80 -19.5t79 -19.5q20 0 35.5 9.5t17.5 26.5h81q0 -64 -38 -92.5t-89 -28.5zM635 0h-544v700h544v-125h-386v-163h376v-122h-376v-165h386v-125z" />
    <glyph glyph-name="uni1EBD" unicode="&#x1ebd;" horiz-adv-x="674" 
d="M270 605q-19 0 -35 -10.5t-17 -25.5h-82q0 65 37.5 93t89.5 28q33 0 80 -19.5t79 -19.5q20 0 35 10t17 27h82q0 -64 -38 -93t-89 -29q-33 0 -80 19.5t-79 19.5zM485 150h150q-18 -76 -95 -122t-191 -46q-193 0 -267 109q-43 61 -43 152q0 88 46 154q76 110 256 110
q140 0 216.5 -67.5t76.5 -190.5v-39h-447q5 -43 24 -71q38 -56 136 -54q105 0 138 65zM341 406q-93 -2 -131 -56q-15 -22 -20 -52h296q-8 108 -145 108z" />
    <glyph glyph-name="uni1ECA" unicode="&#x1eca;" horiz-adv-x="340" 
d="M249 0h-158v700h158v-700zM250 -180h-160v123h160v-123z" />
    <glyph glyph-name="uni1ECB" unicode="&#x1ecb;" horiz-adv-x="313" 
d="M238 561h-162v125h162v-125zM231 0h-149v489h149v-489zM237 -180h-160v123h160v-123z" />
    <glyph glyph-name="uni1ECC" unicode="&#x1ecc;" horiz-adv-x="971" 
d="M486 -21q-159 0 -269.5 62.5t-151.5 174.5q-22 60 -22 134t22 134q40 111 150.5 174t270.5 63q159 0 269.5 -63t150.5 -174q22 -64 22 -134q0 -74 -22 -134q-40 -111 -150 -174t-270 -63zM486 106q99 0 168 40.5t95 112.5q15 42 15 91t-15 91q-26 71 -94.5 112t-168.5 41
t-169 -41t-95 -112q-15 -42 -15 -91t15 -91q26 -71 95 -112t169 -41zM567 -180h-160v123h160v-123z" />
    <glyph glyph-name="uni1ECD" unicode="&#x1ecd;" horiz-adv-x="719" 
d="M360 -18q-199 0 -278 118q-43 61 -43 144q0 84 43 145q38 56 110 87t168 31t167.5 -31t110.5 -87q42 -62 42 -145q0 -82 -42 -144q-38 -57 -110 -87.5t-168 -30.5zM360 94q101 0 142 62q25 36 25 88t-25 89q-42 61 -142 61q-101 0 -143 -61q-25 -37 -25 -89t25 -88
q41 -62 143 -62zM440 -180h-160v123h160v-123z" />
    <glyph glyph-name="uni1EE4" unicode="&#x1ee4;" horiz-adv-x="855" 
d="M428 -21q-162 0 -254.5 80t-92.5 220v421h161v-416q0 -82 50 -129t136 -47t135.5 47t49.5 129v416h160v-421q0 -140 -92.5 -220t-252.5 -80zM508 -180h-160v123h160v-123z" />
    <glyph glyph-name="uni1EE5" unicode="&#x1ee5;" horiz-adv-x="710" 
d="M285 -18q-214 0 -214 216v291h149v-271q0 -118 118 -118q66 0 103 39t37 107v243h150v-489h-150l33 139h-18q-54 -157 -208 -157zM456 -180h-160v123h160v-123z" />
    <glyph glyph-name="Ygrave" unicode="&#x1ef2;" horiz-adv-x="789" 
d="M386 865l74 -110h-134l-113 110h173zM598 700h180l-306 -449v-251h-155v250l-306 450h180l189 -288l6 -51h17l6 51z" />
    <glyph glyph-name="ygrave" unicode="&#x1ef3;" horiz-adv-x="677" 
d="M330 696l71 -147h-125l-111 147h165zM361 129l137 360h165l-220 -523q-34 -85 -86 -122.5t-139 -37.5q-95 0 -151 38t-56 107v10h150v-7q0 -21 16 -33t43 -12q56 0 79 58l30 78h-102l-211 444h165l161 -360h19z" />
    <glyph glyph-name="uni1EF8" unicode="&#x1ef8;" horiz-adv-x="789" 
d="M318 792q-19 0 -34.5 -10.5t-17.5 -26.5h-82q0 65 38 93.5t89 28.5q33 0 80 -19.5t79 -19.5q20 0 35.5 9.5t17.5 26.5h81q0 -64 -38 -92.5t-89 -28.5q-33 0 -80 19.5t-79 19.5zM598 700h180l-306 -449v-251h-155v250l-306 450h180l189 -288l6 -51h17l6 51z" />
    <glyph glyph-name="uni1EF9" unicode="&#x1ef9;" horiz-adv-x="677" 
d="M263 605q-19 0 -35 -10.5t-17 -25.5h-82q0 65 37.5 93t89.5 28q33 0 80 -19.5t79 -19.5q20 0 35 10t17 27h82q0 -64 -38 -93t-89 -29q-33 0 -80 19.5t-79 19.5zM361 129l137 360h165l-220 -523q-34 -85 -86 -122.5t-139 -37.5q-95 0 -151 38t-56 107v10h150v-7
q0 -21 16 -33t43 -12q56 0 79 58l30 78h-102l-211 444h165l161 -360h19z" />
    <glyph glyph-name="uni2000" unicode="&#x2000;" horiz-adv-x="600" 
 />
    <glyph glyph-name="uni2001" unicode="&#x2001;" horiz-adv-x="1200" 
 />
    <glyph glyph-name="uni2002" unicode="&#x2002;" horiz-adv-x="600" 
 />
    <glyph glyph-name="uni2003" unicode="&#x2003;" horiz-adv-x="1200" 
 />
    <glyph glyph-name="uni2004" unicode="&#x2004;" horiz-adv-x="400" 
 />
    <glyph glyph-name="uni2005" unicode="&#x2005;" horiz-adv-x="300" 
 />
    <glyph glyph-name="uni2006" unicode="&#x2006;" horiz-adv-x="200" 
 />
    <glyph glyph-name="uni2007" unicode="&#x2007;" 
 />
    <glyph glyph-name="uni2008" unicode="&#x2008;" horiz-adv-x="274" 
 />
    <glyph glyph-name="uni2009" unicode="&#x2009;" horiz-adv-x="150" 
 />
    <glyph glyph-name="uni200A" unicode="&#x200a;" horiz-adv-x="50" 
 />
    <glyph glyph-name="uni200B" unicode="&#x200b;" horiz-adv-x="0" 
 />
    <glyph glyph-name="uni200C" unicode="&#x200c;" horiz-adv-x="0" 
 />
    <glyph glyph-name="uni200D" unicode="&#x200d;" horiz-adv-x="0" 
 />
    <glyph glyph-name="endash" unicode="&#x2013;" horiz-adv-x="600" 
d="M600 237h-600v114h600v-114z" />
    <glyph glyph-name="emdash" unicode="&#x2014;" horiz-adv-x="1200" 
d="M1200 237h-1200v114h1200v-114z" />
    <glyph glyph-name="quoteleft" unicode="&#x2018;" horiz-adv-x="278" 
d="M225 721v-79q-44 0 -62.5 -15.5t-18.5 -52.5h81v-138h-173v119q0 166 173 166z" />
    <glyph glyph-name="quoteright" unicode="&#x2019;" horiz-adv-x="278" 
d="M52 432v80q44 0 62.5 15.5t18.5 52.5h-81v138h173v-119q0 -167 -173 -167z" />
    <glyph glyph-name="quotesinglbase" unicode="&#x201a;" horiz-adv-x="268" 
d="M47 -148v80q44 0 62.5 15.5t18.5 52.5h-81v138h173v-119q0 -167 -173 -167z" />
    <glyph glyph-name="quotedblleft" unicode="&#x201c;" horiz-adv-x="499" 
d="M225 721v-79q-44 0 -62.5 -15.5t-18.5 -52.5h81v-138h-173v119q0 166 173 166zM446 721v-79q-44 0 -62.5 -15.5t-18.5 -52.5h81v-138h-173v119q0 166 173 166z" />
    <glyph glyph-name="quotedblright" unicode="&#x201d;" horiz-adv-x="499" 
d="M52 432v80q44 0 62.5 15.5t18.5 52.5h-81v138h173v-119q0 -167 -173 -167zM273 432v80q44 0 62.5 15.5t18.5 52.5h-81v138h173v-119q0 -167 -173 -167z" />
    <glyph glyph-name="quotedblbase" unicode="&#x201e;" horiz-adv-x="489" 
d="M47 -148v80q44 0 62.5 15.5t18.5 52.5h-81v138h173v-119q0 -167 -173 -167zM268 -148v80q44 0 62.5 15.5t18.5 52.5h-81v138h173v-119q0 -167 -173 -167z" />
    <glyph glyph-name="dagger" unicode="&#x2020;" horiz-adv-x="670" 
d="M397 517h227v-112h-227v-515h-124v515h-226v112h226v209h124v-209z" />
    <glyph glyph-name="daggerdbl" unicode="&#x2021;" horiz-adv-x="671" 
d="M624 517v-112h-227v-201h227v-111h-227v-203h-124v203h-226v111h226v201h-226v112h226v209h124v-209h227z" />
    <glyph glyph-name="bullet" unicode="&#x2022;" horiz-adv-x="386" 
d="M313 147h-239v233h239v-233z" />
    <glyph glyph-name="ellipsis" unicode="&#x2026;" horiz-adv-x="851" 
d="M227 0h-180v151h180v-151zM516 0h-180v151h180v-151zM804 0h-180v151h180v-151z" />
    <glyph glyph-name="uni202F" unicode="&#x202f;" horiz-adv-x="150" 
 />
    <glyph glyph-name="perthousand" unicode="&#x2030;" horiz-adv-x="1229" 
d="M243 368q-90 0 -146.5 49t-56.5 124q0 74 57 123.5t146 49.5t145.5 -49.5t56.5 -123.5q0 -75 -56 -124t-146 -49zM205 -12h-117l640 724h117zM243 453q46 0 74 24.5t28 63.5t-28 63.5t-74 24.5q-47 0 -75 -24.5t-28 -63.5t28 -63.5t75 -24.5zM681 -14q-85 0 -139.5 49.5
t-54.5 123.5q0 75 54.5 124t139.5 49q92 0 152 -62h11q59 62 151 62q85 0 139.5 -49t54.5 -124q0 -74 -54.5 -123.5t-139.5 -49.5q-89 0 -151 62h-11q-65 -62 -152 -62zM690 71q46 0 74 24.5t28 63.5t-28 63.5t-74 24.5q-47 0 -75 -24.5t-28 -63.5t28 -63.5t75 -24.5z
M987 71q46 0 74 24.5t28 63.5t-28 63.5t-74 24.5t-74 -24.5t-28 -63.5t28 -63.5t74 -24.5z" />
    <glyph glyph-name="minute" unicode="&#x2032;" horiz-adv-x="339" 
d="M157 451h-104l84 258h148z" />
    <glyph glyph-name="second" unicode="&#x2033;" horiz-adv-x="548" 
d="M157 451h-104l84 258h148zM366 451h-104l84 258h149z" />
    <glyph glyph-name="guilsinglleft" unicode="&#x2039;" horiz-adv-x="387" 
d="M310 50h-127v46q0 51 -27 80.5t-74 29.5h-12v131h12q47 0 74 29.5t27 79.5v46h127v-46q0 -81 -35.5 -121.5t-109.5 -43.5v-19q74 -5 109.5 -45.5t35.5 -120.5v-46z" />
    <glyph glyph-name="guilsinglright" unicode="&#x203a;" horiz-adv-x="387" 
d="M77 492h127v-46q0 -50 27 -79.5t74 -29.5h12v-131h-12q-47 0 -74 -29.5t-27 -80.5v-46h-127v46q0 81 35.5 121.5t109.5 44.5v18q-74 6 -109.5 46t-35.5 120v46z" />
    <glyph glyph-name="fraction" unicode="&#x2044;" horiz-adv-x="184" 
d="M-173 -12h-116l647 724h115z" />
    <glyph glyph-name="uni2070" unicode="&#x2070;" horiz-adv-x="571" 
d="M285 287q-169 0 -218 135q-18 52 -18 123q0 72 18 123q49 135 218 135q170 0 218 -135q19 -51 19 -123q0 -69 -19 -123q-47 -135 -218 -135zM285 382q79 0 104 67q13 35 13 96t-13 96q-23 67 -104 67q-79 0 -104 -67q-12 -39 -12 -96q0 -60 13 -96q25 -67 103 -67z" />
    <glyph glyph-name="uni2074" unicode="&#x2074;" horiz-adv-x="532" 
d="M406 550h104v-95h-104v-155h-114v155h-254v147l204 188h164v-240zM122 563v-13h170v155h-13z" />
    <glyph glyph-name="uni2075" unicode="&#x2075;" horiz-adv-x="504" 
d="M253 287q-91 0 -147.5 41.5t-58.5 109.5h116q2 -26 27 -43.5t63 -17.5q51 0 75 24q20 22 20 53q0 30 -19 51q-22 22 -68 22q-54 0 -73 -32h-125v295h401v-96h-293v-136h13q34 54 119 54q79 0 120 -43q42 -42 42 -114q0 -70 -42 -112q-56 -56 -170 -56z" />
    <glyph glyph-name="uni2076" unicode="&#x2076;" horiz-adv-x="530" 
d="M273 287q-161 0 -207 126q-17 48 -17 111q0 85 21 145q48 134 215 134q91 0 146.5 -43.5t56.5 -111.5h-117q-1 30 -24.5 47t-65.5 17q-120 0 -120 -173h14q41 72 140 72q87 0 131 -46q42 -42 42 -109t-45 -112q-55 -57 -170 -57zM273 375q55 0 82 27q18 20 18 49
q0 30 -18 48q-26 26 -82 26q-57 0 -82 -27q-19 -17 -19 -47t19 -49q29 -27 82 -27z" />
    <glyph glyph-name="uni2077" unicode="&#x2077;" horiz-adv-x="479" 
d="M217 300h-134l262 380v14h-319v96h418v-149z" />
    <glyph glyph-name="uni2078" unicode="&#x2078;" horiz-adv-x="515" 
d="M258 287q-125 0 -178 53q-35 35 -35 87q0 45 29 74q34 32 94 38v14q-62 3 -94 37q-29 29 -29 73q0 50 35 87q53 53 178 53q124 0 177 -53q35 -35 35 -87q0 -44 -29 -73q-33 -33 -95 -37v-14q61 -5 95 -38q29 -29 29 -74q0 -52 -35 -87q-53 -53 -177 -53zM258 591
q60 0 83 23q15 15 15 39t-15 39q-22 24 -83 24t-83 -24q-16 -16 -16 -39q0 -24 15 -39q23 -23 84 -23zM258 374q61 0 83 24q15 17 15 39q0 25 -15 40q-21 23 -83 23q-61 0 -84 -23q-15 -13 -15 -40q0 -24 16 -39q22 -24 83 -24z" />
    <glyph glyph-name="uni2079" unicode="&#x2079;" horiz-adv-x="530" 
d="M245 287q-92 0 -146.5 42.5t-55.5 112.5h116q1 -30 24.5 -47t65.5 -17q120 0 120 173h-13q-41 -73 -140 -73q-85 0 -132 47q-41 41 -41 109t44 112q57 57 170 57q160 0 207 -126q17 -47 17 -111q0 -88 -20 -144q-49 -135 -216 -135zM257 565q56 0 82 26q19 19 19 48
q0 30 -19 49q-27 27 -82 27q-56 0 -81 -27q-19 -19 -19 -49q0 -29 19 -48q24 -26 81 -26z" />
    <glyph glyph-name="uni207A" unicode="&#x207a;" horiz-adv-x="532" 
d="M304 566h165v-75h-165v-145h-77v145h-164v75h164v144h77v-144z" />
    <glyph glyph-name="uni207B" unicode="&#x207b;" horiz-adv-x="532" 
d="M469 491h-406v75h406v-75z" />
    <glyph glyph-name="uni207C" unicode="&#x207c;" horiz-adv-x="532" 
d="M469 577h-406v75h406v-75zM469 405h-406v75h406v-75z" />
    <glyph glyph-name="uni207D" unicode="&#x207d;" horiz-adv-x="337" 
d="M321 266v-83q-115 28 -183.5 126t-68.5 229t68.5 229t183.5 128v-83q-74 -32 -116 -106t-42 -168t42 -168t116 -104z" />
    <glyph glyph-name="uni207E" unicode="&#x207e;" horiz-adv-x="335" 
d="M14 812v83q114 -28 183 -126.5t69 -229.5t-69 -229t-183 -127v83q74 30 116 104t42 169t-42 169t-116 104z" />
    <glyph glyph-name="uni2080" unicode="&#x2080;" horiz-adv-x="571" 
d="M285 -103q-169 0 -218 135q-18 52 -18 123q0 72 18 123q49 135 218 135q170 0 218 -135q19 -51 19 -123q0 -69 -19 -123q-47 -135 -218 -135zM285 -8q79 0 104 67q13 35 13 96t-13 96q-23 67 -104 67q-79 0 -104 -67q-12 -39 -12 -96q0 -60 13 -96q25 -67 103 -67z" />
    <glyph glyph-name="uni2081" unicode="&#x2081;" horiz-adv-x="429" 
d="M355 -90h-115v388h-14q-8 -63 -41 -90.5t-96 -27.5h-55v116h52q57 0 88.5 27t31.5 77h149v-490z" />
    <glyph glyph-name="uni2082" unicode="&#x2082;" horiz-adv-x="497" 
d="M454 -90h-398v153l199 100q44 23 62.5 45t18.5 49q0 26 -15 41q-21 21 -71 21q-95 0 -98 -85v-9h-116v11q1 82 57.5 129.5t155.5 47.5q113 0 167 -54q38 -40 38 -97q0 -56 -29.5 -95t-101.5 -75l-160 -73v-15h291v-94z" />
    <glyph glyph-name="uni2083" unicode="&#x2083;" horiz-adv-x="504" 
d="M249 -103q-99 0 -155.5 43.5t-57.5 119.5v4h116v-4q1 -72 97 -72q54 0 76 22q16 16 16 38q0 23 -15 38q-21 22 -83 22h-33v95h33q63 0 84 22q14 14 14 37q0 22 -16 38q-22 22 -76 22q-95 0 -97 -76h-116q1 79 57 123t156 44q119 0 174 -53q34 -34 34 -87q0 -45 -28 -73
q-32 -32 -96 -37v-14q63 -6 95 -38q29 -29 29 -74q0 -53 -34 -87q-55 -53 -174 -53z" />
    <glyph glyph-name="uni2084" unicode="&#x2084;" horiz-adv-x="532" 
d="M406 160h104v-95h-104v-155h-114v155h-254v147l204 188h164v-240zM122 173v-13h170v155h-13z" />
    <glyph glyph-name="uni2085" unicode="&#x2085;" horiz-adv-x="504" 
d="M253 -103q-91 0 -147.5 41.5t-58.5 109.5h116q2 -26 27 -43.5t63 -17.5q51 0 75 24q20 22 20 53q0 30 -19 51q-22 22 -68 22q-54 0 -73 -32h-125v295h401v-96h-293v-136h13q34 54 119 54q79 0 120 -43q42 -42 42 -114q0 -70 -42 -112q-56 -56 -170 -56z" />
    <glyph glyph-name="uni2086" unicode="&#x2086;" horiz-adv-x="530" 
d="M273 -103q-161 0 -207 126q-17 48 -17 111q0 85 21 145q48 134 215 134q91 0 146.5 -43.5t56.5 -111.5h-117q-1 30 -24.5 47t-65.5 17q-120 0 -120 -173h14q41 72 140 72q87 0 131 -46q42 -42 42 -109t-45 -112q-55 -57 -170 -57zM273 -15q55 0 82 27q18 20 18 49
q0 30 -18 48q-26 26 -82 26q-57 0 -82 -27q-19 -17 -19 -47t19 -49q29 -27 82 -27z" />
    <glyph glyph-name="uni2087" unicode="&#x2087;" horiz-adv-x="479" 
d="M217 -90h-134l262 380v14h-319v96h418v-149z" />
    <glyph glyph-name="uni2088" unicode="&#x2088;" horiz-adv-x="515" 
d="M258 -103q-125 0 -178 53q-35 35 -35 87q0 45 29 74q34 32 94 38v14q-62 3 -94 37q-29 29 -29 73q0 50 35 87q53 53 178 53q124 0 177 -53q35 -35 35 -87q0 -44 -29 -73q-33 -33 -95 -37v-14q62 -5 95 -38q29 -29 29 -74q0 -52 -35 -87q-53 -53 -177 -53zM258 201
q60 0 83 23q15 15 15 39t-15 39q-22 24 -83 24t-83 -24q-16 -16 -16 -39q0 -24 15 -39q23 -23 84 -23zM258 -16q61 0 83 24q15 17 15 39q0 25 -15 40q-21 23 -83 23q-61 0 -84 -23q-15 -13 -15 -40q0 -24 16 -39q22 -24 83 -24z" />
    <glyph glyph-name="uni2089" unicode="&#x2089;" horiz-adv-x="530" 
d="M245 -103q-92 0 -146.5 42.5t-55.5 112.5h116q1 -30 24.5 -47t65.5 -17q120 0 120 173h-13q-41 -73 -140 -73q-85 0 -132 47q-41 41 -41 109t44 112q57 57 170 57q160 0 207 -126q17 -47 17 -111q0 -88 -20 -144q-49 -135 -216 -135zM257 175q56 0 82 26q19 19 19 48
q0 30 -19 49q-27 27 -82 27q-56 0 -81 -27q-19 -19 -19 -49q0 -29 19 -48q24 -26 81 -26z" />
    <glyph glyph-name="uni208A" unicode="&#x208a;" horiz-adv-x="532" 
d="M304 176h165v-75h-165v-145h-77v145h-164v75h164v144h77v-144z" />
    <glyph glyph-name="uni208B" unicode="&#x208b;" horiz-adv-x="532" 
d="M469 101h-406v75h406v-75z" />
    <glyph glyph-name="uni208C" unicode="&#x208c;" horiz-adv-x="532" 
d="M469 187h-406v75h406v-75zM469 15h-406v75h406v-75z" />
    <glyph glyph-name="uni208D" unicode="&#x208d;" horiz-adv-x="335" 
d="M323 -120v-83q-115 29 -184 127t-69 229t68.5 229t184.5 127v-83q-75 -31 -117 -105t-42 -168q0 -95 42 -169t117 -104z" />
    <glyph glyph-name="uni208E" unicode="&#x208e;" horiz-adv-x="335" 
d="M12 426v83q114 -28 183 -126.5t69 -229.5t-69 -229t-183 -127v83q74 31 116 104.5t42 168.5t-42 168.5t-116 104.5z" />
    <glyph glyph-name="uni20A9" unicode="&#x20a9;" horiz-adv-x="1194" 
d="M998 700h165l-63 -244h59v-80h-79l-15 -59h94v-80h-115l-61 -237h-245l-55 237h-172l-55 -237h-245l-61 237h-116v80h95l-15 59h-80v80h60l-63 244h165l59 -244h172l57 244h226l57 -244h172zM588 611l-6 -72l-19 -83h68l-19 83l-6 72h-18zM409 376h-134l14 -59h106z
M544 376l-14 -59h134l-14 59h-106zM799 317h106l14 59h-134zM352 80l7 81l18 76h-68l18 -76l8 -81h17zM860 80l7 81l18 76h-68l18 -76l7 -81h18z" />
    <glyph glyph-name="Euro" unicode="&#x20ac;" horiz-adv-x="754" 
d="M491 103q104 0 175 42l63 -107q-101 -55 -242 -55q-151 0 -254.5 63t-143.5 173l-2 5h-74v89h57q-2 24 -2 38q0 21 1 32h-56v88h73l3 10q39 110 142.5 173t255.5 63q141 0 242 -55l-63 -107q-71 42 -175 42q-184 0 -247 -126h375l-50 -88h-349q-2 -20 -2 -32q0 -14 2 -38
h311l-49 -89h-235q65 -121 244 -121z" />
    <glyph glyph-name="uni20AE" unicode="&#x20ae;" horiz-adv-x="718" 
d="M704 700v-127h-266v-85l171 40v-93l-171 -40v-50l171 40v-93l-171 -40v-252h-158v215l-177 -41v92l177 42v50l-177 -41v93l177 41v122h-267v127h691z" />
    <glyph glyph-name="uni20B4" unicode="&#x20b4;" horiz-adv-x="767" 
d="M741 445v-54h-92q-45 -41 -149 -74h241v-54h-433q-44 -18 -63 -38.5t-19 -48.5v-1q0 -77 146 -77q176 0 176 121v8h159v-12q0 -113 -86 -174.5t-246 -61.5q-144 0 -226 52.5t-82 153.5v1q0 44 16 77h-58v54h98q46 43 143 74h-241v54h436q44 16 62.5 33t18.5 44v1
q0 79 -144 79q-87 0 -133 -32t-46 -91v-9h-159v12q0 114 86.5 176.5t247.5 62.5q146 0 226.5 -52t80.5 -153v-1q0 -41 -13 -70h53z" />
    <glyph glyph-name="uni20B8" unicode="&#x20b8;" horiz-adv-x="678" 
d="M664 597h-651v103h651v-103zM419 0h-161v446h-245v102h651v-102h-245v-446z" />
    <glyph glyph-name="uni20B9" unicode="&#x20b9;" horiz-adv-x="714" 
d="M91 702h575v-86h-115q39 -33 50 -82h65v-86h-67q-17 -66 -78 -106.5t-160 -40.5h-109v-17l51 -19l309 -265h-197l-324 285v96h257q93 0 120 67h-377v86h377q-28 67 -125 67h-252v101z" />
    <glyph glyph-name="uni20BA" unicode="&#x20ba;" horiz-adv-x="694" 
d="M518 332h144q0 -144 -103.5 -238t-291.5 -94h-137v274l-85 -23v93l85 23v50l-85 -23v93l85 23v190h150v-150l273 74v-93l-273 -74v-50l273 74v-93l-273 -74v-194h14q108 0 166 58.5t58 153.5z" />
    <glyph glyph-name="uni20BD" unicode="&#x20bd;" horiz-adv-x="742" 
d="M689 595q27 -49 27 -109q0 -61 -27 -110q-29 -50 -85 -77.5t-131 -27.5h-227v-47h345v-65h-345v-159h-158v159h-65v65h65v47h-65v121h65v308h385q75 0 131 -27.5t85 -77.5zM543 436q13 22 13 50q0 27 -13 49q-24 43 -93 43h-204v-186h204q69 0 93 44z" />
    <glyph glyph-name="uni20BF" unicode="&#x20bf;" horiz-adv-x="771" 
d="M539 360v-19q112 -6 153 -78q21 -36 21 -81q0 -48 -22 -87q-49 -87 -191 -94v-81h-106v80h-73v-80h-106v80h-124v700h124v80h106v-80h73v80h106v-81q142 -7 191 -94q22 -39 22 -87q0 -44 -21 -81q-41 -71 -153 -77zM540 540q-26 41 -99 41h-196v-175h196q74 0 98 42
q12 18 12 45t-11 47zM540 160q11 20 11 47t-12 45q-24 42 -98 42h-196v-175h196q73 0 99 41z" />
    <glyph glyph-name="uni2100" unicode="&#x2100;" horiz-adv-x="998" 
d="M347 457h-13q-29 -108 -157 -108q-70 0 -101 33q-26 26 -26 67q0 42 26 68q35 35 103 39l141 9v3v12q0 58 -80 58t-82 -55h-115q2 64 54 100.5t146 36.5q191 0 191 -143v-12v-203h-111zM133 -12l647 724h115l-646 -724h-116zM177 483q-9 -9 -9 -26q0 -15 9 -24
q12 -12 42 -12q43 0 72 24t29 60l-104 -8q-28 -3 -39 -14zM745 71q80 0 90 56h114q-4 -69 -59.5 -107t-145.5 -38q-132 0 -186 78q-30 44 -30 107t30 107q54 79 190 79q92 0 148 -38t59 -107h-114q-10 56 -92 56q-63 0 -88 -36q-17 -25 -17 -61q0 -37 16 -59q26 -37 85 -37z
" />
    <glyph glyph-name="uni2105" unicode="&#x2105;" horiz-adv-x="992" 
d="M259 349q-131 0 -186 78q-30 44 -30 107q0 64 31 107q53 79 189 79q91 0 147.5 -38.5t59.5 -106.5h-114q-10 56 -92 56q-62 0 -88 -37q-17 -25 -17 -60t16 -59q26 -37 85 -37q80 0 90 56h114q-4 -69 -59.5 -107t-145.5 -38zM221 -12h-116l647 724h115zM725 -18
q-138 0 -193 83q-31 46 -31 103q0 59 31 102q55 83 193 83q137 0 194 -83q30 -44 30 -102t-29 -101q-57 -85 -195 -85zM725 71q65 0 92 40q16 22 16 57q0 33 -16 57q-27 39 -92 39t-91 -39q-16 -23 -16 -57q0 -35 16 -58q26 -39 91 -39z" />
    <glyph glyph-name="uni2113" unicode="&#x2113;" horiz-adv-x="513" 
d="M288 82q72 0 72 111h115q0 -102 -44 -156.5t-144 -54.5q-94 0 -139.5 46t-45.5 122v113q-37 -4 -88 -4v103q43 0 88 5v165q0 93 54.5 139.5t142.5 46.5q85 0 134 -45.5t49 -118.5q0 -86 -68 -159t-190 -109v-137q0 -30 16 -48.5t48 -18.5zM224 535v-141q66 24 101 64
t35 88q0 72 -64 72q-72 0 -72 -83z" />
    <glyph glyph-name="uni2116" unicode="&#x2116;" horiz-adv-x="1486" 
d="M240 0h-149v700h223l297 -459l23 -150h18v609h149v-700h-223l-298 460l-22 149h-18v-609zM1162 190q-122 0 -196.5 64t-74.5 166q0 101 74.5 164.5t196.5 63.5t196.5 -63.5t74.5 -164.5q0 -102 -74.5 -166t-196.5 -64zM1162 297q63 0 99.5 33t36.5 90q0 55 -36.5 88
t-99.5 33t-100 -33t-37 -88q0 -56 37 -89.5t100 -33.5zM1439 0h-546v115h546v-115z" />
    <glyph glyph-name="uni2117" unicode="&#x2117;" horiz-adv-x="1032" 
d="M516 -79q-214 0 -343.5 119t-129.5 309v1q0 191 129.5 310t343.5 119t343.5 -119t129.5 -310v-1q0 -190 -129.5 -309t-343.5 -119zM516 2q173 0 277.5 96t104.5 251v1q0 155 -104.5 251.5t-277.5 96.5q-174 0 -278 -96t-104 -252v-1q0 -155 104.5 -251t277.5 -96z
M451 157h-95v388h222q69 0 110 -32.5t41 -87.5t-39 -89t-110 -34h-129v-145zM451 467v-89h115q61 0 61 45q0 44 -58 44h-118z" />
    <glyph glyph-name="trademark" unicode="&#x2122;" horiz-adv-x="1210" 
d="M649 240h-97v461h162l133 -422l133 422h162v-461h-97v398l-125 -398h-146l-125 398v-398zM210 616h-191v84h483v-84h-190v-376h-102v376z" />
    <glyph glyph-name="uni2126" unicode="&#x2126;" horiz-adv-x="939" 
d="M896 416q0 -90 -72 -166t-196 -107v-17h268v-126h-386v187q113 27 168 83t55 129v1q0 85 -72 139.5t-192 54.5q-119 0 -191.5 -54.5t-72.5 -139.5v-1q0 -73 55.5 -129t168.5 -83v-187h-386v126h267v17q-124 31 -195.5 107t-71.5 166v1q0 135 115.5 219.5t310.5 84.5
t311 -84.5t116 -219.5v-1z" />
    <glyph glyph-name="estimated" unicode="&#x212e;" horiz-adv-x="858" 
d="M429 0q-172 0 -280.5 97t-108.5 257q0 159 109 257.5t280 98.5q174 0 277.5 -95t111.5 -270h-619q-8 0 -11.5 -3t-3.5 -15v-174q0 -34 73 -79.5t172 -45.5q71 0 136.5 31.5t109.5 81.5h72q-70 -78 -140 -109.5t-178 -31.5zM199 367h457q11 0 14 3.5t3 12.5v171
q0 42 -81.5 86.5t-163.5 44.5q-94 0 -169 -47t-75 -77v-185q0 -9 15 -9z" />
    <glyph glyph-name="uni2153" unicode="&#x2153;" horiz-adv-x="977" 
d="M185 -12h-116l647 724h115zM298 300h-98v293h-18q-11 -55 -41.5 -80t-84.5 -25h-39v102h40q59 0 86 26t27 84h128v-400zM758 -12q-83 0 -131 36.5t-48 101.5h96q0 -30 22 -46.5t60 -16.5t57.5 14t19.5 36v1q0 23 -18.5 36t-51.5 13h-38v77h38q33 0 51.5 12.5t18.5 34.5v1
q0 23 -19.5 37t-57.5 14t-60 -16.5t-22 -46.5h-96q0 65 48 101.5t131 36.5q82 0 128 -32t46 -84v-1q0 -34 -23 -57.5t-67 -29.5v-18q44 -7 67 -30t23 -56v-1q0 -52 -46 -84.5t-128 -32.5z" />
    <glyph glyph-name="uni2154" unicode="&#x2154;" horiz-adv-x="1061" 
d="M385 300h-342v130l175 81q38 18 54 34t16 38v1q0 24 -19.5 38t-53.5 14q-39 0 -61.5 -19t-22.5 -51h-99q0 67 48.5 107t134.5 40q81 0 126.5 -35t45.5 -91v-1q0 -46 -26 -78t-89 -59l-120 -53v-17h233v-79zM268 -12h-116l647 724h115zM841 -12q-83 0 -131 36.5t-48 101.5
h96q0 -30 22 -46.5t60 -16.5t57.5 14t19.5 36v1q0 23 -18.5 36t-51.5 13h-38v77h38q33 0 51.5 12.5t18.5 34.5v1q0 23 -19.5 37t-57.5 14t-60 -16.5t-22 -46.5h-96q0 65 48 101.5t131 36.5q82 0 128 -32t46 -84v-1q0 -34 -23 -57.5t-67 -29.5v-18q44 -7 67 -30t23 -56v-1
q0 -52 -46 -84.5t-128 -32.5z" />
    <glyph glyph-name="oneeighth" unicode="&#x215b;" horiz-adv-x="992" 
d="M185 -12h-116l647 724h115zM298 300h-98v293h-18q-11 -55 -41.5 -80t-84.5 -25h-39v102h40q59 0 86 26t27 84h128v-400zM767 -13q-85 0 -133 31t-48 81v1q0 35 23 59.5t65 31.5v18q-41 6 -64.5 31t-23.5 58v1q0 52 48 83t133 31q86 0 133.5 -31t47.5 -83v-1
q0 -33 -23 -58t-65 -31v-18q42 -7 65 -31.5t23 -59.5v-1q0 -51 -48 -81.5t-133 -30.5zM767 236q39 0 61 14.5t22 38.5v1q0 55 -83 55q-41 0 -62 -15t-21 -40v-1q0 -24 22.5 -38.5t60.5 -14.5zM767 55q41 0 62 15t21 39v1q0 26 -22 40.5t-61 14.5t-61 -14.5t-22 -40.5v-1
q0 -24 21 -39t62 -15z" />
    <glyph glyph-name="threeeighths" unicode="&#x215c;" horiz-adv-x="1070" 
d="M216 287q-83 0 -131 36.5t-48 101.5h96q0 -30 22 -46.5t60 -16.5t57.5 14t19.5 36v1q0 23 -18.5 36t-51.5 13h-38v77h38q33 0 51.5 12.5t18.5 34.5v1q0 23 -19.5 37t-57.5 14t-60 -16.5t-22 -46.5h-96q0 65 48 101.5t131 36.5q82 0 128 -32t46 -84v-1q0 -34 -23 -57.5
t-67 -29.5v-18q44 -7 67 -30t23 -56v-1q0 -52 -46 -84.5t-128 -32.5zM263 -12h-116l647 724h115zM845 -13q-85 0 -133 31t-48 81v1q0 35 23 59.5t65 31.5v18q-41 6 -64.5 31t-23.5 58v1q0 52 48 83t133 31q86 0 133.5 -31t47.5 -83v-1q0 -33 -23 -58t-65 -31v-18
q42 -7 65 -31.5t23 -59.5v-1q0 -51 -48 -81.5t-133 -30.5zM845 236q39 0 61 14.5t22 38.5v1q0 55 -83 55q-41 0 -62 -15t-21 -40v-1q0 -24 22.5 -38.5t60.5 -14.5zM845 55q41 0 62 15t21 39v1q0 26 -22 40.5t-61 14.5t-61 -14.5t-22 -40.5v-1q0 -24 21 -39t62 -15z" />
    <glyph glyph-name="fiveeighths" unicode="&#x215d;" horiz-adv-x="1087" 
d="M279 -12h-116l647 724h115zM230 287q-80 0 -127.5 34.5t-51.5 91.5h98q6 -51 80 -51q38 0 58.5 17t20.5 48v1q0 30 -20 47t-57 17q-51 0 -69 -33h-99v241h340v-80h-255v-107h18q39 43 105 43q61 0 99.5 -36t38.5 -91v-1q0 -62 -49 -101.5t-130 -39.5zM861 -13
q-85 0 -133 31t-48 81v1q0 35 23 59.5t65 31.5v18q-41 6 -64.5 31t-23.5 58v1q0 52 48 83t133 31q86 0 133.5 -31t47.5 -83v-1q0 -33 -23 -58t-65 -31v-18q42 -7 65 -31.5t23 -59.5v-1q0 -51 -48 -81.5t-133 -30.5zM861 236q39 0 61 14.5t22 38.5v1q0 55 -83 55
q-41 0 -62 -15t-21 -40v-1q0 -24 22.5 -38.5t60.5 -14.5zM861 55q41 0 62 15t21 39v1q0 26 -22 40.5t-61 14.5t-61 -14.5t-22 -40.5v-1q0 -24 21 -39t62 -15z" />
    <glyph glyph-name="seveneighths" unicode="&#x215e;" horiz-adv-x="958" 
d="M151 -12h-116l647 724h115zM171 300h-109l204 301v19h-245v80h330v-121zM733 -13q-85 0 -133 31t-48 81v1q0 35 23 59.5t65 31.5v18q-41 6 -64.5 31t-23.5 58v1q0 52 48 83t133 31q86 0 133.5 -31t47.5 -83v-1q0 -33 -23 -58t-65 -31v-18q42 -7 65 -31.5t23 -59.5v-1
q0 -51 -48 -81.5t-133 -30.5zM733 236q39 0 61 14.5t22 38.5v1q0 55 -83 55q-41 0 -62 -15t-21 -40v-1q0 -24 22.5 -38.5t60.5 -14.5zM733 55q41 0 62 15t21 39v1q0 26 -22 40.5t-61 14.5t-61 -14.5t-22 -40.5v-1q0 -24 21 -39t62 -15z" />
    <glyph glyph-name="arrowleft" unicode="&#x2190;" horiz-adv-x="945" 
d="M390 -27h-114v63q0 105 -65 164.5t-165 60.5v125q100 0 165 59t65 164v64h113v-64q0 -88 -39 -145t-118 -71v-18h667v-104h-667v-18q80 -14 119 -71t39 -146v-63z" />
    <glyph glyph-name="arrowup" unicode="&#x2191;" horiz-adv-x="838" 
d="M471 -13h-104v541h-18q-30 -159 -233 -159h-71v114h71q113 0 177 65t64 165h125q0 -100 64 -165t177 -65h71v-114h-71q-96 0 -157.5 39t-75.5 120h-19v-541z" />
    <glyph glyph-name="arrowright" unicode="&#x2192;" horiz-adv-x="945" 
d="M670 -26h-114v62q0 89 38.5 146t118.5 71v18h-667v104h667v18q-79 14 -118 71t-39 145v63h114v-63q0 -105 64.5 -164t164.5 -59v-125q-100 -1 -164.5 -60.5t-64.5 -164.5v-62z" />
    <glyph glyph-name="arrowdown" unicode="&#x2193;" horiz-adv-x="839" 
d="M482 -13h-125q0 100 -64 165t-177 65h-71v114h71q94 0 156 -39.5t77 -119.5h18v541h104v-541h19q14 80 75.5 119.5t157.5 39.5h71v-114h-71q-113 0 -177 -65t-64 -165z" />
    <glyph glyph-name="arrowboth" unicode="&#x2194;" horiz-adv-x="1240" 
d="M390 -26h-114v63q0 105 -65 164t-165 60v125q100 0 165 59.5t65 163.5v63h114v-63q0 -189 -156 -216v-17h773v17q-156 26 -156 216v63h114v-63q0 -104 65 -163.5t165 -59.5v-125q-101 -1 -165.5 -60.5t-64.5 -164.5v-62h-114v63q0 190 156 216v18h-773v-18
q156 -27 156 -216v-63z" />
    <glyph glyph-name="arrowupdn" unicode="&#x2195;" horiz-adv-x="839" 
d="M482 -107h-125q0 100 -64 165t-177 65h-71v114h71q95 0 157 -39t76 -120h18v543h-18q-15 -79 -76.5 -119t-156.5 -40h-71v114h71q113 0 177 65t64 165h125q0 -100 64 -165t177 -65h71v-114h-71q-95 0 -156.5 40t-76.5 119h-19v-543h18q15 79 77 119t156 40h71v-114h-71
q-113 0 -176.5 -65t-63.5 -165z" />
    <glyph glyph-name="uni2196" unicode="&#x2196;" horiz-adv-x="882" 
d="M836 13l-74 -74l-522 522l-13 -12q89 -138 -52 -277l-50 -50l-81 80l51 50q80 85 79 173.5t-72 159.5l89 89q70 -71 159 -72t173 79l51 51l80 -81l-50 -50q-142 -140 -278 -53l-12 -13z" />
    <glyph glyph-name="uni2197" unicode="&#x2197;" horiz-adv-x="882" 
d="M643 462l-523 -522l-74 74l522 522l-12 13q-136 -88 -277 53l-51 50l81 81l50 -51q85 -80 173.5 -79t159.5 72l89 -89q-71 -71 -72 -159.5t79 -173.5l50 -50l-80 -80l-50 50q-142 139 -53 277z" />
    <glyph glyph-name="uni2198" unicode="&#x2198;" horiz-adv-x="884" 
d="M360 6l-51 -50l-80 80l50 51q142 142 278 52l12 13l-523 523l74 75l523 -524l13 12q-89 136 52 277l51 50l80 -79l-50 -51q-54 -53 -71 -114t0 -117t63 -102l-89 -88q-70 71 -158.5 71t-173.5 -79z" />
    <glyph glyph-name="uni2199" unicode="&#x2199;" horiz-adv-x="884" 
d="M653 36l-80 -80l-50 50q-86 79 -174 79t-159 -71l-88 88q70 71 71 159.5t-79 173.5l-50 51l80 79l50 -50q142 -140 53 -277l13 -12l523 524l74 -75l-523 -523l12 -13q137 89 278 -52z" />
    <glyph glyph-name="uni21A9" unicode="&#x21a9;" horiz-adv-x="996" 
d="M391 -23h-115v78q0 96 -63.5 150.5t-160.5 54.5v127q97 0 160.5 54t63.5 150v79h115v-79q0 -81 -38 -134t-114 -63v-18h448q69 0 108.5 31.5t39.5 90.5q0 63 -39 95.5t-109 32.5h-190v105h191q117 0 186.5 -60.5t69.5 -172.5q0 -108 -69.5 -167.5t-186.5 -59.5h-449v-18
q77 -10 114.5 -63t37.5 -135v-78z" />
    <glyph glyph-name="uni21AA" unicode="&#x21aa;" horiz-adv-x="996" 
d="M717 -24h-114v79q0 82 37.5 135t114.5 62v18h-450q-116 0 -185.5 60t-69.5 168q0 112 69 172.5t186 60.5h191v-105h-190q-69 0 -107.5 -32.5t-38.5 -95.5q0 -59 39 -91t107 -32h449v18q-77 10 -114.5 63t-37.5 135v78h114v-78q0 -96 64 -150t162 -54v-128q-98 0 -162 -54
t-64 -150v-79z" />
    <glyph glyph-name="uni21B0" unicode="&#x21b0;" horiz-adv-x="761" 
d="M238 394v-19h471v-451h-105v347h-366v-18q77 -10 114.5 -63t37.5 -135v-81h-115v81q0 97 -63 151t-161 54v127q98 0 161 54t63 151v81h115v-81q0 -82 -37.5 -135.5t-114.5 -62.5z" />
    <glyph glyph-name="uni21B1" unicode="&#x21b1;" horiz-adv-x="761" 
d="M485 670v-78q0 -96 63.5 -150.5t161.5 -54.5v-127q-98 0 -161.5 -54.5t-63.5 -150.5v-78h-115v78q0 82 37.5 135t114.5 63v18h-366v-347h-104v452h470v18q-76 10 -114 63.5t-38 134.5v78h115z" />
    <glyph glyph-name="uni21B2" unicode="&#x21b2;" horiz-adv-x="760" 
d="M708 724v-452h-471v-19q77 -9 114.5 -62t37.5 -135v-78h-115v78q0 96 -63.5 150t-161.5 54v127q98 0 161.5 54.5t63.5 150.5v79h115v-79q0 -82 -37.5 -135t-114.5 -62v-18h366v347h105z" />
    <glyph glyph-name="uni21B3" unicode="&#x21b3;" horiz-adv-x="759" 
d="M488 673v-81q0 -96 63.5 -150.5t161.5 -54.5v-127q-97 0 -161 -54.5t-64 -150.5v-81h-115v81q0 81 38 134.5t115 62.5v19h-471v452h105v-347h366v18q-78 10 -115.5 63t-37.5 135v81h115z" />
    <glyph glyph-name="uni21B4" unicode="&#x21b4;" horiz-adv-x="940" 
d="M868 237h39v-114h-39q-87 0 -136.5 -56t-49.5 -141h-126q0 85 -49.5 141t-135.5 56h-40v114h40q157 0 178 -126h17v484h-533v105h638v-589h18q11 64 58.5 95t120.5 31z" />
    <glyph glyph-name="uni21C5" unicode="&#x21c5;" horiz-adv-x="980" 
d="M359 -54h-125q0 81 -51 134t-141 53h-28v114h28q166 0 184 -114h18v601h105v-601h17q23 114 185 114h28v-114h-28q-90 0 -141 -53t-51 -134zM736 -55h-105v602h-18q-23 -115 -184 -115h-28v115h28q90 0 141 52.5t51 134.5h125q0 -82 51 -134.5t141 -52.5h28v-115h-28
q-76 0 -124.5 28.5t-59.5 86.5h-18v-602z" />
    <glyph glyph-name="uni21C6" unicode="&#x21c6;" horiz-adv-x="1029" 
d="M341 262h-114v21q0 77 -51.5 121.5t-130.5 44.5v123q79 0 130.5 44.5t51.5 122.5v19h114v-20q0 -139 -109 -159v-18h690v-102h-690v-17q109 -20 109 -159v-21zM802 -89h-114v20q0 139 110 159v18h-691v102h691v17q-110 21 -110 160v20h114v-20q0 -78 51.5 -122.5
t130.5 -44.5v-123q-79 0 -130.5 -44t-51.5 -122v-20z" />
    <glyph glyph-name="partialdiff" unicode="&#x2202;" horiz-adv-x="702" 
d="M321 -18q-131 0 -206.5 64.5t-75.5 171.5q0 108 71.5 172t194.5 64q137 0 193 -96h18q-1 119 -49 182t-137 63q-54 0 -94.5 -22.5t-53.5 -59.5l-143 26q23 78 100.5 124.5t188.5 46.5q161 0 246 -97t85 -276q0 -169 -89.5 -266t-248.5 -97zM330 97q80 0 129 50.5
t49 127.5q-51 68 -150 68q-78 0 -122.5 -34.5t-44.5 -92.5q0 -52 38.5 -85.5t100.5 -33.5z" />
    <glyph glyph-name="emptyset" unicode="&#x2205;" horiz-adv-x="1032" 
d="M956 691l-68 -60q101 -113 101 -281v-1q0 -190 -129.5 -309t-343.5 -119q-193 0 -320 99l-74 -65l-51 56l70 61q-98 114 -98 277v1q0 191 129.5 310t343.5 119q192 0 317 -97l72 63zM134 349q0 -128 73 -218l560 493q-101 74 -251 74q-174 0 -278 -96t-104 -252v-1z
M898 349v1q0 132 -76 222l-560 -494q101 -76 254 -76q173 0 277.5 96t104.5 251z" />
    <glyph glyph-name="uni2206" unicode="&#x2206;" horiz-adv-x="855" 
d="M308 700h239l292 -700h-822zM409 560l-172 -436h381l-172 436l-9 59h-18z" />
    <glyph glyph-name="product" unicode="&#x220f;" horiz-adv-x="835" 
d="M743 700v-700h-153v576h-345v-576h-154v700h652z" />
    <glyph glyph-name="summation" unicode="&#x2211;" horiz-adv-x="715" 
d="M658 0h-601v178l246 164v18l-246 162v178h601v-125h-454v-18l311 -207l-311 -207v-18h454v-125z" />
    <glyph glyph-name="minus" unicode="&#x2212;" horiz-adv-x="756" 
d="M690 245h-624v109h624v-109z" />
    <glyph glyph-name="radical" unicode="&#x221a;" horiz-adv-x="678" 
d="M395 0h-193l-187 530h133l146 -429h12l251 777h250v-106h-157z" />
    <glyph glyph-name="infinity" unicode="&#x221e;" horiz-adv-x="907" 
d="M651 478q82 0 136 -52t54 -130t-54 -130t-136 -52q-103 0 -197 108q-96 -108 -199 -108q-81 0 -135 52t-54 130t54 130t136 52q101 0 198 -107q95 107 197 107zM258 209q27 0 54.5 15.5t43 30.5t38.5 41q-23 26 -38.5 41t-43 30.5t-54.5 15.5q-41 0 -66.5 -24.5
t-25.5 -62.5t25.5 -62.5t66.5 -24.5zM649 209q40 0 65.5 24.5t25.5 62.5t-25.5 62.5t-65.5 24.5q-27 0 -54.5 -15t-43.5 -30.5t-38 -41.5q72 -87 136 -87z" />
    <glyph glyph-name="integral" unicode="&#x222b;" horiz-adv-x="480" 
d="M89 -194q-48 0 -86 15v106q34 -15 64 -15q56 0 67 67l92 590q22 152 165 152q44 0 85 -15v-107q-32 16 -64 16q-56 0 -66 -68l-92 -589q-24 -152 -165 -152z" />
    <glyph glyph-name="approxequal" unicode="&#x2248;" horiz-adv-x="820" 
d="M117 339l-51 93q76 59 196 59q76 0 171.5 -28t139.5 -28q80 0 131 39l50 -93q-72 -56 -191 -56q-51 0 -145 28t-166 28q-82 0 -135 -42zM117 117l-51 93q74 59 196 59q76 0 171.5 -28t139.5 -28q41 0 76.5 12.5t54.5 27.5l50 -94q-72 -56 -191 -56q-51 0 -145 28t-166 28
q-82 0 -135 -42z" />
    <glyph glyph-name="notequal" unicode="&#x2260;" horiz-adv-x="765" 
d="M695 471v-109h-188l-126 -125h314v-108h-422l-134 -134l-68 62l72 72h-72v108h180l125 125h-305v109h414l138 138l68 -63l-75 -75h79z" />
    <glyph glyph-name="lessequal" unicode="&#x2264;" horiz-adv-x="827" 
d="M181 379l564 -119v-115l-661 146v175l661 147v-116zM66 0v109h695v-109h-695z" />
    <glyph glyph-name="greaterequal" unicode="&#x2265;" horiz-adv-x="827" 
d="M82 613l661 -147v-175l-661 -146v115l564 119l-564 118v116zM66 0v109h695v-109h-695z" />
    <glyph glyph-name="uni2460" unicode="&#x2460;" horiz-adv-x="1032" 
d="M516 -79q-214 0 -343.5 119t-129.5 309v1q0 191 129.5 310t343.5 119t343.5 -119t129.5 -310v-1q0 -190 -129.5 -309t-343.5 -119zM516 2q173 0 277.5 96t104.5 251v1q0 155 -104.5 251.5t-277.5 96.5q-174 0 -278 -96t-104 -252v-1q0 -155 104.5 -251t277.5 -96z
M603 150h-98v293h-18q-11 -55 -41.5 -80t-84.5 -25h-39v102h40q59 0 86 26t27 84h128v-400z" />
    <glyph glyph-name="uni2461" unicode="&#x2461;" horiz-adv-x="1032" 
d="M516 -79q-214 0 -343.5 119t-129.5 309v1q0 191 129.5 310t343.5 119t343.5 -119t129.5 -310v-1q0 -190 -129.5 -309t-343.5 -119zM516 2q173 0 277.5 96t104.5 251v1q0 155 -104.5 251.5t-277.5 96.5q-174 0 -278 -96t-104 -252v-1q0 -155 104.5 -251t277.5 -96z
M692 150h-342v130l175 81q38 18 54 34t16 38v1q0 24 -19.5 38t-53.5 14q-39 0 -61.5 -19t-22.5 -51h-99q0 67 48.5 107t134.5 40q81 0 126.5 -35t45.5 -91v-1q0 -46 -26 -78t-89 -59l-120 -53v-17h233v-79z" />
    <glyph glyph-name="uni2462" unicode="&#x2462;" horiz-adv-x="1032" 
d="M516 -79q-214 0 -343.5 119t-129.5 309v1q0 191 129.5 310t343.5 119t343.5 -119t129.5 -310v-1q0 -190 -129.5 -309t-343.5 -119zM516 2q173 0 277.5 96t104.5 251v1q0 155 -104.5 251.5t-277.5 96.5q-174 0 -278 -96t-104 -252v-1q0 -155 104.5 -251t277.5 -96z
M517 137q-83 0 -131 36.5t-48 101.5h96q0 -30 22 -46.5t60 -16.5t57.5 14t19.5 36v1q0 23 -18.5 36t-51.5 13h-38v77h38q33 0 51.5 12.5t18.5 34.5v1q0 23 -19.5 37t-57.5 14t-60 -16.5t-22 -46.5h-96q0 65 48 101.5t131 36.5q82 0 128 -32t46 -84v-1q0 -34 -23 -57.5
t-67 -29.5v-18q44 -7 67 -30t23 -56v-1q0 -52 -46 -84.5t-128 -32.5z" />
    <glyph glyph-name="uni2463" unicode="&#x2463;" horiz-adv-x="1032" 
d="M516 -79q-214 0 -343.5 119t-129.5 309v1q0 191 129.5 310t343.5 119t343.5 -119t129.5 -310v-1q0 -190 -129.5 -309t-343.5 -119zM516 2q173 0 277.5 96t104.5 251v1q0 155 -104.5 251.5t-277.5 96.5q-174 0 -278 -96t-104 -252v-1q0 -155 104.5 -251t277.5 -96z
M628 150h-100v132h-222v118l186 150h136v-193h80v-75h-80v-132zM385 375v-18h143v122h-20z" />
    <glyph glyph-name="uni2464" unicode="&#x2464;" horiz-adv-x="1032" 
d="M516 -79q-214 0 -343.5 119t-129.5 309v1q0 191 129.5 310t343.5 119t343.5 -119t129.5 -310v-1q0 -190 -129.5 -309t-343.5 -119zM516 2q173 0 277.5 96t104.5 251v1q0 155 -104.5 251.5t-277.5 96.5q-174 0 -278 -96t-104 -252v-1q0 -155 104.5 -251t277.5 -96z
M516 137q-80 0 -127.5 34.5t-51.5 91.5h98q6 -51 80 -51q38 0 58.5 17t20.5 48v1q0 30 -20 47t-57 17q-51 0 -69 -33h-99v241h340v-80h-255v-107h18q39 43 105 43q61 0 99.5 -36t38.5 -91v-1q0 -62 -49 -101.5t-130 -39.5z" />
    <glyph glyph-name="uni2465" unicode="&#x2465;" horiz-adv-x="1032" 
d="M516 -79q-214 0 -343.5 119t-129.5 309v1q0 191 129.5 310t343.5 119t343.5 -119t129.5 -310v-1q0 -190 -129.5 -309t-343.5 -119zM516 2q173 0 277.5 96t104.5 251v1q0 155 -104.5 251.5t-277.5 96.5q-174 0 -278 -96t-104 -252v-1q0 -155 104.5 -251t277.5 -96z
M510 137q-89 0 -136.5 49t-47.5 143v1q0 233 197 233q74 0 118 -34t53 -91h-94q-14 50 -77 50q-100 0 -100 -133h19q39 48 109 48q63 0 103 -35.5t40 -91.5v-1q0 -61 -50 -99.5t-134 -38.5zM512 207q38 0 60 17.5t22 45.5v1q0 29 -21.5 46t-59.5 17q-39 0 -61 -17t-22 -46
v-1q0 -29 22.5 -46t59.5 -17z" />
    <glyph glyph-name="uni2466" unicode="&#x2466;" horiz-adv-x="1032" 
d="M516 -79q-214 0 -343.5 119t-129.5 309v1q0 191 129.5 310t343.5 119t343.5 -119t129.5 -310v-1q0 -190 -129.5 -309t-343.5 -119zM516 2q173 0 277.5 96t104.5 251v1q0 155 -104.5 251.5t-277.5 96.5q-174 0 -278 -96t-104 -252v-1q0 -155 104.5 -251t277.5 -96z
M501 150h-109l204 301v19h-245v80h330v-121z" />
    <glyph glyph-name="uni2467" unicode="&#x2467;" horiz-adv-x="1032" 
d="M516 -79q-214 0 -343.5 119t-129.5 309v1q0 191 129.5 310t343.5 119t343.5 -119t129.5 -310v-1q0 -190 -129.5 -309t-343.5 -119zM516 2q173 0 277.5 96t104.5 251v1q0 155 -104.5 251.5t-277.5 96.5q-174 0 -278 -96t-104 -252v-1q0 -155 104.5 -251t277.5 -96z
M516 137q-85 0 -133 31t-48 81v1q0 35 23 59.5t65 31.5v18q-41 6 -64.5 31t-23.5 58v1q0 52 48 83t133 31q86 0 133.5 -31t47.5 -83v-1q0 -33 -23 -58t-65 -31v-18q42 -7 65 -31.5t23 -59.5v-1q0 -51 -48 -81.5t-133 -30.5zM516 386q39 0 61 14.5t22 38.5v1q0 55 -83 55
q-41 0 -62 -15t-21 -40v-1q0 -24 22.5 -38.5t60.5 -14.5zM516 205q41 0 62 15t21 39v1q0 26 -22 40.5t-61 14.5t-61 -14.5t-22 -40.5v-1q0 -24 21 -39t62 -15z" />
    <glyph glyph-name="uni2468" unicode="&#x2468;" horiz-adv-x="1032" 
d="M516 -79q-214 0 -343.5 119t-129.5 309v1q0 191 129.5 310t343.5 119t343.5 -119t129.5 -310v-1q0 -190 -129.5 -309t-343.5 -119zM516 2q173 0 277.5 96t104.5 251v1q0 155 -104.5 251.5t-277.5 96.5q-174 0 -278 -96t-104 -252v-1q0 -155 104.5 -251t277.5 -96z
M509 137q-74 0 -118 34t-53 91h94q12 -50 77 -50q100 0 100 133h-19q-39 -48 -109 -48q-64 0 -103.5 35.5t-39.5 91.5v1q0 61 50 99.5t134 38.5q88 0 135.5 -49t47.5 -143v-1q0 -233 -196 -233zM519 366q38 0 60.5 17t22.5 46v1q0 29 -22.5 46t-59.5 17q-38 0 -60.5 -17.5
t-22.5 -45.5v-1q0 -29 22 -46t60 -17z" />
    <glyph glyph-name="uni24EA" unicode="&#x24ea;" horiz-adv-x="1032" 
d="M516 -79q-214 0 -343.5 119t-129.5 309v1q0 191 129.5 310t343.5 119t343.5 -119t129.5 -310v-1q0 -190 -129.5 -309t-343.5 -119zM516 2q173 0 277.5 96t104.5 251v1q0 155 -104.5 251.5t-277.5 96.5q-174 0 -278 -96t-104 -252v-1q0 -155 104.5 -251t277.5 -96z
M516 137q-97 0 -151 56t-54 156v1q0 100 54.5 156.5t150.5 56.5q95 0 149.5 -56.5t54.5 -156.5v-1q0 -100 -54 -156t-150 -56zM516 223q47 0 74.5 33.5t27.5 92.5v1q0 60 -27.5 93.5t-74.5 33.5q-48 0 -75 -33.5t-27 -93.5v-1q0 -59 27 -92.5t75 -33.5z" />
    <glyph glyph-name="uni24FF" unicode="&#x24ff;" horiz-adv-x="1032" 
d="M516 -79q214 0 343.5 119t129.5 309v1q0 191 -129.5 310t-343.5 119t-343.5 -119t-129.5 -310v-1q0 -190 129.5 -309t343.5 -119zM516 137q-97 0 -151 56t-54 156v1q0 100 54.5 156.5t150.5 56.5q95 0 149.5 -56.5t54.5 -156.5v-1q0 -100 -54 -156t-150 -56zM516 223
q47 0 74.5 33.5t27.5 92.5v1q0 60 -27.5 93.5t-74.5 33.5q-48 0 -75 -33.5t-27 -93.5v-1q0 -59 27 -92.5t75 -33.5z" />
    <glyph glyph-name="uni25B6" unicode="&#x25b6;" horiz-adv-x="1032" 
d="M516 -79q-214 0 -343.5 119t-129.5 309v1q0 191 129.5 310t343.5 119t343.5 -119t129.5 -310v-1q0 -190 -129.5 -309t-343.5 -119zM516 2q173 0 277.5 96t104.5 251v1q0 155 -104.5 251.5t-277.5 96.5q-174 0 -278 -96t-104 -252v-1q0 -155 104.5 -251t277.5 -96z
M789 350l-438 -206v412z" />
    <glyph glyph-name="triagrt" unicode="&#x25ba;" horiz-adv-x="1032" 
d="M789 350l-438 -206v412z" />
    <glyph glyph-name="lozenge" unicode="&#x25ca;" horiz-adv-x="701" 
d="M462 0h-223l-206 350l206 350h223l206 -350zM187 350l155 -272h17l153 272l-153 272h-17z" />
    <glyph glyph-name="circle" unicode="&#x25cb;" horiz-adv-x="1032" 
d="M516 -79q-214 0 -343.5 119t-129.5 309v1q0 191 129.5 310t343.5 119t343.5 -119t129.5 -310v-1q0 -190 -129.5 -309t-343.5 -119zM516 2q173 0 277.5 96t104.5 251v1q0 155 -104.5 251.5t-277.5 96.5q-174 0 -278 -96t-104 -252v-1q0 -155 104.5 -251t277.5 -96z" />
    <glyph glyph-name="uni25CF" unicode="&#x25cf;" horiz-adv-x="1032" 
d="M516 -79q214 0 343.5 119t129.5 309v1q0 191 -129.5 310t-343.5 119t-343.5 -119t-129.5 -310v-1q0 -190 129.5 -309t343.5 -119z" />
    <glyph glyph-name="uni2776" unicode="&#x2776;" horiz-adv-x="1032" 
d="M516 -79q214 0 343.5 119t129.5 309v1q0 191 -129.5 310t-343.5 119t-343.5 -119t-129.5 -310v-1q0 -190 129.5 -309t343.5 -119zM603 150h-98v293h-18q-11 -55 -41.5 -80t-84.5 -25h-39v102h40q59 0 86 26t27 84h128v-400z" />
    <glyph glyph-name="uni2777" unicode="&#x2777;" horiz-adv-x="1032" 
d="M516 -79q214 0 343.5 119t129.5 309v1q0 191 -129.5 310t-343.5 119t-343.5 -119t-129.5 -310v-1q0 -190 129.5 -309t343.5 -119zM692 150h-342v130l175 81q38 18 54 34t16 38v1q0 24 -19.5 38t-53.5 14q-39 0 -61.5 -19t-22.5 -51h-99q0 67 48.5 107t134.5 40
q81 0 126.5 -35t45.5 -91v-1q0 -46 -26 -78t-89 -59l-120 -53v-17h233v-79z" />
    <glyph glyph-name="uni2778" unicode="&#x2778;" horiz-adv-x="1032" 
d="M516 -79q214 0 343.5 119t129.5 309v1q0 191 -129.5 310t-343.5 119t-343.5 -119t-129.5 -310v-1q0 -190 129.5 -309t343.5 -119zM517 137q-83 0 -131 36.5t-48 101.5h96q0 -30 22 -46.5t60 -16.5t57.5 14t19.5 36v1q0 23 -18.5 36t-51.5 13h-38v77h38q33 0 51.5 12.5
t18.5 34.5v1q0 23 -19.5 37t-57.5 14t-60 -16.5t-22 -46.5h-96q0 65 48 101.5t131 36.5q82 0 128 -32t46 -84v-1q0 -34 -23 -57.5t-67 -29.5v-18q44 -7 67 -30t23 -56v-1q0 -52 -46 -84.5t-128 -32.5z" />
    <glyph glyph-name="uni2779" unicode="&#x2779;" horiz-adv-x="1032" 
d="M516 -79q214 0 343.5 119t129.5 309v1q0 191 -129.5 310t-343.5 119t-343.5 -119t-129.5 -310v-1q0 -190 129.5 -309t343.5 -119zM628 150h-100v132h-222v118l186 150h136v-193h80v-75h-80v-132zM385 375v-18h143v122h-20z" />
    <glyph glyph-name="uni277A" unicode="&#x277a;" horiz-adv-x="1032" 
d="M516 -79q214 0 343.5 119t129.5 309v1q0 191 -129.5 310t-343.5 119t-343.5 -119t-129.5 -310v-1q0 -190 129.5 -309t343.5 -119zM516 137q-80 0 -127.5 34.5t-51.5 91.5h98q6 -51 80 -51q38 0 58.5 17t20.5 48v1q0 30 -20 47t-57 17q-51 0 -69 -33h-99v241h340v-80h-255
v-107h18q39 43 105 43q61 0 99.5 -36t38.5 -91v-1q0 -62 -49 -101.5t-130 -39.5z" />
    <glyph glyph-name="uni277B" unicode="&#x277b;" horiz-adv-x="1032" 
d="M516 -79q214 0 343.5 119t129.5 309v1q0 191 -129.5 310t-343.5 119t-343.5 -119t-129.5 -310v-1q0 -190 129.5 -309t343.5 -119zM510 137q-89 0 -136.5 49t-47.5 143v1q0 233 197 233q74 0 118 -34t53 -91h-94q-14 50 -77 50q-100 0 -100 -133h19q39 48 109 48
q63 0 103 -35.5t40 -91.5v-1q0 -61 -50 -99.5t-134 -38.5zM512 207q38 0 60 17.5t22 45.5v1q0 29 -21.5 46t-59.5 17q-39 0 -61 -17t-22 -46v-1q0 -29 22.5 -46t59.5 -17z" />
    <glyph glyph-name="uni277C" unicode="&#x277c;" horiz-adv-x="1032" 
d="M516 -79q214 0 343.5 119t129.5 309v1q0 191 -129.5 310t-343.5 119t-343.5 -119t-129.5 -310v-1q0 -190 129.5 -309t343.5 -119zM501 150h-109l204 301v19h-245v80h330v-121z" />
    <glyph glyph-name="uni277D" unicode="&#x277d;" horiz-adv-x="1032" 
d="M516 -79q214 0 343.5 119t129.5 309v1q0 191 -129.5 310t-343.5 119t-343.5 -119t-129.5 -310v-1q0 -190 129.5 -309t343.5 -119zM516 137q-85 0 -133 31t-48 81v1q0 35 23 59.5t65 31.5v18q-41 6 -64.5 31t-23.5 58v1q0 52 48 83t133 31q86 0 133.5 -31t47.5 -83v-1
q0 -33 -23 -58t-65 -31v-18q42 -7 65 -31.5t23 -59.5v-1q0 -51 -48 -81.5t-133 -30.5zM516 386q39 0 61 14.5t22 38.5v1q0 55 -83 55q-41 0 -62 -15t-21 -40v-1q0 -24 22.5 -38.5t60.5 -14.5zM516 205q41 0 62 15t21 39v1q0 26 -22 40.5t-61 14.5t-61 -14.5t-22 -40.5v-1
q0 -24 21 -39t62 -15z" />
    <glyph glyph-name="uni277E" unicode="&#x277e;" horiz-adv-x="1032" 
d="M516 -79q214 0 343.5 119t129.5 309v1q0 191 -129.5 310t-343.5 119t-343.5 -119t-129.5 -310v-1q0 -190 129.5 -309t343.5 -119zM509 137q-74 0 -118 34t-53 91h94q12 -50 77 -50q100 0 100 133h-19q-39 -48 -109 -48q-64 0 -103.5 35.5t-39.5 91.5v1q0 61 50 99.5
t134 38.5q88 0 135.5 -49t47.5 -143v-1q0 -233 -196 -233zM519 366q38 0 60.5 17t22.5 46v1q0 29 -22.5 46t-59.5 17q-38 0 -60.5 -17.5t-22.5 -45.5v-1q0 -29 22 -46t60 -17z" />
    <glyph glyph-name="uni27F3" unicode="&#x27f3;" horiz-adv-x="1133" 
d="M493 -62q-200 0 -324 113.5t-124 292.5v1q0 178 124 292t324 114q194 0 313 -109.5t124 -283.5h18q21 100 149 100h28v-114h-28q-76 0 -120 -46.5t-44 -119.5h-112q0 73 -43 119.5t-120 46.5h-28v114h28q128 0 149 -100h18q-5 132 -95.5 213.5t-236.5 81.5
q-153 0 -247.5 -86.5t-94.5 -221.5v-1q0 -136 94.5 -222.5t247.5 -86.5q156 0 250 105l67 -68q-120 -134 -317 -134z" />
    <glyph glyph-name="uni2B10" unicode="&#x2b10;" horiz-adv-x="940" 
d="M907 700v-105h-534v-484h18q20 126 178 126h39v-114h-39q-86 0 -135.5 -56t-49.5 -141h-127q0 86 -49 141.5t-136 55.5h-39v114h39q73 0 120.5 -31t57.5 -95h19v589h638z" />
    <glyph glyph-name="uniF8FF" unicode="&#xf8ff;" horiz-adv-x="679" 
d="M354 524q233 -70 233 -238q0 -113 -104 -169q-25 -13 -66 -13l-52 2q-274 0 -274 151q0 41 11 85t30 68q24 61 54 83q11 9 34 15q17 3 31 12q28 13 49 13q6 0 22 -2l3 31q9 73 10 76l10 -2q-4 -18 -10 -75l-3 -31q14 -4 22 -6zM478 126q99 50 99 160q0 161 -226 228
l-21 6q-11 -97 -30 -108l-5 9q14 8 25 100q-14 2 -20 2q-19 0 -45 -12q-14 -7 -32 -13q-21 -5 -31 -13q-23 -18 -42 -59q10 5 19 5v-10q-14 0 -27 -13q-1 -4 -3.5 -11t-3.5 -9l-6 2q-28 -50 -28 -133q0 -141 264 -141q6 0 28 -1t24 -1q37 0 61 12z" />
    <glyph glyph-name="fi" unicode="&#xfb01;" horiz-adv-x="746" 
d="M273 506v-17h390v-489h-146v386h-244v-386h-148v382h-111v107h111v16q0 98 71.5 155.5t201.5 57.5q122 0 190 -43.5t76 -127.5h-151q-9 70 -114 70q-58 0 -92 -29t-34 -82z" />
    <glyph glyph-name="fl" unicode="&#xfb02;" horiz-adv-x="862" 
d="M359 719q107 0 165 -43t58 -123v-5h-145v4q0 65 -77 65q-40 0 -62.5 -21.5t-22.5 -58.5v-48h230v-107h-230v-382h-150v382h-111v107h111v41q0 88 62.5 138.5t171.5 50.5zM631 0v700h149v-700h-149z" />
    <glyph glyph-name="u1F503" unicode="&#x1f503;" horiz-adv-x="1239" 
d="M1037 178h-112q0 73 -43.5 119.5t-119.5 46.5h-29v114h29q128 0 149 -100h18q-5 132 -92 213.5t-229 81.5q-150 0 -238 -102l-67 68q116 132 305 132t305 -109.5t121 -283.5h17q21 100 149 100h28v-114h-28q-76 0 -119.5 -46.5t-43.5 -119.5zM631 -62q-189 0 -305 109
t-121 283v1h-17q-21 -100 -149 -100h-28v114h28q76 0 119.5 46.5t43.5 118.5h112q0 -72 43.5 -118.5t119.5 -46.5h29v-114h-29q-128 0 -149 100h-18v-1q5 -132 92 -213.5t229 -81.5q149 0 238 102l68 -68q-117 -131 -306 -131z" />
    <glyph glyph-name="u1F517" unicode="&#x1f517;" horiz-adv-x="1030" 
d="M567 155q-74 0 -123.5 39.5t-69.5 105.5l86 59q8 -45 36.5 -73t70.5 -28q33 0 61 23l204 151q52 32 52 89q0 45 -29 73.5t-74 28.5q-42 0 -78 -27l-114 -95q-61 34 -133 34l188 143q67 51 148 51q92 0 151 -56.5t59 -145.5q0 -113 -111 -181l-194 -145q-58 -46 -130 -46z
M238 -75q-92 0 -151 57t-59 146q0 114 111 181l194 145q57 45 130 45t123.5 -39.5t70.5 -104.5l-86 -59q-8 44 -37.5 72t-70.5 28q-34 0 -61 -22l-205 -152q-51 -31 -51 -88q0 -46 29 -74.5t74 -28.5q41 0 78 28l114 95q61 -36 132 -34l-188 -143q-68 -52 -147 -52z" />
    <glyph glyph-name="uni004A0301" horiz-adv-x="707" 
d="M615 755h-135l77 110h164zM328 -21q-294 0 -294 272v120h158v-117q0 -148 139 -148q70 0 103.5 37.5t33.5 116.5v440h158v-444q0 -133 -77 -205t-221 -72z" />
    <glyph glyph-name="uni006A0301" horiz-adv-x="326" 
d="M233 549h-125l71 147h165zM53 -193h-57v109h40q31 0 44.5 15t13.5 48v510h150v-510q0 -172 -191 -172z" />
    <glyph glyph-name="zero.zero" horiz-adv-x="784" 
d="M703 527q27 -73 27 -177t-27 -177q-68 -191 -311 -191t-311 191q-27 73 -27 177t27 177q68 191 311 191t311 -191zM230 491q-19 -53 -19 -141t19 -141q4 -13 12 -27l243 395q-37 21 -93 21q-125 0 -162 -107zM554 209q19 53 19 141t-19 141q-8 20 -13 28l-243 -395
q38 -22 94 -22q123 0 162 107z" />
    <glyph glyph-name="zero.tf" 
d="M381 -18q-243 0 -311 191q-27 73 -27 177t27 177q68 191 311 191q244 0 311 -191q27 -73 27 -177t-27 -177q-68 -191 -311 -191zM381 102q123 0 162 107q19 53 19 141t-19 141q-39 107 -162 107t-162 -107q-19 -53 -19 -141t19 -141q39 -107 162 -107z" />
    <glyph glyph-name="one.tf" 
d="M720 0h-609v124h264v460h-19q-13 -189 -200 -189h-45v146h51q80 0 123 41.5t43 117.5h196v-576h196v-124z" />
    <glyph glyph-name="two.tf" 
d="M684 0h-570v205l294 147q66 35 93.5 68t27.5 76q0 42 -27 69q-34 34 -109 34q-71 0 -110.5 -33.5t-41.5 -94.5v-21h-153v22q2 113 83 179.5t221 66.5q160 0 235 -77q57 -55 57 -142q0 -80 -41.5 -134.5t-140.5 -100.5l-251 -123v-18h433v-123z" />
    <glyph glyph-name="three.tf" 
d="M378 -18q-142 0 -223 61.5t-83 170.5v7h153v-6q3 -117 153 -117q85 0 119 36q24 22 24 58q0 38 -22 60q-35 35 -129 35h-45v127h45q93 0 129 34q22 22 22 60q0 36 -24 58q-34 36 -119 36q-72 0 -112 -30.5t-41 -86.5v-6h-153v7q2 109 83 170.5t223 61.5q172 0 248 -76
q49 -49 49 -123q0 -62 -42 -106q-47 -47 -139 -53v-19q91 -6 139 -54q42 -42 42 -106q0 -74 -49 -123q-76 -76 -248 -76z" />
    <glyph glyph-name="four.tf" 
d="M586 346h149v-120h-149v-226h-149v226h-381v194l312 280h218v-354zM168 364v-18h269v248h-17z" />
    <glyph glyph-name="five.tf" 
d="M387 -18q-132 0 -212.5 58t-83.5 153v4h154v-2q3 -42 42 -69.5t101 -27.5q79 0 116 37q32 30 32 83q0 52 -30 81q-33 35 -106 35q-84 0 -116 -50h-169v416h574v-124h-432v-210h17q52 81 179 81q113 0 176 -63q62 -62 62 -165q0 -94 -62 -158q-79 -79 -242 -79z" />
    <glyph glyph-name="six.tf" 
d="M393 -18q-230 0 -294 176q-26 70 -26 165q0 121 30 203q67 192 308 192q130 0 208.5 -59.5t80.5 -157.5v-4h-153v3q-2 48 -39 75t-102 27q-183 0 -183 -263h18q58 107 205 107q124 0 194 -70q60 -60 60 -152q0 -95 -65 -162q-80 -80 -242 -80zM393 96q86 0 125 41
q30 29 30 78t-30 77q-39 41 -125 41q-85 0 -126 -41q-30 -30 -30 -77q0 -48 30 -78q41 -41 126 -41z" />
    <glyph glyph-name="seven.tf" 
d="M357 0h-178l378 558v18h-466v124h595v-196z" />
    <glyph glyph-name="eight.tf" 
d="M385 -18q-179 0 -253 76q-49 49 -49 123q0 65 42 106q48 48 136 54v19q-89 6 -136 53q-42 42 -42 106q0 74 49 123q74 76 253 76t253 -76q49 -49 49 -123q0 -64 -42 -106q-47 -47 -136 -53v-19q88 -6 136 -54q42 -41 42 -106q0 -74 -49 -123q-74 -76 -253 -76zM385 413
q94 0 129 35q23 22 23 61q0 36 -24 60q-37 37 -128 37t-128 -37q-24 -24 -24 -60q0 -39 23 -61q35 -35 129 -35zM385 94q91 0 128 37q24 24 24 60q0 39 -23 62q-36 36 -129 36q-91 0 -129 -36q-23 -23 -23 -62q0 -36 24 -60q37 -37 128 -37z" />
    <glyph glyph-name="nine.tf" 
d="M371 718q229 0 294 -176q25 -68 25 -165q0 -123 -29 -203q-69 -192 -308 -192q-131 0 -209 59.5t-80 157.5v4h153v-3q2 -48 38.5 -75t101.5 -27q184 0 184 263h-18q-60 -107 -206 -107q-124 0 -194 70q-59 59 -59 152q0 97 65 162q80 80 242 80zM371 604q-85 0 -126 -41
q-30 -30 -30 -78q0 -47 30 -77q41 -41 126 -41q84 0 125 41q30 30 30 77q0 48 -30 78q-41 41 -125 41z" />
    <glyph glyph-name="zero.tf.zero" 
d="M692 527q27 -73 27 -177t-27 -177q-68 -191 -311 -191t-311 191q-27 73 -27 177t27 177q68 191 311 191q244 0 311 -191zM219 491q-19 -53 -19 -141t19 -141q6 -15 12 -27l243 394q-37 22 -93 22q-123 0 -162 -107zM543 209q19 53 19 141t-19 141q-6 15 -12 27l-244 -394
q38 -22 94 -22q123 0 162 107z" />
    <glyph glyph-name="dollar.tf" 
d="M701 470h-154v8q0 58 -42 87.5t-119 29.5q-114 0 -145 -53q-11 -19 -11 -41q0 -19 9 -34q22 -38 111 -50l136 -16q143 -19 186 -98q23 -39 23 -94q0 -57 -25 -100q-55 -97 -223 -114v-100h-122v100q-121 11 -189 70t-68 156v13h154v-8q0 -58 43 -88.5t119 -30.5
q115 0 146 53q11 20 11 41q0 19 -9 36q-21 37 -110 49l-135 16q-144 20 -188 98q-23 39 -23 93t25 99q56 97 224 115v90h122v-90q121 -11 187.5 -69t66.5 -155v-13z" />
    <glyph glyph-name="cent.tf" 
d="M389 100q117 0 135 86h143q-5 -80 -64.5 -130.5t-159.5 -61.5v-66h-106v65q-144 15 -205 104q-41 59 -41 145q0 88 42 147q59 88 204 104v65h106v-64q105 -11 167 -61.5t66 -130.5h-143q-19 86 -139 86q-93 0 -132 -55q-24 -35 -24 -90t24 -90q36 -53 127 -53z" />
    <glyph glyph-name="sterling.tf" 
d="M597 214l120 -46q-17 -86 -74 -127t-157 -41h-415v170q153 0 153 102q0 19 -4 32h-149v95h94q-42 59 -42 119q0 90 74.5 145t206.5 55q134 0 210 -64t76 -173h-148q0 55 -35.5 86.5t-100.5 31.5q-129 0 -129 -95q0 -18 8 -38t15 -31t24 -36h229v-95h-183q3 -15 3 -31
q0 -118 -155 -139v-18h247q56 0 87 22.5t45 75.5z" />
    <glyph glyph-name="florin.tf" 
d="M432 516l-14 -85h195v-106h-213l-53 -316q-30 -170 -202 -170q-48 0 -103 19v106q47 -20 83 -20q84 0 100 87l49 294h-175v106h193l16 97q32 188 228 188q89 0 140 -38t61 -109l-125 -1q-12 46 -79 46q-42 0 -67 -23t-34 -75z" />
    <glyph glyph-name="yen.tf" 
d="M567 700h169l-205 -338h136v-97h-194l-10 -16v-56h204v-96h-204v-97h-155v97h-201v96h201v56l-10 16h-191v97h133l-205 338h169l167 -281l6 -45h17l6 45z" />
    <glyph glyph-name="Euro.tf" 
d="M507 101q97 0 158 42l62 -105q-93 -55 -222 -55q-142 0 -234.5 54.5t-130.5 159.5l-9 27h-71v89h56q-1 12 -1 38q0 22 1 32h-56v88h70q6 22 10 32q38 105 130.5 159.5t234.5 54.5q129 0 222 -55l-62 -105q-61 42 -158 42q-173 0 -224 -128h340l-50 -88h-309
q-1 -10 -1 -32q0 -14 2 -38h270l-49 -89h-201q54 -123 222 -123z" />
    <glyph glyph-name="percent.tf" 
d="M220 430q-77 0 -124.5 40t-47.5 102t48 102.5t124 40.5t124 -40.5t48 -102.5q0 -61 -48 -101.5t-124 -40.5zM162 -10h-93l537 720h93zM220 504q39 0 61.5 19t22.5 49t-22.5 49t-61.5 19q-38 0 -60.5 -19t-22.5 -49t22.5 -49t60.5 -19zM550 -15q-76 0 -124 40.5t-48 101.5
q0 62 48 102.5t124 40.5t124 -40.5t48 -102.5q0 -61 -48 -101.5t-124 -40.5zM550 59q39 0 61.5 18.5t22.5 49.5t-22.5 49.5t-61.5 18.5q-38 0 -60.5 -19t-22.5 -49t22.5 -49t60.5 -19z" />
    <glyph glyph-name="perthousand.tf" 
d="M213 430q-77 0 -125 40t-48 102t48 102.5t125 40.5q76 0 123.5 -40.5t47.5 -102.5t-47.5 -102t-123.5 -40zM213 504q39 0 61.5 19t22.5 49t-22.5 49t-61.5 19t-61.5 -19t-22.5 -49t22.5 -49t61.5 -19zM645 459l-601 -223v76l601 224v-77zM307 -15q-74 0 -121.5 40.5
t-47.5 101.5q0 62 47.5 103t121.5 41q80 0 132 -49q52 49 133 49q73 0 120.5 -41t47.5 -103q0 -61 -47 -101.5t-121 -40.5q-80 0 -133 47q-52 -47 -132 -47zM311 60q39 0 61.5 18.5t22.5 48.5q0 31 -22.5 49.5t-61.5 18.5t-61.5 -19t-22.5 -49t22.5 -48.5t61.5 -18.5z
M568 60q39 0 61.5 18.5t22.5 48.5q0 31 -22.5 49.5t-61.5 18.5t-61.5 -19t-22.5 -49t22.5 -48.5t61.5 -18.5z" />
    <glyph glyph-name="Adieresis.ss01" horiz-adv-x="860" 
d="M311 745q-35 0 -56 17.5t-21 47.5t21 47.5t56 17.5q34 0 54.5 -17.5t20.5 -47.5t-21 -47.5t-54 -17.5zM551 745q-35 0 -56 17.5t-21 47.5t21 47.5t56 17.5q34 0 54.5 -17.5t20.5 -47.5t-20.5 -47.5t-54.5 -17.5zM843 0h-171l-87 217h-311l-87 -217h-170l295 700h236z
M411 557l-86 -215h209l-86 215l-9 66h-18z" />
    <glyph glyph-name="uni1EA0.ss01" horiz-adv-x="860" 
d="M548 700l295 -700h-171l-87 217h-311l-87 -217h-170l295 700h236zM411 557l-86 -215h209l-86 215l-9 66h-18zM423 -51q41 0 65 -19t24 -52q0 -34 -24 -53t-65 -19q-42 0 -66.5 19.5t-24.5 52.5t24.5 52t66.5 19z" />
    <glyph glyph-name="Cdotaccent.ss01" horiz-adv-x="919" 
d="M484 750q-35 0 -56 17.5t-21 47.5t21 47.5t56 17.5q34 0 54.5 -17.5t20.5 -47.5t-20.5 -47.5t-54.5 -17.5zM473 -21q-151 0 -259.5 62.5t-148.5 174.5q-22 59 -22 134t22 134q40 112 149.5 174.5t264.5 62.5q170 0 278.5 -75t118.5 -199h-162q-14 68 -76 107.5t-158 39.5
q-95 0 -163.5 -40t-94.5 -112q-15 -42 -15 -92t15 -92q26 -72 94 -112t161 -40q92 0 150.5 39t75.5 108h162q-15 -124 -119 -199t-273 -75z" />
    <glyph glyph-name="Edieresis.ss01" horiz-adv-x="698" 
d="M246 745q-35 0 -56 17.5t-21 47.5t21 47.5t56 17.5q34 0 54.5 -17.5t20.5 -47.5t-21 -47.5t-54 -17.5zM486 745q-35 0 -56 17.5t-21 47.5t21 47.5t56 17.5q34 0 54.5 -17.5t20.5 -47.5t-20.5 -47.5t-54.5 -17.5zM635 0h-544v700h544v-125h-386v-163h376v-122h-376v-165
h386v-125z" />
    <glyph glyph-name="Edotaccent.ss01" horiz-adv-x="698" 
d="M366 750q-35 0 -56 17.5t-21 47.5t21 47.5t56 17.5q34 0 54.5 -17.5t20.5 -47.5t-20.5 -47.5t-54.5 -17.5zM635 0h-544v700h544v-125h-386v-163h376v-122h-376v-165h386v-125z" />
    <glyph glyph-name="uni1EB8.ss01" horiz-adv-x="698" 
d="M635 0h-544v700h544v-125h-386v-163h376v-122h-376v-165h386v-125zM377 -194q-42 0 -66.5 19.5t-24.5 52.5t24.5 52t66.5 19q41 0 65 -19t24 -52q0 -34 -24 -53t-65 -19z" />
    <glyph glyph-name="uni0122.ss01" horiz-adv-x="937" 
d="M431 -21q-131 0 -229 59.5t-136 165.5q-23 67 -23 142t23 138q41 112 149.5 174.5t266.5 62.5q170 0 278.5 -74t121.5 -194h-162q-14 65 -77.5 103t-160.5 38q-96 0 -165 -39.5t-94 -111.5q-16 -42 -16 -97q0 -59 16 -102q25 -69 90 -107t154 -38q99 0 162.5 43t74.5 115
h-248v115h399v-372h-145l32 161h-18q-28 -85 -103 -133.5t-190 -48.5zM395 -189v47q66 0 67 20q-71 2 -71 41q0 20 21.5 32t57.5 12q81 0 81 -64q0 -39 -37 -63.5t-119 -24.5z" />
    <glyph glyph-name="Gdotaccent.ss01" horiz-adv-x="937" 
d="M486 750q-35 0 -56 17.5t-21 47.5t21 47.5t56 17.5q34 0 54.5 -17.5t20.5 -47.5t-20.5 -47.5t-54.5 -17.5zM431 -21q-131 0 -229 59.5t-136 165.5q-23 67 -23 142t23 138q41 112 149.5 174.5t266.5 62.5q170 0 278.5 -74t121.5 -194h-162q-14 65 -77.5 103t-160.5 38
q-96 0 -165 -39.5t-94 -111.5q-16 -42 -16 -97q0 -59 16 -102q25 -69 90 -107t154 -38q99 0 162.5 43t74.5 115h-248v115h399v-372h-145l32 161h-18q-28 -85 -103 -133.5t-190 -48.5z" />
    <glyph glyph-name="Idieresis.ss01" horiz-adv-x="340" 
d="M50 745q-35 0 -56 17.5t-21 47.5t21 47.5t56 17.5q34 0 54.5 -17.5t20.5 -47.5t-21 -47.5t-54 -17.5zM290 745q-35 0 -56 17.5t-21 47.5t21 47.5t56 17.5q34 0 54.5 -17.5t20.5 -47.5t-20.5 -47.5t-54.5 -17.5zM249 0h-158v700h158v-700z" />
    <glyph glyph-name="Idotaccent.ss01" horiz-adv-x="340" 
d="M171 750q-35 0 -56 17.5t-21 47.5t21 47.5t56 17.5q34 0 54.5 -17.5t20.5 -47.5t-20.5 -47.5t-54.5 -17.5zM249 0h-158v700h158v-700z" />
    <glyph glyph-name="uni1ECA.ss01" horiz-adv-x="340" 
d="M249 0h-158v700h158v-700zM171 -194q-42 0 -66.5 19.5t-24.5 52.5t24.5 52t66.5 19q41 0 65 -19t24 -52q0 -34 -24 -53t-65 -19z" />
    <glyph glyph-name="uni0136.ss01" horiz-adv-x="810" 
d="M605 700h190l-329 -324l324 -376h-205l-235 282l-101 -103v-179h-158v700h158v-297l-39 -78h18zM398 -37q81 0 81 -64q0 -39 -37 -63.5t-119 -24.5v47q66 0 67 20q-71 2 -71 41q0 20 21.5 32t57.5 12z" />
    <glyph glyph-name="uni013B.ss01" horiz-adv-x="653" 
d="M631 0h-540v700h158v-573h382v-127zM284 -189v47q66 0 67 20q-71 2 -71 41q0 20 21.5 32t57.5 12q81 0 81 -64q0 -39 -37 -63.5t-119 -24.5z" />
    <glyph glyph-name="Ldot.ss01" horiz-adv-x="653" 
d="M631 0h-540v700h158v-573h382v-127zM495 335q-39 0 -63 22.5t-24 60.5t24 60t63 22q40 0 63.5 -22t23.5 -60t-23.5 -60.5t-63.5 -22.5z" />
    <glyph glyph-name="uni0145.ss01" horiz-adv-x="892" 
d="M240 0h-149v700h223l297 -459l23 -150h18v609h149v-700h-223l-298 460l-22 149h-18v-609zM357 -189v47q66 0 67 20q-71 2 -71 41q0 20 21.5 32t57.5 12q81 0 81 -64q0 -39 -37 -63.5t-119 -24.5z" />
    <glyph glyph-name="Odieresis.ss01" horiz-adv-x="971" 
d="M368 745q-35 0 -56 17.5t-21 47.5t21 47.5t56 17.5q34 0 54.5 -17.5t20.5 -47.5t-21 -47.5t-54 -17.5zM608 745q-35 0 -56 17.5t-21 47.5t21 47.5t56 17.5q34 0 54.5 -17.5t20.5 -47.5t-20.5 -47.5t-54.5 -17.5zM486 -21q-159 0 -269.5 62.5t-151.5 174.5q-22 60 -22 134
t22 134q40 111 150.5 174t270.5 63q159 0 269.5 -63t150.5 -174q22 -64 22 -134q0 -74 -22 -134q-40 -111 -150 -174t-270 -63zM486 106q99 0 168 40.5t95 112.5q15 42 15 91t-15 91q-26 71 -94.5 112t-168.5 41t-169 -41t-95 -112q-15 -42 -15 -91t15 -91q26 -71 95 -112
t169 -41z" />
    <glyph glyph-name="uni1ECC.ss01" horiz-adv-x="971" 
d="M486 -21q-159 0 -269.5 62.5t-151.5 174.5q-22 60 -22 134t22 134q40 111 150.5 174t270.5 63q159 0 269.5 -63t150.5 -174q22 -64 22 -134q0 -74 -22 -134q-40 -111 -150 -174t-270 -63zM486 106q99 0 168 40.5t95 112.5q15 42 15 91t-15 91q-26 71 -94.5 112t-168.5 41
t-169 -41t-95 -112q-15 -42 -15 -91t15 -91q26 -71 95 -112t169 -41zM488 -194q-42 0 -66.5 19.5t-24.5 52.5t24.5 52t66.5 19q41 0 65 -19t24 -52q0 -34 -24 -53t-65 -19z" />
    <glyph glyph-name="uni0156.ss01" horiz-adv-x="764" 
d="M479 297l43 -14l200 -283h-194l-200 290h-79v-290h-158v700h389q158 0 214 -97q25 -44 25 -102q0 -57 -24 -97q-51 -88 -216 -93v-14zM456 578h-207v-176h207q67 0 91 42q12 19 12 47q0 26 -11 45q-23 42 -92 42zM378 -37q81 0 81 -64q0 -39 -37 -63.5t-119 -24.5v47
q66 0 67 20q-71 2 -71 41q0 20 21.5 32t57.5 12z" />
    <glyph glyph-name="uni0218.ss01" horiz-adv-x="762" 
d="M376 -21q-151 0 -237.5 62.5t-86.5 174.5v13h159v-9q0 -59 45 -90.5t123 -31.5q119 0 150 55q11 20 11 43q0 21 -8 36q-23 39 -114 51l-140 17q-148 20 -194 101q-24 41 -24 96q0 56 26 102q34 58 111 90t187 32q152 0 237 -61.5t85 -173.5v-13h-159v9q0 59 -43.5 89.5
t-122.5 30.5q-119 0 -150 -55q-11 -19 -11 -42q0 -21 9 -35q22 -39 114 -51l141 -17q147 -20 192 -101q24 -42 24 -98q0 -57 -26 -103q-33 -58 -110 -89.5t-188 -31.5zM299 -189v47q66 0 67 20q-71 2 -71 41q0 20 21.5 32t57.5 12q81 0 81 -64q0 -39 -37 -63.5t-119 -24.5z
" />
    <glyph glyph-name="uni021A.ss01" horiz-adv-x="718" 
d="M13 700h691v-127h-266v-573h-158v573h-267v127zM356 -37q81 0 81 -64q0 -39 -37 -63.5t-119 -24.5v47q66 0 67 20q-71 2 -71 41q0 20 21.5 32t57.5 12z" />
    <glyph glyph-name="Udieresis.ss01" horiz-adv-x="855" 
d="M308 745q-35 0 -56 17.5t-21 47.5t21 47.5t56 17.5q34 0 54.5 -17.5t20.5 -47.5t-21 -47.5t-54 -17.5zM548 745q-35 0 -56 17.5t-21 47.5t21 47.5t56 17.5q34 0 54.5 -17.5t20.5 -47.5t-20.5 -47.5t-54.5 -17.5zM428 -21q-162 0 -254.5 80t-92.5 220v421h161v-416
q0 -82 50 -129t136 -47t135.5 47t49.5 129v416h160v-421q0 -140 -92.5 -220t-252.5 -80z" />
    <glyph glyph-name="uni1EE4.ss01" horiz-adv-x="855" 
d="M428 -21q-162 0 -254.5 80t-92.5 220v421h161v-416q0 -82 50 -129t136 -47t135.5 47t49.5 129v416h160v-421q0 -140 -92.5 -220t-252.5 -80zM428 -194q-42 0 -66.5 19.5t-24.5 52.5t24.5 52t66.5 19q41 0 65 -19t24 -52q0 -34 -24 -53t-65 -19z" />
    <glyph glyph-name="Wdieresis.ss01" horiz-adv-x="1193" 
d="M477 745q-35 0 -56 17.5t-21 47.5t21 47.5t56 17.5q34 0 54.5 -17.5t20.5 -47.5t-21 -47.5t-54 -17.5zM717 745q-35 0 -56 17.5t-21 47.5t21 47.5t56 17.5q34 0 54.5 -17.5t20.5 -47.5t-20.5 -47.5t-54.5 -17.5zM456 0h-245l-181 700h165l132 -539l7 -81h18l6 81l126 539
h225l126 -539l6 -81h18l8 81l131 539h165l-181 -700h-245l-125 539l-7 72h-17l-7 -72z" />
    <glyph glyph-name="Ydieresis.ss01" horiz-adv-x="789" 
d="M274 745q-35 0 -56 17.5t-21 47.5t21 47.5t56 17.5q34 0 54.5 -17.5t20.5 -47.5t-21 -47.5t-54 -17.5zM514 745q-35 0 -56 17.5t-21 47.5t21 47.5t56 17.5q34 0 54.5 -17.5t20.5 -47.5t-20.5 -47.5t-54.5 -17.5zM598 700h180l-306 -449v-251h-155v250l-306 450h180
l189 -288l6 -51h17l6 51z" />
    <glyph glyph-name="Zdotaccent.ss01" horiz-adv-x="762" 
d="M376 750q-35 0 -56 17.5t-21 47.5t21 47.5t56 17.5q34 0 54.5 -17.5t20.5 -47.5t-20.5 -47.5t-54.5 -17.5zM705 0h-648v196l489 363v18h-489v123h647v-202l-485 -357v-18h486v-123z" />
    <glyph glyph-name="i.loclTRK" horiz-adv-x="313" 
d="M238 561h-162v125h162v-125zM231 0h-149v489h149v-489z" />
    <glyph glyph-name="adieresis.ss01" horiz-adv-x="670" 
d="M221 560q-35 0 -56 17.5t-21 47.5t21 47.5t56 17.5q34 0 55 -17.5t21 -47.5t-21 -47.5t-55 -17.5zM452 560q-35 0 -56 17.5t-21 47.5t21 47.5t56 17.5q34 0 55 -17.5t21 -47.5t-21 -47.5t-55 -17.5zM327 507q273 0 273 -199v-308h-147l31 135h-18q-42 -153 -228 -153
q-98 0 -145 47q-37 37 -37 95q0 60 37 97q48 48 150 54l207 11v26q0 89 -126 89q-34 0 -59.5 -8t-37.5 -18t-19.5 -23.5t-8.5 -21t-1 -13.5v-2h-152v2q1 12 3 22.5t9.5 36t26 45.5t47.5 41t79.5 33t115.5 12zM290 79q79 0 118.5 40.5t41.5 84.5l-162 -12q-45 -5 -64 -24
q-14 -13 -14 -36q0 -21 13 -34q19 -19 67 -19z" />
    <glyph glyph-name="uni1EA1.ss01" horiz-adv-x="670" 
d="M327 507q273 0 273 -199v-308h-147l31 135h-18q-42 -153 -228 -153q-98 0 -145 47q-37 37 -37 95q0 60 37 97q48 48 150 54l207 11v26q0 89 -126 89q-34 0 -59.5 -8t-37.5 -18t-19.5 -23.5t-8.5 -21t-1 -13.5v-2h-152v2q1 12 3 22.5t9.5 36t26 45.5t47.5 41t79.5 33
t115.5 12zM290 79q79 0 118.5 40.5t41.5 84.5l-162 -12q-45 -5 -64 -24q-14 -13 -14 -36q0 -21 13 -34q19 -19 67 -19zM351 -51q41 0 65 -19t24 -52q0 -34 -24 -53t-65 -19q-42 0 -66.5 19.5t-24.5 52.5t24.5 52t66.5 19z" />
    <glyph glyph-name="cdotaccent.ss01" horiz-adv-x="684" 
d="M356 552q-42 0 -67.5 19.5t-25.5 53.5q0 33 25.5 52.5t67.5 19.5t67 -19.5t25 -52.5q0 -34 -25 -53.5t-67 -19.5zM347 -18q-191 0 -265 110q-43 61 -43 151t44 153q77 111 271 111q130 0 209.5 -54.5t84.5 -147.5h-149q-19 89 -145 89q-97 0 -136 -57q-26 -37 -26 -94
q0 -58 25 -93q38 -56 132 -56q60 0 96.5 23.5t44.5 66.5h149q-7 -94 -85 -148t-207 -54z" />
    <glyph glyph-name="edieresis.ss01" horiz-adv-x="674" 
d="M231 560q-35 0 -56 17.5t-21 47.5t21 47.5t56 17.5q34 0 55 -17.5t21 -47.5t-21 -47.5t-55 -17.5zM462 560q-35 0 -56 17.5t-21 47.5t21 47.5t56 17.5q34 0 55 -17.5t21 -47.5t-21 -47.5t-55 -17.5zM485 150h150q-18 -76 -95 -122t-191 -46q-193 0 -267 109
q-43 61 -43 152q0 88 46 154q76 110 256 110q140 0 216.5 -67.5t76.5 -190.5v-39h-447q5 -43 24 -71q38 -56 136 -54q105 0 138 65zM341 406q-93 -2 -131 -56q-15 -22 -20 -52h296q-8 108 -145 108z" />
    <glyph glyph-name="edotaccent.ss01" horiz-adv-x="674" 
d="M346 552q-42 0 -67.5 19.5t-25.5 53.5q0 33 25.5 52.5t67.5 19.5t67 -19.5t25 -52.5q0 -34 -25 -53.5t-67 -19.5zM485 150h150q-18 -76 -95 -122t-191 -46q-193 0 -267 109q-43 61 -43 152q0 88 46 154q76 110 256 110q140 0 216.5 -67.5t76.5 -190.5v-39h-447
q5 -43 24 -71q38 -56 136 -54q105 0 138 65zM341 406q-93 -2 -131 -56q-15 -22 -20 -52h296q-8 108 -145 108z" />
    <glyph glyph-name="uni1EB9.ss01" horiz-adv-x="674" 
d="M485 150h150q-18 -76 -95 -122t-191 -46q-193 0 -267 109q-43 61 -43 152q0 88 46 154q76 110 256 110q140 0 216.5 -67.5t76.5 -190.5v-39h-447q5 -43 24 -71q38 -56 136 -54q105 0 138 65zM341 406q-93 -2 -131 -56q-15 -22 -20 -52h296q-8 108 -145 108zM349 -51
q41 0 65 -19t24 -52q0 -34 -24 -53t-65 -19q-42 0 -66.5 19.5t-24.5 52.5t24.5 52t66.5 19z" />
    <glyph glyph-name="uni0123.ss01" horiz-adv-x="718" 
d="M369 548q-83 0 -83 76q0 49 40 80t122 31v-56q-35 0 -49.5 -6t-16.5 -21q31 -1 49.5 -14t18.5 -35q0 -24 -22 -39.5t-59 -15.5zM339 -194q-139 0 -213 49t-79 142h148q8 -87 146 -87q72 0 111.5 32t39.5 91v15l40 131h-18q-48 -151 -210 -151q-151 0 -216 96
q-41 58 -41 144q0 85 41 144q65 95 216 95q162 0 210 -150h18l-39 132h148v-414q0 -269 -302 -269zM347 134q89 0 128 53q22 33 22 81t-22 80q-37 53 -128 53t-127 -53q-23 -33 -23 -80q0 -46 23 -81q37 -53 127 -53z" />
    <glyph glyph-name="gdotaccent.ss01" horiz-adv-x="718" 
d="M369 552q-42 0 -67.5 19.5t-25.5 53.5q0 33 25.5 52.5t67.5 19.5t67 -19.5t25 -52.5q0 -34 -25 -53.5t-67 -19.5zM339 -194q-139 0 -213 49t-79 142h148q8 -87 146 -87q72 0 111.5 32t39.5 91v15l40 131h-18q-48 -151 -210 -151q-151 0 -216 96q-41 58 -41 144
q0 85 41 144q65 95 216 95q162 0 210 -150h18l-39 132h148v-414q0 -269 -302 -269zM347 134q89 0 128 53q22 33 22 81t-22 80q-37 53 -128 53t-127 -53q-23 -33 -23 -80q0 -46 23 -81q37 -53 127 -53z" />
    <glyph glyph-name="i.ss01" horiz-adv-x="313" 
d="M158 552q-42 0 -67.5 19.5t-25.5 53.5q0 33 25.5 52.5t67.5 19.5t67 -19.5t25 -52.5q0 -34 -25 -53.5t-67 -19.5zM231 0h-149v489h149v-489z" />
    <glyph glyph-name="idieresis.ss01" horiz-adv-x="313" 
d="M42 560q-35 0 -56 17.5t-21 47.5t21 47.5t56 17.5q34 0 55 -17.5t21 -47.5t-21 -47.5t-55 -17.5zM273 560q-35 0 -56 17.5t-21 47.5t21 47.5t56 17.5q34 0 55 -17.5t21 -47.5t-21 -47.5t-55 -17.5zM231 0h-149v489h149v-489z" />
    <glyph glyph-name="i.loclTRK.ss01" horiz-adv-x="313" 
d="M158 552q-42 0 -67.5 19.5t-25.5 53.5q0 33 25.5 52.5t67.5 19.5t67 -19.5t25 -52.5q0 -34 -25 -53.5t-67 -19.5zM231 0h-149v489h149v-489z" />
    <glyph glyph-name="uni1ECB.ss01" horiz-adv-x="313" 
d="M158 552q-42 0 -67.5 19.5t-25.5 53.5q0 33 25.5 52.5t67.5 19.5t67 -19.5t25 -52.5q0 -34 -25 -53.5t-67 -19.5zM231 0h-149v489h149v-489zM158 -194q-42 0 -66.5 19.5t-24.5 52.5t24.5 52t66.5 19q41 0 65 -19t24 -52q0 -34 -24 -53t-65 -19z" />
    <glyph glyph-name="ij.ss01" horiz-adv-x="639" 
d="M158 552q-42 0 -67.5 19.5t-25.5 53.5q0 33 25.5 52.5t67.5 19.5t67 -19.5t25 -52.5q0 -34 -25 -53.5t-67 -19.5zM483 552q-43 0 -68 19.5t-25 53.5t25 53t68 19q42 0 66.5 -19.5t24.5 -52.5q0 -34 -25 -53.5t-66 -19.5zM231 0h-149v489h149v-489zM366 -193h-57v109h40
q31 0 44.5 15t13.5 48v510h150v-510q0 -172 -191 -172z" />
    <glyph glyph-name="iogonek.ss01" horiz-adv-x="313" 
d="M158 697q42 0 67 -19.5t25 -52.5q0 -34 -25 -53.5t-67 -19.5t-67.5 19.5t-25.5 53.5q0 33 25.5 52.5t67.5 19.5zM82 21v468h149v-489h-64q-35 -11 -49.5 -23.5t-14.5 -31.5q0 -46 102 -46v-91q-210 0 -210 113q0 66 87 100z" />
    <glyph glyph-name="j.ss01" horiz-adv-x="326" 
d="M170 552q-42 0 -67.5 19.5t-25.5 53.5q0 33 25.5 52.5t67.5 19.5t67 -19.5t25 -52.5q0 -34 -25 -53.5t-67 -19.5zM53 -193h-57v109h40q31 0 44.5 15t13.5 48v510h150v-510q0 -172 -191 -172z" />
    <glyph glyph-name="uni0137.ss01" horiz-adv-x="688" 
d="M495 489h183l-255 -221l250 -268h-188l-169 191l-85 -76v-115h-149v700h149v-389l-40 -66h18zM347 -37q81 0 81 -64q0 -39 -37 -63.5t-119 -24.5v47q66 0 67 20q-71 2 -71 41q0 20 21.5 32t57.5 12z" />
    <glyph glyph-name="uni013C.ss01" horiz-adv-x="313" 
d="M231 0h-149v700h149v-700zM79 -189v47q66 0 67 20q-71 2 -71 41q0 20 21.5 32t57.5 12q81 0 81 -64q0 -39 -37 -63.5t-119 -24.5z" />
    <glyph glyph-name="ldot.ss01" horiz-adv-x="408" 
d="M231 0h-149v700h149v-700zM360 336q-39 0 -62.5 22.5t-23.5 60.5t23.5 60t62.5 22q40 0 63.5 -22t23.5 -60t-23.5 -60.5t-63.5 -22.5z" />
    <glyph glyph-name="napostrophe.ss01" horiz-adv-x="965" 
d="M134 721q97 0 97 -115q0 -82 -45.5 -132.5t-131.5 -50.5v73q79 3 88 72q-43 -10 -72 11.5t-29 62.5q0 36 25 57.5t68 21.5zM676 507q108 0 163.5 -55t55.5 -161v-291h-149v271q0 118 -123 118q-68 0 -107 -39.5t-39 -107.5v-242h-149v489h149l-32 -139h18q51 157 213 157
z" />
    <glyph glyph-name="uni0146.ss01" horiz-adv-x="720" 
d="M231 0h-149v489h149l-32 -139h18q51 157 213 157q108 0 163.5 -55t55.5 -161v-291h-149v271q0 118 -123 118q-68 0 -107 -39.5t-39 -107.5v-242zM290 -189v47q66 0 67 20q-71 2 -71 41q0 20 21.5 32t57.5 12q81 0 81 -64q0 -39 -37 -63.5t-119 -24.5z" />
    <glyph glyph-name="odieresis.ss01" horiz-adv-x="719" 
d="M245 560q-35 0 -56 17.5t-21 47.5t21 47.5t56 17.5q34 0 55 -17.5t21 -47.5t-21 -47.5t-55 -17.5zM476 560q-35 0 -56 17.5t-21 47.5t21 47.5t56 17.5q34 0 55 -17.5t21 -47.5t-21 -47.5t-55 -17.5zM360 -18q-199 0 -278 118q-43 61 -43 144q0 84 43 145q38 56 110 87
t168 31t167.5 -31t110.5 -87q42 -62 42 -145q0 -82 -42 -144q-38 -57 -110 -87.5t-168 -30.5zM360 94q101 0 142 62q25 36 25 88t-25 89q-42 61 -142 61q-101 0 -143 -61q-25 -37 -25 -89t25 -88q41 -62 143 -62z" />
    <glyph glyph-name="uni1ECD.ss01" horiz-adv-x="719" 
d="M360 -18q-199 0 -278 118q-43 61 -43 144q0 84 43 145q38 56 110 87t168 31t167.5 -31t110.5 -87q42 -62 42 -145q0 -82 -42 -144q-38 -57 -110 -87.5t-168 -30.5zM360 94q101 0 142 62q25 36 25 88t-25 89q-42 61 -142 61q-101 0 -143 -61q-25 -37 -25 -89t25 -88
q41 -62 143 -62zM360 -194q-42 0 -66.5 19.5t-24.5 52.5t24.5 52t66.5 19q41 0 65 -19t24 -52q0 -34 -24 -53t-65 -19z" />
    <glyph glyph-name="uni0157.ss01" horiz-adv-x="617" 
d="M231 0h-149v489h148l-36 -151h18q28 89 76 129t125 40q87 0 131 -47t44 -135v-93h-152v56q0 51 -22 75t-72 24q-54 0 -82.5 -35.5t-28.5 -101.5v-250zM79 -189v47q66 0 67 20q-71 2 -71 41q0 20 21.5 32t57.5 12q81 0 81 -64q0 -39 -37 -63.5t-119 -24.5z" />
    <glyph glyph-name="uni0219.ss01" horiz-adv-x="619" 
d="M305 -18q-121 0 -189 44.5t-68 125.5v4h143v-4q0 -72 117 -72q73 0 96 23q12 12 12 32q0 22 -16.5 34.5t-59.5 18.5l-124 16q-161 24 -161 145q0 57 39 96q62 62 217 62q123 0 190 -45.5t67 -126.5v-4h-144v4q0 74 -118 74q-72 0 -95 -23q-13 -13 -13 -31q0 -41 79 -52
l114 -14q90 -15 130 -50.5t40 -97.5q0 -59 -38 -97q-64 -62 -218 -62zM227 -189v47q66 0 67 20q-71 2 -71 41q0 20 21.5 32t57.5 12q81 0 81 -64q0 -39 -37 -63.5t-119 -24.5z" />
    <glyph glyph-name="uni021B.ss01" horiz-adv-x="628" 
d="M589 489v-107h-314v-206q0 -83 82 -83q44 0 64 22.5t20 70.5v60h148v-63q0 -95 -61 -148t-172 -53q-231 0 -231 192v208h-111v107h111v81l150 60v-141h314zM345 -37q81 0 81 -64q0 -39 -37 -63.5t-119 -24.5v47q66 0 67 20q-71 2 -71 41q0 20 21.5 32t57.5 12z" />
    <glyph glyph-name="udieresis.ss01" horiz-adv-x="710" 
d="M235 560q-35 0 -56 17.5t-21 47.5t21 47.5t56 17.5q34 0 55 -17.5t21 -47.5t-21 -47.5t-55 -17.5zM466 560q-35 0 -56 17.5t-21 47.5t21 47.5t56 17.5q34 0 55 -17.5t21 -47.5t-21 -47.5t-55 -17.5zM285 -18q-214 0 -214 216v291h149v-271q0 -118 118 -118q66 0 103 39
t37 107v243h150v-489h-150l33 139h-18q-54 -157 -208 -157z" />
    <glyph glyph-name="uni1EE5.ss01" horiz-adv-x="710" 
d="M285 -18q-214 0 -214 216v291h149v-271q0 -118 118 -118q66 0 103 39t37 107v243h150v-489h-150l33 139h-18q-54 -157 -208 -157zM377 -194q-42 0 -66.5 19.5t-24.5 52.5t24.5 52t66.5 19q41 0 65 -19t24 -52q0 -34 -24 -53t-65 -19z" />
    <glyph glyph-name="wdieresis.ss01" horiz-adv-x="1008" 
d="M390 560q-35 0 -56 17.5t-21 47.5t21 47.5t56 17.5q34 0 55 -17.5t21 -47.5t-21 -47.5t-55 -17.5zM621 560q-35 0 -56 17.5t-21 47.5t21 47.5t56 17.5q34 0 55 -17.5t21 -47.5t-21 -47.5t-55 -17.5zM398 0h-222l-150 489h154l101 -363l4 -51h19l4 51l91 363h212l89 -363
l4 -51h19l4 51l101 363h154l-150 -489h-222l-92 366l-4 47h-20l-4 -47z" />
    <glyph glyph-name="ydieresis.ss01" horiz-adv-x="677" 
d="M224 560q-35 0 -56 17.5t-21 47.5t21 47.5t56 17.5q34 0 55 -17.5t21 -47.5t-21 -47.5t-55 -17.5zM455 560q-35 0 -56 17.5t-21 47.5t21 47.5t56 17.5q34 0 55 -17.5t21 -47.5t-21 -47.5t-55 -17.5zM361 129l137 360h165l-220 -523q-34 -85 -86 -122.5t-139 -37.5
q-95 0 -151 38t-56 107v10h150v-7q0 -21 16 -33t43 -12q56 0 79 58l30 78h-102l-211 444h165l161 -360h19z" />
    <glyph glyph-name="zdotaccent.ss01" horiz-adv-x="626" 
d="M314 552q-42 0 -67.5 19.5t-25.5 53.5q0 33 25.5 52.5t67.5 19.5t67 -19.5t25 -52.5q0 -34 -25 -53.5t-67 -19.5zM571 0h-515v173l353 189v18h-353v109h514v-173l-355 -189v-18h356v-109z" />
    <glyph glyph-name="a.ss02" horiz-adv-x="757" 
d="M313 -18q-155 0 -224 101q-44 64 -44 161q0 98 44 162q69 101 224 101q171 0 227 -151h18l-32 133h149v-489h-149l32 133h-18q-56 -151 -227 -151zM363 94q98 0 139 58q26 37 26 92q0 56 -26 93q-40 57 -139 57q-100 0 -140 -57q-26 -37 -26 -93q0 -55 26 -92
q41 -58 140 -58z" />
    <glyph glyph-name="aacute.ss02" horiz-adv-x="757" 
d="M442 549h-125l71 147h165zM313 -18q-155 0 -224 101q-44 64 -44 161q0 98 44 162q69 101 224 101q171 0 227 -151h18l-32 133h149v-489h-149l32 133h-18q-56 -151 -227 -151zM363 94q98 0 139 58q26 37 26 92q0 56 -26 93q-40 57 -139 57q-100 0 -140 -57
q-26 -37 -26 -93q0 -55 26 -92q41 -58 140 -58z" />
    <glyph glyph-name="abreve.ss02" horiz-adv-x="757" 
d="M379 549q-87 0 -141.5 37.5t-54.5 109.5h108q0 -34 25 -52.5t63 -18.5q39 0 63.5 18t24.5 53h107q0 -72 -54 -109.5t-141 -37.5zM313 -18q-155 0 -224 101q-44 64 -44 161q0 98 44 162q69 101 224 101q171 0 227 -151h18l-32 133h149v-489h-149l32 133h-18
q-56 -151 -227 -151zM363 94q98 0 139 58q26 37 26 92q0 56 -26 93q-40 57 -139 57q-100 0 -140 -57q-26 -37 -26 -93q0 -55 26 -92q41 -58 140 -58z" />
    <glyph glyph-name="acircumflex.ss02" horiz-adv-x="757" 
d="M301 549h-147l155 146h139l154 -146h-146l-77 83zM313 -18q-155 0 -224 101q-44 64 -44 161q0 98 44 162q69 101 224 101q171 0 227 -151h18l-32 133h149v-489h-149l32 133h-18q-56 -151 -227 -151zM363 94q98 0 139 58q26 37 26 92q0 56 -26 93q-40 57 -139 57
q-100 0 -140 -57q-26 -37 -26 -93q0 -55 26 -92q41 -58 140 -58z" />
    <glyph glyph-name="adieresis.ss02" horiz-adv-x="757" 
d="M332 564h-137v111h137v-111zM562 564h-137v111h137v-111zM313 -18q-155 0 -224 101q-44 64 -44 161q0 98 44 162q69 101 224 101q171 0 227 -151h18l-32 133h149v-489h-149l32 133h-18q-56 -151 -227 -151zM363 94q98 0 139 58q26 37 26 92q0 56 -26 93q-40 57 -139 57
q-100 0 -140 -57q-26 -37 -26 -93q0 -55 26 -92q41 -58 140 -58z" />
    <glyph glyph-name="agrave.ss02" horiz-adv-x="757" 
d="M441 549h-125l-111 147h165zM313 -18q-155 0 -224 101q-44 64 -44 161q0 98 44 162q69 101 224 101q171 0 227 -151h18l-32 133h149v-489h-149l32 133h-18q-56 -151 -227 -151zM363 94q98 0 139 58q26 37 26 92q0 56 -26 93q-40 57 -139 57q-100 0 -140 -57
q-26 -37 -26 -93q0 -55 26 -92q41 -58 140 -58z" />
    <glyph glyph-name="amacron.ss02" horiz-adv-x="757" 
d="M572 585h-388v81h388v-81zM313 -18q-155 0 -224 101q-44 64 -44 161q0 98 44 162q69 101 224 101q171 0 227 -151h18l-32 133h149v-489h-149l32 133h-18q-56 -151 -227 -151zM363 94q98 0 139 58q26 37 26 92q0 56 -26 93q-40 57 -139 57q-100 0 -140 -57
q-26 -37 -26 -93q0 -55 26 -92q41 -58 140 -58z" />
    <glyph glyph-name="aogonek.ss02" horiz-adv-x="757" 
d="M675 0h-68q-36 -11 -51.5 -24t-15.5 -32q0 -46 102 -46v-91q-210 0 -210 113q0 70 100 104l26 109h-18q-56 -151 -227 -151q-155 0 -224 101q-44 64 -44 161q0 98 44 162q69 101 224 101q171 0 227 -151h18l-32 133h149v-489zM502 152q26 37 26 92q0 56 -26 93
q-40 57 -139 57q-100 0 -140 -57q-26 -37 -26 -93q0 -55 26 -92q41 -58 140 -58q98 0 139 58z" />
    <glyph glyph-name="aring.ss02" horiz-adv-x="757" 
d="M378 550q-60 0 -98 30.5t-38 81.5q0 50 38 81t98 31t98 -31t38 -81q0 -51 -38 -81.5t-98 -30.5zM378 615q27 0 42.5 12.5t15.5 34.5q0 21 -15.5 34t-42.5 13t-42 -13t-15 -34q0 -22 15 -34.5t42 -12.5zM313 -18q-155 0 -224 101q-44 64 -44 161q0 98 44 162
q69 101 224 101q171 0 227 -151h18l-32 133h149v-489h-149l32 133h-18q-56 -151 -227 -151zM363 94q98 0 139 58q26 37 26 92q0 56 -26 93q-40 57 -139 57q-100 0 -140 -57q-26 -37 -26 -93q0 -55 26 -92q41 -58 140 -58z" />
    <glyph glyph-name="atilde.ss02" horiz-adv-x="757" 
d="M461 566q-33 0 -80 19.5t-79 19.5q-19 0 -35 -10.5t-17 -25.5h-82q0 65 37.5 93t89.5 28q33 0 80 -19.5t79 -19.5q20 0 35 10t17 27h82q0 -64 -38 -93t-89 -29zM313 -18q-155 0 -224 101q-44 64 -44 161q0 98 44 162q69 101 224 101q171 0 227 -151h18l-32 133h149v-489
h-149l32 133h-18q-56 -151 -227 -151zM363 94q98 0 139 58q26 37 26 92q0 56 -26 93q-40 57 -139 57q-100 0 -140 -57q-26 -37 -26 -93q0 -55 26 -92q41 -58 140 -58z" />
    <glyph glyph-name="adieresis.ss01.ss02" horiz-adv-x="757" 
d="M264 560q-35 0 -56 17.5t-21 47.5t21 47.5t56 17.5q34 0 55 -17.5t21 -47.5t-21 -47.5t-55 -17.5zM495 560q-35 0 -56 17.5t-21 47.5t21 47.5t56 17.5q34 0 55 -17.5t21 -47.5t-21 -47.5t-55 -17.5zM313 -18q-155 0 -224 101q-44 64 -44 161q0 98 44 162q69 101 224 101
q171 0 227 -151h18l-32 133h149v-489h-149l32 133h-18q-56 -151 -227 -151zM363 94q98 0 139 58q26 37 26 92q0 56 -26 93q-40 57 -139 57q-100 0 -140 -57q-26 -37 -26 -93q0 -55 26 -92q41 -58 140 -58z" />
    <glyph glyph-name="uni1EA1.ss01.ss02" horiz-adv-x="757" 
d="M313 -18q-155 0 -224 101q-44 64 -44 161q0 98 44 162q69 101 224 101q171 0 227 -151h18l-32 133h149v-489h-149l32 133h-18q-56 -151 -227 -151zM363 94q98 0 139 58q26 37 26 92q0 56 -26 93q-40 57 -139 57q-100 0 -140 -57q-26 -37 -26 -93q0 -55 26 -92
q41 -58 140 -58zM379 -194q-42 0 -66.5 19.5t-24.5 52.5t24.5 52t66.5 19q41 0 65 -19t24 -52q0 -34 -24 -53t-65 -19z" />
    <glyph glyph-name="f.ss03" horiz-adv-x="494" 
d="M539 548h-145v4q0 65 -77 65q-40 0 -63 -21.5t-23 -58.5v-48h230v-107h-230v-382h-149v530q0 88 62.5 138.5t170.5 50.5q107 0 165.5 -43t58.5 -123v-5z" />
    <glyph glyph-name="uni021B.ss01.ss03" horiz-adv-x="574" 
d="M535 489v-107h-315v-206q0 -83 82 -83q45 0 65 22.5t20 70.5v60h148v-63q0 -95 -61 -148t-173 -53q-230 0 -230 192v396l149 60v-141h315zM291 -37q81 0 81 -64q0 -39 -37 -63.5t-119 -24.5v47q66 0 67 20q-71 2 -71 41q0 20 21.5 32t57.5 12z" />
    <glyph glyph-name="t.ss03" horiz-adv-x="574" 
d="M535 489v-107h-315v-206q0 -83 82 -83q45 0 65 22.5t20 70.5v60h148v-63q0 -95 -61 -148t-173 -53q-230 0 -230 192v396l149 60v-141h315z" />
    <glyph glyph-name="tbar.ss03" horiz-adv-x="574" 
d="M535 489v-107h-315v-49h314v-71h-314v-86q0 -83 82 -83q45 0 65 22.5t20 70.5v43h148v-46q0 -95 -61 -148t-173 -53q-230 0 -230 192v396l149 60v-141h315z" />
    <glyph glyph-name="tcaron.ss03" horiz-adv-x="574" 
d="M329 700h131l-80 -162h-85zM535 489v-107h-315v-206q0 -83 82 -83q45 0 65 22.5t20 70.5v60h148v-63q0 -95 -61 -148t-173 -53q-230 0 -230 192v396l149 60v-141h315z" />
    <glyph glyph-name="uni0163.ss03" horiz-adv-x="574" 
d="M535 489v-107h-315v-206q0 -83 82 -83q45 0 65 22.5t20 70.5v60h148v-63q0 -89 -53.5 -141t-152.5 -59l-6 -15q66 -18 66 -71q0 -40 -37 -65.5t-100 -25.5q-62 0 -106.5 25.5t-48.5 81.5h89q8 -41 61 -41q49 0 49 28q0 10 -10.5 17.5t-28.5 7.5l-24 30l12 30
q-174 22 -174 189v396l149 60v-141h315z" />
    <glyph glyph-name="uni021B.ss03" horiz-adv-x="574" 
d="M535 489v-107h-315v-206q0 -83 82 -83q45 0 65 22.5t20 70.5v60h148v-63q0 -95 -61 -148t-173 -53q-230 0 -230 192v396l149 60v-141h315zM277 -115h-59v75h150v-50q0 -47 -39.5 -73t-112.5 -26v50q61 0 61 24z" />
    <glyph glyph-name="j.ss04" horiz-adv-x="339" 
d="M264 561h-162v125h162v-125zM41 -194q-191 0 -210 153h145q6 -46 63 -46q68 0 68 80v496h150v-481q0 -96 -56.5 -149t-159.5 -53z" />
    <glyph glyph-name="uni0237.ss04" horiz-adv-x="326" 
d="M53 -193h-57v109h40q31 0 44.5 15t13.5 48v510h150v-510q0 -172 -191 -172z" />
    <glyph glyph-name="uni006A0301.ss04" horiz-adv-x="339" 
d="M247 549h-125l71 147h165zM41 -194q-191 0 -210 153h145q6 -46 63 -46q68 0 68 80v496h150v-481q0 -96 -56.5 -149t-159.5 -53z" />
    <glyph glyph-name="jcircumflex.ss04" horiz-adv-x="339" 
d="M105 549h-147l155 146h139l154 -146h-146l-77 83zM41 -194q-191 0 -210 153h145q6 -46 63 -46q68 0 68 80v496h150v-481q0 -96 -56.5 -149t-159.5 -53z" />
    <glyph glyph-name="j.ss01.ss04" horiz-adv-x="339" 
d="M184 552q-42 0 -67.5 19.5t-25.5 53.5q0 33 25.5 52.5t67.5 19.5t67 -19.5t25 -52.5q0 -34 -25 -53.5t-67 -19.5zM41 -194q-191 0 -210 153h145q6 -46 63 -46q68 0 68 80v496h150v-481q0 -96 -56.5 -149t-159.5 -53z" />
    <glyph glyph-name="g_j.liga.ss01" horiz-adv-x="1043" 
d="M888 551q-43 0 -68 19.5t-25 52.5t25 52t68 19t67.5 -19t24.5 -52t-24.5 -52.5t-67.5 -19.5zM339 -194q-139 0 -213 49t-79 142h148q8 -87 146 -87q72 0 111.5 32t39.5 91v15l40 131h-18q-48 -151 -210 -151q-151 0 -216 96q-41 58 -41 144q0 85 41 144q65 95 216 95
q162 0 210 -150h18l-39 132h148v-414q0 -269 -302 -269zM771 -193h-57v109h40q31 0 45 15t14 48v510h149v-510q0 -172 -191 -172zM347 134q89 0 128 53q22 33 22 81t-22 80q-37 53 -128 53t-127 -53q-23 -33 -23 -80q0 -46 23 -81q37 -53 127 -53z" />
    <glyph glyph-name="j_j.liga.ss01" horiz-adv-x="661" 
d="M170 551q-43 0 -68 19.5t-25 52.5t25 52t68 19q42 0 66.5 -19t24.5 -52t-24.5 -52.5t-66.5 -19.5zM495 551q-43 0 -68 19.5t-25 52.5t25 52t68 19t67.5 -19t24.5 -52t-24.5 -52.5t-67.5 -19.5zM53 -193h-57v109h40q31 0 44.5 15t13.5 48v510h150v-510q0 -172 -191 -172z
M378 -193h-57v109h40q31 0 45 15t14 48v510h149v-510q0 -172 -191 -172z" />
    <glyph glyph-name="q_j.liga.ss01" horiz-adv-x="1093" 
d="M927 551q-43 0 -68 19.5t-25 52.5t25 52t68 19q42 0 66.5 -19t24.5 -52t-24.5 -52.5t-66.5 -19.5zM675 -180h-149v180l32 133h-18q-56 -151 -227 -151q-155 0 -224 101q-44 64 -44 161q0 98 44 162q69 101 224 101q171 0 227 -151h18l-32 133h149v-669zM810 -193h-57v109
h40q31 0 44.5 15t13.5 48v510h150v-510q0 -172 -191 -172zM363 94q98 0 139 58q26 37 26 92q0 56 -26 93q-40 57 -139 57q-100 0 -140 -57q-26 -37 -26 -93q0 -55 26 -92q41 -58 140 -58z" />
    <glyph glyph-name="f_f.ss03" horiz-adv-x="888" 
d="M933 548h-146v4q0 65 -77 65q-40 0 -62.5 -21.5t-22.5 -58.5v-48h230v-107h-230v-382h-149v382h-246v-382h-148v515q0 93 71 148t193 55q121 0 182 -59q63 60 181 60q107 0 165.5 -43t58.5 -123v-5zM228 516v-27h248v31q0 46 -31 71.5t-87 25.5q-60 0 -95 -26.5
t-35 -74.5z" />
    <glyph glyph-name="f_f_i.ss03" horiz-adv-x="1101" 
d="M624 506v-17h394v-489h-149v386h-245v-386h-149v386h-244v-386h-149v515q0 93 71.5 148t194.5 55q129 0 190 -67q75 67 216 67q124 0 194 -43.5t78 -127.5h-158q-9 70 -117 70q-59 0 -93 -29t-34 -82zM229 516v-27h246v31q0 46 -30.5 71.5t-86.5 25.5q-60 0 -94.5 -26.5
t-34.5 -74.5z" />
    <glyph glyph-name="f_f_l.ss03" horiz-adv-x="1213" 
d="M709 719q107 0 165.5 -43t58.5 -123v-5h-146v4q0 65 -77 65q-40 0 -62.5 -21.5t-22.5 -58.5v-48h230v-107h-230v-382h-149v382h-246v-382h-148v515q0 93 71 148t193 55q121 0 182 -59q63 60 181 60zM981 0v700h149v-700h-149zM228 516v-27h248v31q0 46 -31 71.5t-87 25.5
q-60 0 -95 -26.5t-35 -74.5z" />
    <glyph glyph-name="f_i.ss03" horiz-adv-x="687" 
d="M605 553v-6h-151v4q-9 66 -106 66q-55 0 -86.5 -29t-31.5 -82v-17h374v-489h-146v386h-228v-386h-148v505q0 98 70 155.5t195 57.5q117 0 183.5 -42.5t74.5 -122.5z" />
    <glyph glyph-name="f_l.ss03" horiz-adv-x="819" 
d="M315 719q107 0 165.5 -43t58.5 -123v-5h-145v4q0 65 -77 65q-40 0 -63 -21.5t-23 -58.5v-48h230v-107h-230v-382h-149v530q0 88 62.5 138.5t170.5 50.5zM587 0v700h149v-700h-149z" />
    <glyph glyph-name="f_f_l.ss05" horiz-adv-x="1140" 
d="M787 718q271 0 271 -194v-524h-149v524q0 95 -122 95q-56 0 -89 -26t-33 -73v-31h170v-107h-170v-382h-148v386h-245v-386h-147v382h-111v107h111v26q0 94 70 148.5t193 54.5q128 0 188 -65q73 65 211 65zM270 516v-27h247v32q0 47 -30.5 72t-87.5 25q-59 0 -94 -27
t-35 -75z" />
    <glyph glyph-name="f_l.ss05" horiz-adv-x="747" 
d="M394 718q271 0 271 -194v-524h-148v524q0 95 -122 95q-57 0 -89.5 -26t-32.5 -73v-31h169v-107h-169v-382h-149v382h-110v107h110v28q0 95 72.5 148t197.5 53z" />
    <glyph glyph-name="f_f_l.ss03.ss05" horiz-adv-x="1096" 
d="M744 718q270 0 270 -194v-524h-148v524q0 93 -122 93q-57 0 -89.5 -25t-32.5 -72v-31h169v-107h-169v-382h-149v386h-244v-386h-147v515q0 94 70 148.5t193 54.5q126 0 188 -64q73 64 211 64zM473 489v32q0 46 -30.5 71t-86.5 25q-60 0 -94.5 -26.5t-34.5 -74.5v-27h246z
" />
    <glyph glyph-name="f_l.ss03.ss05" horiz-adv-x="705" 
d="M352 718q271 0 271 -194v-524h-148v524q0 93 -123 93q-56 0 -89 -25t-33 -72v-31h170v-107h-170v-382h-148v517q0 95 72 148t198 53z" />
    <glyph glyph-name="i.sups.ss01" horiz-adv-x="249" 
d="M124 700q-29 0 -47.5 14.5t-18.5 39.5q0 24 18 38.5t48 14.5t48.5 -14t18.5 -39t-18.5 -39.5t-48.5 -14.5zM182 300h-115v345h115v-345z" />
    <glyph glyph-name="j.sups.ss01" horiz-adv-x="268" 
d="M138 700q-30 0 -48.5 14.5t-18.5 39.5t18 39t49 14q30 0 48.5 -14t18.5 -39t-18.5 -39.5t-48.5 -14.5zM31 164q-74 0 -114 30t-45 83v2h109v-2q3 -36 47 -36q52 0 52 59v345h115v-341q0 -64 -43.5 -102t-120.5 -38z" />
    <glyph glyph-name="a.sups.ss02" horiz-adv-x="524" 
d="M211 288q-95 0 -139 65q-33 46 -33 119q0 72 32 118q46 66 140 66q112 0 151 -107h14l-25 95h114v-344h-114l25 95h-14q-37 -107 -151 -107zM253 373q59 0 83 36q18 26 18 63t-18 63q-26 36 -83 36q-58 0 -83 -37q-17 -23 -17 -62t17 -63q24 -36 83 -36z" />
    <glyph glyph-name="f.sups.ss03" horiz-adv-x="377" 
d="M182 676v-31h155v-82h-155v-263h-114v369q0 62 44 98t122 36q157 0 162 -119h-110q-3 42 -51 42q-24 0 -38.5 -13.5t-14.5 -36.5z" />
    <glyph glyph-name="t.sups.ss03" horiz-adv-x="445" 
d="M405 645v-82h-223v-137q0 -52 54 -52q55 0 55 57v45h114v-48q0 -66 -45 -103.5t-126 -37.5q-82 0 -124 35t-42 101v276l114 46v-100h223z" />
    <glyph glyph-name="j.sups.ss01.ss04" horiz-adv-x="263" 
d="M134 700q-31 0 -49 14.5t-18 39.5t18 39t49 14q30 0 48 -14t18 -39t-18 -39.5t-48 -14.5zM41 164h-43v79h23q55 0 55 56v346h115v-343q0 -68 -38.5 -103t-111.5 -35z" />
    <glyph glyph-name="j.sups.ss04" horiz-adv-x="258" 
d="M195 703h-123v87h123v-87zM41 164h-43v79h23q55 0 55 56v346h115v-343q0 -68 -38.5 -103t-111.5 -35z" />
    <glyph glyph-name="a.sups" horiz-adv-x="495" 
d="M244 658q191 0 191 -142v-13v-203h-111l24 95h-13q-29 -108 -158 -108q-67 0 -100 33q-26 26 -26 67t26 69q33 33 102 38l142 9v4v12q0 57 -80 57t-82 -55h-115q2 64 54 100.5t146 36.5zM220 359q43 0 72 24.5t29 60.5l-104 -8q-27 -3 -39 -15q-9 -9 -9 -25t9 -25
q12 -12 42 -12z" />
    <glyph glyph-name="b.sups" horiz-adv-x="552" 
d="M327 287q-118 0 -156 108h-13l24 -95h-114v490h114v-145l-24 -95h13q38 108 156 108q103 0 151 -69q31 -47 31 -116q0 -70 -32 -117q-46 -69 -150 -69zM287 376q64 0 89 36q17 24 17 61q0 34 -17 59q-25 37 -89 37q-65 0 -90 -38q-16 -22 -16 -58q0 -35 16 -59
q26 -38 90 -38z" />
    <glyph glyph-name="c.sups" horiz-adv-x="503" 
d="M255 287q-133 0 -186 78q-30 44 -30 107t30 107q55 79 190 79q92 0 148 -38t59 -107h-114q-10 56 -92 56q-64 0 -88 -37q-17 -25 -17 -60q0 -37 16 -59q26 -37 85 -37q80 0 90 56h114q-4 -69 -59.5 -107t-145.5 -38z" />
    <glyph glyph-name="d.sups" horiz-adv-x="552" 
d="M225 287q-102 0 -151 69q-32 47 -32 117q0 68 32 116q48 69 151 69q117 0 155 -108h15l-26 95v145h115v-490h-115l26 95h-15q-38 -108 -155 -108zM265 376q64 0 89 37q17 25 17 60q0 34 -17 59q-24 37 -89 37q-66 0 -89 -37q-17 -23 -17 -59q0 -35 17 -60q23 -37 89 -37z
" />
    <glyph glyph-name="e.sups" horiz-adv-x="493" 
d="M341 407h115q-12 -54 -67 -87t-135 -33q-133 0 -185 77q-30 44 -30 108q0 65 31 108q53 78 180 78q98 0 151.5 -49t53.5 -136v-26h-305q3 -29 15 -47q24 -35 88 -35q66 0 88 42zM250 581q-61 0 -86 -36q-9 -14 -13 -35h194q-6 71 -95 71z" />
    <glyph glyph-name="f.sups" horiz-adv-x="408" 
d="M213 676v-31h155v-82h-155v-263h-114v263h-78v82h78v24q0 62 44 98t122 36q157 0 162 -119h-110q-3 42 -51 42q-24 0 -38.5 -13.5t-14.5 -36.5z" />
    <glyph glyph-name="g.sups" horiz-adv-x="526" 
d="M249 164q-97 0 -150 35.5t-56 100.5h113q5 -58 95 -58q45 0 71 20.5t26 58.5v13l30 92h-13q-33 -106 -145 -106q-101 0 -148 66q-28 40 -28 103t29 104q44 65 147 65q112 0 145 -106h13l-28 93h113v-291q0 -190 -214 -190zM256 403q59 0 83 35q14 20 14 51t-14 52
q-24 34 -83 34q-60 0 -83 -33q-15 -24 -15 -53q0 -31 14 -51q25 -35 84 -35z" />
    <glyph glyph-name="h.sups" horiz-adv-x="528" 
d="M182 300h-114v490h114v-145l-24 -99h13q37 112 149 112q73 0 110.5 -38t37.5 -109v-28v-183h-115v170v22q0 72 -76 72q-45 0 -70 -25t-25 -68v-171z" />
    <glyph glyph-name="i.sups" horiz-adv-x="249" 
d="M186 701h-123v89h123v-89zM181 300h-114v345h114v-345z" />
    <glyph glyph-name="j.sups" horiz-adv-x="256" 
d="M193 702h-123v88h123v-88zM28 164q-144 0 -156 113v2h108v-2q3 -35 45 -35q50 0 50 57v346h114v-343q0 -64 -42.5 -101t-118.5 -37z" />
    <glyph glyph-name="k.sups" horiz-adv-x="513" 
d="M357 645h137l-180 -159l176 -186h-141l-114 127l-53 -47v-80h-114v490h114v-257l-25 -48h14z" />
    <glyph glyph-name="l.sups" horiz-adv-x="249" 
d="M182 300h-114v490h114v-490z" />
    <glyph glyph-name="m.sups" horiz-adv-x="750" 
d="M182 300h-114v345h114l-24 -98h13q31 111 129 111q47 0 77 -30t31 -81h14q30 111 137 111q65 0 98 -37t33 -107v-48v-166h-115v162v35q0 67 -61 67q-37 0 -57.5 -23t-20.5 -62v-179h-115v164v33q0 67 -61 67q-37 0 -57.5 -22.5t-20.5 -61.5v-180z" />
    <glyph glyph-name="n.sups" horiz-adv-x="528" 
d="M182 300h-114v345h114l-24 -99h13q37 112 149 112q73 0 110.5 -38t37.5 -109v-211h-115v192q0 72 -76 72q-45 0 -70 -25t-25 -68v-171z" />
    <glyph glyph-name="o.sups" horiz-adv-x="525" 
d="M263 287q-68 0 -118.5 22.5t-75.5 60.5q-30 44 -30 103t30 102q57 83 194 83q138 0 193 -83q31 -46 31 -102q0 -58 -30 -102q-57 -84 -194 -84zM263 376q65 0 91 40q16 22 16 57q0 32 -16 56q-27 40 -91 40t-92 -39q-16 -23 -16 -57q0 -32 16 -58q28 -39 92 -39z" />
    <glyph glyph-name="p.sups" horiz-adv-x="552" 
d="M182 174h-114v471h114l-24 -95h13q38 108 156 108q103 0 151 -69q31 -47 31 -116q0 -70 -32 -117q-46 -69 -150 -69q-118 0 -156 108h-13l24 -95v-126zM287 376q64 0 89 36q17 24 17 61q0 34 -17 59q-25 37 -89 37q-65 0 -90 -38q-16 -22 -16 -58q0 -35 16 -59
q26 -38 90 -38z" />
    <glyph glyph-name="q.sups" horiz-adv-x="552" 
d="M484 174h-115v126l26 95h-15q-38 -108 -155 -108q-102 0 -151 69q-32 47 -32 117q0 68 32 116q48 69 151 69q117 0 155 -108h15l-26 95h115v-471zM265 376q64 0 89 37q17 25 17 60q0 34 -17 59q-24 37 -89 37q-66 0 -89 -37q-17 -23 -17 -59q0 -35 17 -60q23 -37 89 -37z
" />
    <glyph glyph-name="r.sups" horiz-adv-x="461" 
d="M182 300h-114v345h112l-28 -108h14q22 65 55.5 93t88.5 28q59 0 89 -33.5t30 -94.5v-37v-33h-115v23v17q0 33 -14 48t-46 15q-72 0 -72 -88v-175z" />
    <glyph glyph-name="s.sups" horiz-adv-x="455" 
d="M225 287q-85 0 -133.5 32.5t-48.5 90.5h108q0 -48 75 -48q48 0 63 15q7 9 7 20q0 15 -11.5 22.5t-38.5 11.5l-86 12q-112 17 -112 102q0 39 27 68q47 45 155 45q87 0 134 -32.5t47 -91.5h-109q0 50 -76 50q-46 0 -61 -15q-9 -9 -9 -20q0 -25 52 -33l78 -11q62 -10 91 -34
t29 -70q0 -40 -27 -69q-45 -45 -154 -45z" />
    <glyph glyph-name="t.sups" horiz-adv-x="475" 
d="M435 645v-82h-223v-137q0 -52 54 -52q55 0 55 57v45h114v-48q0 -66 -45 -103.5t-126 -37.5q-82 0 -124 35t-42 101v140h-77v82h77v54l114 46v-100h223z" />
    <glyph glyph-name="u.sups" horiz-adv-x="521" 
d="M205 287q-71 0 -108 38t-37 109v27v184h115v-167v-25q0 -72 73 -72q42 0 66.5 25.5t24.5 67.5v171h114v-345h-114l25 99h-14q-36 -112 -145 -112z" />
    <glyph glyph-name="v.sups" horiz-adv-x="503" 
d="M343 300h-184l-136 345h123l93 -251l5 -38h14l6 38l93 251h123z" />
    <glyph glyph-name="w.sups" horiz-adv-x="731" 
d="M300 300h-169l-98 345h116l62 -246l3 -43h15l4 43l54 246h158l53 -246l4 -43h15l4 43l61 246h116l-97 -345h-171l-54 246l-3 41h-15l-4 -41z" />
    <glyph glyph-name="x.sups" horiz-adv-x="495" 
d="M164 300h-139l139 172l-139 173h139l72 -99l4 -22h15l5 22l71 99h139l-139 -173l139 -172h-139l-72 95l-4 21h-15l-5 -21z" />
    <glyph glyph-name="y.sups" horiz-adv-x="504" 
d="M264 380l93 265h125l-147 -369q-22 -58 -58.5 -85t-101.5 -27q-69 0 -109 30.5t-45 87.5h115q3 -40 42 -40q36 0 51 40l18 50h-97l-126 313h125l98 -265h17z" />
    <glyph glyph-name="z.sups" horiz-adv-x="465" 
d="M415 300h-364v127l234 121v14h-234v83h363v-127l-236 -121v-14h237v-83z" />
    </font>
</defs>
</svg>
